osu file format v14

[General]
AudioFilename: audio.mp3
AudioLeadIn: 0
PreviewTime: 43793
Countdown: 0
SampleSet: Soft
StackLeniency: 0.4
Mode: 0
LetterboxInBreaks: 0
EpilepsyWarning: 1
WidescreenStoryboard: 1

[Editor]
Bookmarks: 11034,22068,33103,38620,44137,66206,82758,88275,91551,93793,115862,126896,132413,136551,137931,160000,176551,182068,192931
DistanceSpacing: 1
BeatDivisor: 4
GridSize: 32
TimelineZoom: 2.2

[Metadata]
Title:HYPERDRIVE
TitleUnicode:HYPER★DRIVE
Artist:nanobii
ArtistUnicode:nanobii
Creator:hypercyte
Version:Dash's Normal
Source:osu!
Tags:osu featured artist hyper drive hyperdrive full happy happycore hypercute peter petereu dashyy- dash
BeatmapID:1876379
BeatmapSetID:883505

[Difficulty]
HPDrainRate:4
CircleSize:3.5
OverallDifficulty:4
ApproachRate:5
SliderMultiplier:1
SliderTickRate:1

[Events]
//Background and Video events
0,0,"hypercutes hyperdrive.jpg",0,0
//Break Periods
2,93993,102075
//Storyboard Layer 0 (Background)
//Storyboard Layer 1 (Fail)
//Storyboard Layer 2 (Pass)
//Storyboard Layer 3 (Foreground)
//Storyboard Sound Samples

[TimingPoints]
0,344.827586206897,4,2,1,50,1,0
0,-100,4,2,1,50,0,0
11034,-100,4,2,0,50,0,0
18620,-100,4,2,0,50,0,0
21551,-100,4,2,0,50,0,0
22068,-100,4,2,1,60,0,0
22500,-100,4,2,1,5,0,0
22586,-100,4,2,1,60,0,0
23017,-100,4,2,1,5,0,0
23103,-100,4,2,1,60,0,0
23534,-100,4,2,1,5,0,0
23620,-100,4,2,1,60,0,0
24051,-100,4,2,1,5,0,0
24137,-100,4,2,1,60,0,0
24396,-100,4,2,1,5,0,0
24482,-100,4,2,1,60,0,0
24568,-100,4,2,1,5,0,0
24655,-100,4,2,1,60,0,0
24741,-100,4,2,1,5,0,0
24827,-100,4,2,1,60,0,0
25258,-100,4,2,1,5,0,0
25344,-100,4,2,1,60,0,0
25775,-100,4,2,1,5,0,0
25862,-100,4,2,1,60,0,0
26293,-100,4,2,1,5,0,0
26379,-100,4,2,1,60,0,0
26810,-100,4,2,1,5,0,0
26896,-100,4,2,1,60,0,0
27155,-100,4,2,1,5,0,0
27241,-100,4,2,1,60,0,0
27327,-100,4,2,1,5,0,0
27413,-100,4,2,1,60,0,0
27500,-100,4,2,1,5,0,0
27586,-100,4,2,1,60,0,0
28017,-100,4,2,1,5,0,0
28103,-100,4,2,1,60,0,0
28534,-100,4,2,1,5,0,0
28620,-100,4,2,1,60,0,0
29051,-100,4,2,1,5,0,0
29137,-100,4,2,1,60,0,0
29568,-100,4,2,1,5,0,0
29655,-100,4,2,1,60,0,0
29913,-100,4,2,1,5,0,0
30000,-100,4,2,1,60,0,0
30086,-100,4,2,1,5,0,0
30172,-100,4,2,1,60,0,0
30258,-100,4,2,1,5,0,0
30344,-100,4,2,1,60,0,0
30775,-100,4,2,1,5,0,0
30862,-100,4,2,1,60,0,0
31293,-100,4,2,1,5,0,0
31379,-100,4,2,1,60,0,0
31810,-100,4,2,1,5,0,0
31896,-100,4,2,1,60,0,0
32327,-100,4,2,1,5,0,0
32413,-100,4,2,1,60,0,0
32672,-100,4,2,1,5,0,0
32758,-100,4,2,1,60,0,0
32844,-100,4,2,1,5,0,0
32931,-100,4,2,1,60,0,0
33017,-100,4,2,1,5,0,0
33103,-100,4,2,1,80,0,0
37931,-100,4,2,1,80,0,0
43793,-100,4,2,1,80,0,0
43965,-100,4,2,1,80,0,0
44137,-100,4,2,1,80,0,1
44396,-100,4,2,1,80,0,1
44482,-100,4,2,1,80,0,1
44741,-100,4,2,1,5,0,1
44827,-100,4,2,1,80,0,1
45344,-100,4,2,1,80,0,1
46465,-100,4,2,1,5,0,1
46551,-100,4,2,1,80,0,1
46810,-100,4,2,1,5,0,1
46896,-100,4,2,1,80,0,1
47155,-100,4,2,1,5,0,1
47241,-100,4,2,1,80,0,1
49655,-100,4,2,1,80,0,1
49913,-100,4,2,1,5,0,1
50000,-100,4,2,1,80,0,1
50258,-100,4,2,1,5,0,1
50344,-100,4,2,1,80,0,1
50862,-100,4,2,1,80,0,1
55172,-100,4,2,1,80,0,1
55431,-100,4,2,1,5,0,1
55517,-100,4,2,1,80,0,1
55775,-100,4,2,1,5,0,1
55862,-100,4,2,1,80,0,1
57500,-100,4,2,1,5,0,1
57586,-100,4,2,1,80,0,1
57844,-100,4,2,1,5,0,1
57931,-100,4,2,1,80,0,1
58189,-100,4,2,1,5,0,1
58275,-100,4,2,1,80,0,1
60689,-100,4,2,1,80,0,1
60948,-100,4,2,1,5,0,1
61034,-100,4,2,1,80,0,1
61293,-100,4,2,1,5,0,1
61379,-100,4,2,1,80,0,1
63448,-100,4,2,1,80,0,0
64137,-100,4,2,1,80,0,0
64482,-100,4,2,1,80,0,0
64827,-100,4,2,1,80,0,0
65172,-100,4,2,1,80,0,0
66206,-100,4,2,1,80,0,1
66465,-100,4,2,1,5,0,1
66551,-100,4,2,1,80,0,1
66896,-100,4,2,1,80,0,1
68965,-100,4,2,1,80,0,1
69224,-100,4,2,1,5,0,1
69310,-100,4,2,1,80,0,1
69568,-100,4,2,1,5,0,1
69655,-100,4,2,1,80,0,1
71724,-100,4,2,1,80,0,1
71982,-100,4,2,1,5,0,1
72068,-100,4,2,1,80,0,1
72327,-100,4,2,1,5,0,1
72413,-100,4,2,1,80,0,1
74482,-100,4,2,1,80,0,1
74741,-100,4,2,1,5,0,1
74827,-100,4,2,1,80,0,1
76810,-100,4,2,1,5,0,1
76896,-100,4,2,1,80,0,1
77241,-100,4,2,1,80,0,1
77500,-100,4,2,1,5,0,1
77586,-100,4,2,1,80,0,1
77931,-100,4,2,1,80,0,1
80000,-100,4,2,1,80,0,1
80258,-100,4,2,1,5,0,1
80344,-100,4,2,1,80,0,1
80603,-100,4,2,1,5,0,1
80689,-100,4,2,1,80,0,1
82327,-100,4,2,1,5,0,1
82586,-100,4,2,1,80,0,1
82758,-100,4,2,1,80,0,0
82844,-100,4,2,1,60,0,0
84137,-100,4,2,1,60,0,0
85517,-100,4,2,1,50,0,0
86896,-100,4,2,1,40,0,0
87241,-100,4,2,1,60,0,0
87586,-100,4,2,1,80,0,0
87931,-100,4,2,1,100,0,0
88275,-100,4,2,1,80,0,0
88362,-100,4,2,1,60,0,0
91034,-100,4,2,1,60,0,0
93793,-100,4,2,1,40,0,0
103448,-100,4,2,1,40,0,0
103793,-100,4,2,1,60,0,0
104137,-100,4,2,1,80,0,0
104310,-100,4,2,1,50,0,0
104482,-100,4,2,1,60,0,0
104827,-100,4,2,1,50,0,0
114482,-100,4,2,1,50,0,0
114827,-100,4,2,1,70,0,0
115172,-100,4,2,1,90,0,0
115517,-100,4,2,1,80,0,0
115775,-100,4,2,1,5,0,0
115862,-100,4,2,1,60,0,0
125000,-100,4,2,1,60,0,0
125517,-100,4,2,1,60,0,0
126034,-100,4,2,1,60,0,0
126551,-100,4,2,1,60,0,0
126810,-100,4,2,1,5,0,0
126896,-100,4,2,1,75,0,0
129655,-100,4,2,1,75,0,0
132241,-100,4,2,1,60,0,0
133103,-100,4,2,1,60,0,0
133793,-100,4,2,1,80,0,0
134482,-100,4,2,1,80,0,0
135172,-100,4,2,1,100,0,0
136551,-100,4,2,1,5,0,0
136637,-100,4,2,1,50,0,0
137931,-100,4,2,1,80,0,1
138189,-100,4,2,1,5,0,1
138275,-100,4,2,1,80,0,1
138620,-100,4,2,1,80,0,1
140258,-100,4,2,1,5,0,1
140344,-100,4,2,1,80,0,1
140603,-100,4,2,1,5,0,1
140689,-100,4,2,1,80,0,1
140948,-100,4,2,1,5,0,1
141034,-100,4,2,1,80,0,1
143448,-100,4,2,1,80,0,1
143706,-100,4,2,1,5,0,1
143793,-100,4,2,1,80,0,1
144051,-100,4,2,1,5,0,1
144137,-100,4,2,1,80,0,1
148965,-100,4,2,1,80,0,1
149224,-100,4,2,1,5,0,1
149310,-100,4,2,1,80,0,1
149568,-100,4,2,1,5,0,1
149655,-100,4,2,1,80,0,1
151293,-100,4,2,1,5,0,1
151379,-100,4,2,1,80,0,1
151637,-100,4,2,1,5,0,1
151724,-100,4,2,1,80,0,1
151982,-100,4,2,1,5,0,1
152068,-100,4,2,1,80,0,1
154482,-100,4,2,1,80,0,1
154741,-100,4,2,1,5,0,1
154827,-100,4,2,1,80,0,1
155086,-100,4,2,1,5,0,1
155172,-100,4,2,1,80,0,1
157241,-100,4,2,1,80,0,0
158448,-100,4,2,1,80,0,0
159310,-100,4,2,1,80,0,0
160000,-100,4,2,1,80,0,1
160258,-100,4,2,1,5,0,1
160344,-100,4,2,1,80,0,1
160603,-100,4,2,1,5,0,1
160689,-100,4,2,1,80,0,1
162758,-100,4,2,1,80,0,1
163017,-100,4,2,1,5,0,1
163103,-100,4,2,1,80,0,1
163362,-100,4,2,1,5,0,1
163448,-100,4,2,1,80,0,1
165517,-100,4,2,1,80,0,1
165775,-100,4,2,1,5,0,1
165862,-100,4,2,1,80,0,1
166120,-100,4,2,1,5,0,1
166206,-100,4,2,1,80,0,1
168275,-100,4,2,1,80,0,1
168534,-100,4,2,1,5,0,1
168620,-100,4,2,1,80,0,1
170603,-100,4,2,1,5,0,1
170689,-100,4,2,1,80,0,1
171034,-100,4,2,1,80,0,1
171293,-100,4,2,1,5,0,1
171379,-100,4,2,1,80,0,1
171637,-100,4,2,1,5,0,1
171724,-100,4,2,1,80,0,1
173793,-100,4,2,1,80,0,1
174051,-100,4,2,1,5,0,1
174137,-100,4,2,1,80,0,1
174396,-100,4,2,1,5,0,1
174482,-100,4,2,1,80,0,1
176120,-100,4,2,1,5,0,1
176206,-100,4,2,1,80,0,1
176551,-100,4,2,1,80,0,0
176637,-100,4,2,1,60,0,0
179827,-100,4,2,1,60,0,0
180689,-100,4,2,1,60,0,0
182068,-100,4,2,1,50,0,0
187931,-100,4,2,1,40,0,0
188793,-100,4,2,1,40,0,0
190344,-100,4,2,1,30,0,0
192586,-100,4,2,1,20,0,0

[Colours]
Combo1 : 233,103,158
Combo2 : 255,162,100
Combo3 : 186,143,220

[HitObjects]
89,50,0,6,0,P|68:86|53:161,1,100,2|0,0:0|0:0,0:0:0:0:
25,183,517,2,0,P|61:204|136:219,1,100,2|0,0:0|0:0,0:0:0:0:
159,190,1034,1,2,0:0:0:0:
203,279,1379,2,0,P|239:300|314:315,1,100,2|0,0:0|0:0,0:0:0:0:
336,343,1896,2,0,P|357:307|372:232,1,100,2|0,0:0|0:0,0:0:0:0:
343,209,2413,1,2,0:0:0:0:
423,148,2758,6,0,P|408:77|411:-7,2,150,2|2|2,0:0|0:0|0:0,0:0:0:0:
495,216,4137,2,0,P|510:287|507:371,2,150,2|2|2,0:0|0:0|0:0,0:0:0:0:
411,270,5517,6,0,P|375:249|300:234,1,100,2|0,0:0|0:0,0:0:0:0:
278,206,6034,2,0,P|257:242|242:317,1,100,2|0,0:0|0:0,0:0:0:0:
271,340,6551,1,2,0:0:0:0:
174,365,6896,2,0,P|153:329|138:254,1,100,2|0,0:0|0:0,0:0:0:0:
164,229,7413,1,2,0:0:0:0:
164,229,7586,2,0,L|171:122,2,100,2|2|2,0:0|0:0|0:0,0:0:0:0:
51,327,8793,5,2,0:0:0:0:
10,182,9310,1,2,0:0:0:0:
93,132,9655,2,0,P|82:91|21:-10,2,150,0|0|2,0:0|0:0|0:0,0:0:0:0:
162,203,11034,6,0,L|271:195,1,100,10|10,0:0|0:0,0:0:0:0:
293,100,11724,2,0,P|331:108|377:159,1,100,10|10,0:0|0:0,0:0:0:0:
408,185,12241,2,0,L|420:296,1,100,2|0,0:0|0:0,0:0:0:0:
395,329,12758,1,10,0:0:0:0:
301,365,13103,2,0,L|194:350,1,100,10|10,0:0|0:0,0:0:0:0:
105,331,13793,6,0,L|43:335,2,50,10|0|8,0:0|0:0|0:0,0:0:0:0:
143,298,14310,2,0,L|151:189,1,100,8|10,0:0|0:0,0:0:0:0:
151,148,14827,1,0,0:0:0:0:
205,55,15172,2,0,P|241:34|316:19,1,100,10|8,0:0|0:0,0:0:0:0:
344,2,15689,2,0,P|365:38|380:113,1,100,2|0,0:0|0:0,0:0:0:0:
357,139,16206,1,10,0:0:0:0:
382,235,16551,6,0,L|380:346,1,100,10|10,0:0|0:0,0:0:0:0:
274,355,17241,2,0,P|236:363|171:334,1,100,10|10,0:0|0:0,0:0:0:0:
139,312,17758,1,2,0:0:0:0:
139,312,17931,2,0,L|29:320,1,100,8|10,0:0|0:0,0:0:0:0:
6,224,18620,2,0,L|17:119,1,100,10|10,0:0|0:0,0:0:0:0:
256,192,19310,12,8,21379,0:0:0:0:
35,73,22068,6,0,B|140:68|140:68|189:98,2,150,12|8|8,0:1|0:1|0:1,0:0:0:0:
15,221,23620,2,0,P|53:238|68:342,1,150,8|8,0:1|0:1,0:0:0:0:
170,354,24482,2,0,P|197:338|231:333,1,50,10|10,0:1|0:1,0:0:0:0:
262,348,24827,6,0,L|269:192,2,150,14|8|8,0:1|0:1|0:1,0:0:0:0:
408,379,26379,2,0,P|429:346|400:245,1,150,8|8,0:1|0:1,0:0:0:0:
359,155,27241,2,0,P|395:139|426:135,1,50,8|8,0:1|0:1,0:0:0:0:
451,156,27586,6,0,B|437:58|437:58|471:16,2,150,12|8|8,0:1|0:1|0:1,0:0:0:0:
350,266,29137,2,0,P|308:264|248:168,1,150,8|8,0:1|0:1,0:0:0:0:
233,84,30000,2,0,P|192:76|168:78,1,50,10|10,0:1|0:1,0:0:0:0:
149,112,30344,6,0,L|-3:103,2,150,14|8|8,0:1|0:1|0:1,0:0:0:0:
264,208,31896,2,0,B|218:258|218:258|231:358,1,150,8|8,0:1|0:1,0:0:0:0:
136,378,32758,2,0,P|116:354|90:340,1,50,8|8,0:1|0:1,0:0:0:0:
50,340,33103,6,0,L|37:230,1,100,14|10,0:0|0:1,0:0:0:0:
88,154,33793,2,0,L|92:95,2,50,10|2|10,0:1|0:0|0:1,0:0:0:0:
125,187,34310,1,2,0:0:0:0:
125,187,34482,2,0,P|153:158|220:157,1,100,8|10,0:1|0:1,0:0:0:0:
301,198,35172,1,10,0:1:0:0:
365,121,35517,1,10,0:1:0:0:
425,200,35862,6,0,L|495:208,2,50,10|0|8,0:1|0:0|0:1,0:0:0:0:
382,227,36379,1,2,0:0:0:0:
382,227,36551,2,0,P|415:260|412:328,1,100,8|10,0:1|0:1,0:0:0:0:
335,366,37241,2,0,L|231:357,1,100,8|8,0:1|0:1,0:0:0:0:
185,349,37758,1,0,0:0:0:0:
185,349,37931,2,0,B|207:305|207:305|198:241,1,100,8|8,0:1|0:1,0:0:0:0:
259,174,38620,1,14,0:0:0:0:
256,192,38793,12,0,42758,0:0:0:0:
189,88,43793,6,0,P|160:91|130:75,1,50,0|0,0:0|0:0,0:0:0:0:
97,58,44137,6,0,B|73:101|73:101|81:166,1,100,14|10,0:0|0:1,0:0:0:0:
147,225,44827,2,0,L|143:285,1,50,10|2,0:0|0:0,0:0:0:0:
170,317,45172,1,10,0:1:0:0:
170,317,45344,1,2,0:0:0:0:
170,317,45517,2,0,P|192:285|262:270,1,100,8|10,0:0|0:1,0:0:0:0:
330,325,46206,1,10,0:0:0:0:
416,374,46551,1,10,0:1:0:0:
459,284,46896,6,0,L|518:277,2,50,10|0|8,0:0|0:0|0:1,0:0:0:0:
421,248,47413,1,2,0:0:0:0:
421,248,47586,2,0,P|430:209|395:145,1,100,8|10,0:0|0:1,0:0:0:0:
369,122,48103,1,0,0:0:0:0:
369,122,48275,2,0,P|352:82|369:21,1,100,10|8,0:0|0:1,0:0:0:0:
265,6,48965,2,0,L|157:14,1,100,8|10,0:0|0:1,0:0:0:0:
118,96,49655,6,0,P|164:107|197:162,1,100,10|10,0:0|0:1,0:0:0:0:
236,238,50344,2,0,L|302:242,2,50,10|2|10,0:0|0:0|0:1,0:0:0:0:
199,272,50862,1,2,0:0:0:0:
199,272,51034,2,0,L|91:282,1,100,8|10,0:0|0:1,0:0:0:0:
8,239,51724,1,10,0:0:0:0:
60,154,52068,1,10,0:1:0:0:
5,70,52413,6,0,P|30:45|93:32,1,100,8|8,0:0|0:1,0:0:0:0:
128,65,52931,1,2,0:0:0:0:
128,65,53103,2,0,B|167:85|167:85|233:75,1,100,8|10,0:0|0:1,0:0:0:0:
321,94,53793,2,0,P|306:126|319:203,2,100,8|8|10,0:0|0:1|0:0,0:0:0:0:
360,63,54655,1,2,0:0:0:0:
360,63,54827,1,10,0:1:0:0:
445,115,55172,6,0,L|451:222,1,100,10|10,0:0|0:1,0:0:0:0:
439,314,55862,2,0,P|404:300|378:298,1,50,10|2,0:0|0:0,0:0:0:0:
351,327,56206,1,10,0:1:0:0:
351,327,56379,1,2,0:0:0:0:
351,327,56551,2,0,B|309:292|309:292|246:297,1,100,8|10,0:0|0:1,0:0:0:0:
170,332,57241,1,10,0:0:0:0:
117,246,57586,1,10,0:1:0:0:
32,300,57931,6,0,L|24:353,2,50,10|0|8,0:0|0:0|0:1,0:0:0:0:
18,251,58448,1,2,0:0:0:0:
18,251,58620,2,0,P|-3:217|9:147,1,100,8|10,0:0|0:1,0:0:0:0:
32,118,59137,1,0,0:0:0:0:
32,118,59310,2,0,L|138:124,1,100,10|8,0:0|0:1,0:0:0:0:
231,132,60000,2,0,B|207:168|207:168|212:237,1,100,8|10,0:0|0:1,0:0:0:0:
260,311,60689,6,0,P|286:287|354:285,1,100,10|10,0:0|0:1,0:0:0:0:
438,326,61379,2,0,L|441:380,2,50,10|2|10,0:0|0:0|0:1,0:0:0:0:
464,283,61896,1,2,0:0:0:0:
464,283,62068,2,0,L|473:168,1,100,12|10,0:0|0:1,0:0:0:0:
459,83,62758,1,10,0:0:0:0:
367,112,63103,1,10,0:1:0:0:
291,46,63448,1,12,0:0:0:0:
256,192,63620,12,10,65517,0:0:0:0:
66,33,66206,5,14,0:0:0:0:
23,126,66551,1,10,0:1:0:0:
98,192,66896,2,0,L|93:251,1,50,10|2,0:0|0:0,0:0:0:0:
113,287,67241,2,0,L|117:342,1,50,10|2,0:1|0:0,0:0:0:0:
148,375,67586,1,10,0:0:0:0:
148,375,67758,2,0,P|175:335|240:328,1,100,2|2,0:0|0:0,0:0:0:0:
318,355,68448,1,2,0:0:0:0:
407,310,68793,1,2,0:0:0:0:
407,310,68965,5,10,0:0:0:0:
378,214,69310,1,10,0:1:0:0:
449,144,69655,2,0,L|447:83,1,50,10|2,0:0|0:0,0:0:0:0:
423,49,70000,2,0,P|398:27|366:20,1,50,10|2,0:1|0:0,0:0:0:0:
336,40,70344,1,10,0:0:0:0:
336,40,70517,2,0,P|308:69|237:65,1,100,2|2,0:0|0:0,0:0:0:0:
163,23,71206,1,2,0:0:0:0:
84,84,71551,1,2,0:0:0:0:
84,84,71724,5,10,0:0:0:0:
155,153,72068,1,10,0:1:0:0:
239,99,72413,2,0,L|300:103,1,50,10|2,0:0|0:0,0:0:0:0:
335,82,72758,2,0,P|355:108|366:137,1,50,10|2,0:1|0:0,0:0:0:0:
342,169,73103,1,10,0:0:0:0:
342,169,73275,2,0,L|334:283,1,100,2|2,0:0|0:0,0:0:0:0:
288,357,73965,1,2,0:0:0:0:
217,285,74310,1,2,0:0:0:0:
217,285,74482,6,0,P|180:286|116:330,1,100,10|8,0:0|0:1,0:0:0:0:
64,245,75172,2,0,P|85:220|94:191,1,50,10|2,0:0|0:0,0:0:0:0:
61,163,75517,2,0,L|58:104,1,50,10|2,0:1|0:0,0:0:0:0:
56,62,75862,1,10,0:0:0:0:
56,62,76034,1,2,0:0:0:0:
149,98,76379,2,0,B|145:45|145:45|175:7,2,100,2|2|0,0:0|0:0|0:0,0:0:0:0:
172,143,77241,5,10,0:0:0:0:
265,106,77586,1,10,0:1:0:0:
319,190,77931,2,0,L|372:194,1,50,10|2,0:0|0:0,0:0:0:0:
418,198,78275,2,0,P|431:224|436:254,1,50,10|2,0:1|0:0,0:0:0:0:
413,289,78620,1,10,0:0:0:0:
413,289,78793,2,0,L|300:296,1,100,2|2,0:0|0:0,0:0:0:0:
225,343,79482,1,2,0:0:0:0:
153,272,79827,1,2,0:0:0:0:
153,272,80000,5,10,0:0:0:0:
186,177,80344,1,10,0:1:0:0:
103,120,80689,2,0,P|70:119|46:105,1,50,10|2,0:0|0:0,0:0:0:0:
26,70,81034,2,0,P|39:47|48:9,1,50,10|2,0:1|0:0,0:0:0:0:
90,1,81379,1,10,0:0:0:0:
90,1,81551,2,0,L|211:12,1,100,2|2,0:0|0:0,0:0:0:0:
288,24,82241,1,2,0:0:0:0:
246,115,82586,1,2,0:0:0:0:
246,115,82758,6,0,P|237:159|257:217,1,100,12|0,0:0|0:0,0:0:0:0:
336,265,83448,2,0,L|397:264,2,50,2|0|2,0:0|0:0|0:0,0:0:0:0:
243,303,84137,1,2,0:0:0:0:
243,303,84310,2,0,L|134:308,2,100,0|2|0,0:0|0:0|0:0,0:0:0:0:
331,349,85344,1,0,0:0:0:0:
331,349,85517,5,0,0:0:0:0:
256,192,85689,12,2,87586,0:0:0:0:
61,92,88275,6,0,P|80:65|195:38,2,150,14|2|2,0:0|0:0|0:0,0:0:0:0:
256,192,89655,12,2,93793,0:0:0:0:
71,157,103275,5,0,0:0:0:0:
71,157,103448,2,0,L|64:103,2,50,2|2|2,0:0|0:0|0:0,0:0:0:0:
153,214,104137,2,0,L|149:264,2,50,2|2|2,0:0|0:0|0:0,0:0:0:0:
190,120,104827,6,0,P|232:122|290:137,1,100,2|2,0:0|0:0,0:0:0:0:
378,179,105517,2,0,P|381:150|381:116,2,50
415,212,106034,1,0,0:0:0:0:
457,355,106551,2,0,P|409:353|347:363,2,100,2|2|2,0:0|0:0|0:0,0:0:0:0:
391,279,107586,2,0,L|229:287,1,150,2|2,0:0|0:0,0:0:0:0:
91,292,108620,1,2,0:0:0:0:
93,38,110689,6,0,P|111:76|126:137,1,100,2|2,0:0|0:0,0:0:0:0:
67,214,111379,1,2,0:0:0:0:
67,214,111551,2,0,P|41:261|28:320,1,100,2|0,0:0|0:0,0:0:0:0:
58,346,112068,1,2,0:0:0:0:
58,346,112241,2,0,P|95:328|158:317,1,100,2|0,0:0|0:0,0:0:0:0:
249,342,112931,6,0,P|286:353|356:359,1,100,2|0,0:0|0:0,0:0:0:0:
394,342,113448,1,2,0:0:0:0:
394,342,113620,2,0,P|405:296|409:229,1,100
263,279,114482,2,0,P|225:264|158:266,2,100
297,373,115517,1,0,0:0:0:0:
368,315,115862,6,0,P|354:279|368:211,1,100,12|2,0:0|0:0,0:0:0:0:
447,165,116551,2,0,L|501:166,2,50,0|2|0,0:0|0:0|0:0,0:0:0:0:
404,138,117068,1,2,0:0:0:0:
404,138,117241,2,0,P|374:119|306:124,1,100,2|2,0:0|0:0,0:0:0:0:
234,186,117931,1,0,0:0:0:0:
176,104,118275,1,0,0:0:0:0:
97,166,118620,6,0,L|35:162,2,50,2|0|2,0:0|0:0|0:0,0:0:0:0:
136,197,119137,1,0,0:0:0:0:
136,197,119310,2,0,B|107:242|107:242|118:308,1,100,0|0,0:0|0:0,0:0:0:0:
182,361,120000,2,0,P|216:334|275:330,1,100,2|2,0:0|0:0,0:0:0:0:
313,355,120517,2,0,B|336:317|336:317|330:253,1,100,0|2,0:0|0:0,0:0:0:0:
299,222,121034,1,0,0:0:0:0:
256,131,121379,6,0,P|272:99|327:72,1,100,2|2,0:0|0:0,0:0:0:0:
423,99,122068,2,0,L|492:110,2,50,0|2|0,0:0|0:0|0:0,0:0:0:0:
386,134,122586,1,2,0:0:0:0:
386,134,122758,2,0,B|411:179|411:179|403:243,1,100,2|2,0:0|0:0,0:0:0:0:
345,307,123448,2,0,P|306:274|245:270,1,100,0|0,0:0|0:0,0:0:0:0:
191,341,124137,6,0,B|211:288|211:288|197:190,2,150,2|0|0,0:0|0:0|0:0,0:0:0:0:
100,296,125517,2,0,P|77:281|-2:283,1,100,2|2,0:0|0:0,0:0:0:0:
0,179,126206,2,0,B|33:152|33:152|44:86,1,100,0|2,0:0|0:0,0:0:0:0:
119,31,126896,6,0,P|164:39|203:86,1,100,14|2,0:0|0:0,0:0:0:0:
240,169,127586,2,0,L|237:225,2,50,2|2|2,0:0|0:0|0:0,0:0:0:0:
272,130,128103,2,0,B|304:103|304:103|369:114,1,100,2|2,0:0|0:0,0:0:0:0:
445,166,128793,2,0,P|427:193|426:262,1,100,2|2,0:0|0:0,0:0:0:0:
448,302,129310,1,2,0:0:0:0:
348,313,129655,6,0,P|325:339|254:339,1,100,2|2,0:0|0:0,0:0:0:0:
229,249,130344,2,0,L|225:196,2,50,2|2|2,0:0|0:0|0:0,0:0:0:0:
199,289,130862,1,2,0:0:0:0:
139,222,131206,2,0,P|98:231|76:249,1,50,2|0,0:0|0:0,0:0:0:0:
51,264,131551,2,0,L|43:156,2,100,2|2|10,0:0|0:0|0:0,0:0:0:0:
55,314,132413,5,12,0:0:0:0:
256,192,132758,12,0,136551,0:0:0:0:
76,33,137931,6,0,P|43:67|40:136,1,100,14|10,0:0|0:1,0:0:0:0:
80,206,138620,2,0,P|94:237|95:264,1,50,10|2,0:0|0:0,0:0:0:0:
130,288,138965,1,10,0:1:0:0:
130,288,139137,1,2,0:0:0:0:
130,288,139310,2,0,B|161:265|161:265|238:272,1,100,8|10,0:0|0:1,0:0:0:0:
296,337,140000,1,10,0:0:0:0:
394,350,140344,1,10,0:1:0:0:
442,263,140689,6,0,P|472:250|502:247,2,50,10|0|8,0:0|0:0|0:1,0:0:0:0:
393,250,141206,1,2,0:0:0:0:
393,250,141379,2,0,L|399:140,1,100,8|10,0:0|0:1,0:0:0:0:
352,61,142068,2,0,P|322:86|254:93,1,100,10|8,0:0|0:1,0:0:0:0:
219,69,142586,1,2,0:0:0:0:
219,69,142758,2,0,P|180:42|110:49,1,100,8|10,0:0|0:1,0:0:0:0:
53,107,143448,6,0,B|85:156|85:156|80:219,1,100,10|10,0:0|0:1,0:0:0:0:
145,274,144137,2,0,P|171:260|194:256,1,50,10|2,0:0|0:0,0:0:0:0:
227,221,144482,1,10,0:1:0:0:
227,221,144655,1,2,0:0:0:0:
227,221,144827,2,0,L|220:107,1,100,8|10,0:0|0:1,0:0:0:0:
269,33,145517,2,0,P|307:50|372:42,1,100,10|10,0:0|0:1,0:0:0:0:
458,77,146206,6,0,B|497:111|497:111|507:181,1,100,8|8,0:0|0:1,0:0:0:0:
486,206,146724,1,2,0:0:0:0:
486,206,146896,2,0,P|456:187|389:189,1,100,8|10,0:0|0:1,0:0:0:0:
317,253,147586,2,0,P|341:282|347:354,2,100,8|8|10,0:0|0:1|0:0,0:0:0:0:
271,231,148448,1,2,0:0:0:0:
271,231,148620,1,10,0:1:0:0:
184,281,148965,6,0,L|66:275,1,100,10|10,0:0|0:1,0:0:0:0:
24,195,149655,2,0,P|40:172|44:132,1,50,10|2,0:0|0:0,0:0:0:0:
32,102,150000,1,10,0:1:0:0:
32,102,150172,1,2,0:0:0:0:
32,102,150344,2,0,B|83:98|83:98|131:62,1,100,8|10,0:0|0:1,0:0:0:0:
200,6,151034,1,10,0:0:0:0:
266,81,151379,1,10,0:1:0:0:
361,52,151724,6,0,P|370:25|371:-4,2,50,10|0|8,0:0|0:0|0:1,0:0:0:0:
387,94,152241,1,2,0:0:0:0:
387,94,152413,2,0,L|392:201,1,100,8|10,0:0|0:1,0:0:0:0:
436,283,153103,2,0,P|419:308|345:324,1,100,10|8,0:0|0:1,0:0:0:0:
311,301,153620,1,2,0:0:0:0:
311,301,153793,2,0,B|254:296|254:296|213:321,1,100,8|10,0:0|0:1,0:0:0:0:
123,351,154482,6,0,P|103:323|110:249,1,100,10|10,0:0|0:1,0:0:0:0:
180,194,155172,2,0,P|209:202|235:200,1,50,10|2,0:0|0:0,0:0:0:0:
267,168,155517,1,10,0:1:0:0:
267,168,155689,1,2,0:0:0:0:
267,168,155862,2,0,B|243:130|243:130|255:63,1,100,12|10,0:0|0:1,0:0:0:0:
173,14,156551,1,10,0:0:0:0:
120,99,156896,1,10,0:1:0:0:
31,51,157241,5,12,0:0:0:0:
256,192,157413,12,10,159310,0:1:0:0:
410,324,160000,5,14,0:0:0:0:
344,248,160344,1,10,0:1:0:0:
267,312,160689,2,0,L|215:317,1,50,10|2,0:0|0:0,0:0:0:0:
174,290,161034,2,0,L|113:284,1,50,10|2,0:1|0:0,0:0:0:0:
81,311,161379,1,10,0:0:0:0:
81,311,161551,2,0,P|93:264|57:208,1,100,2|2,0:0|0:0,0:0:0:0:
18,134,162241,1,2,0:0:0:0:
86,60,162586,1,2,0:0:0:0:
86,60,162758,5,10,0:0:0:0:
170,113,163103,1,10,0:1:0:0:
245,47,163448,2,0,L|298:54,1,50,10|2,0:0|0:0,0:0:0:0:
334,84,163793,2,0,L|398:78,1,50,10|2,0:1|0:0,0:0:0:0:
429,60,164137,1,10,0:0:0:0:
429,60,164310,2,0,P|463:85|475:147,1,100,2|2,0:0|0:0,0:0:0:0:
417,220,165000,1,2,0:0:0:0:
461,309,165344,1,2,0:0:0:0:
461,309,165517,5,10,0:0:0:0:
385,374,165862,1,10,0:1:0:0:
307,311,166206,2,0,P|277:298|241:297,1,50,10|2,0:0|0:0,0:0:0:0:
225,331,166551,2,0,L|169:337,1,50,10|2,0:1|0:0,0:0:0:0:
128,318,166896,1,10,0:0:0:0:
128,318,167068,2,0,P|131:285|93:231,1,100,2|2,0:0|0:0,0:0:0:0:
10,177,167758,1,2,0:0:0:0:
89,116,168103,1,2,0:0:0:0:
89,116,168275,6,0,L|99:3,1,100,10|8,0:0|0:1,0:0:0:0:
206,72,168965,2,0,P|233:83|259:84,1,50,10|2,0:0|0:0,0:0:0:0:
297,59,169310,2,0,L|361:63,1,50,10|2,0:1|0:0,0:0:0:0:
394,78,169655,1,10,0:0:0:0:
394,78,169827,2,0,P|446:53|476:4,2,100,2|2|2,0:0|0:0|0:0,0:0:0:0:
348,167,170862,1,0,0:0:0:0:
348,167,171034,5,10,0:0:0:0:
414,242,171379,1,10,0:1:0:0:
345,314,171724,2,0,L|284:316,1,50,10|2,0:0|0:0,0:0:0:0:
252,289,172068,2,0,P|220:275|188:273,1,50,0|2,0:0|0:0,0:0:0:0:
160,295,172413,1,10,0:0:0:0:
160,295,172586,2,0,B|178:248|178:248|170:195,1,100,2|2,0:0|0:0,0:0:0:0:
157,99,173275,1,2,0:0:0:0:
73,154,173620,1,2,0:0:0:0:
73,154,173793,5,10,0:0:0:0:
14,73,174137,1,10,0:1:0:0:
100,23,174482,2,0,L|159:27,1,50,10|2,0:0|0:0,0:0:0:0:
189,57,174827,2,0,P|221:54|250:35,1,50,10|2,0:1|0:0,0:0:0:0:
281,24,175172,1,10,0:0:0:0:
281,24,175344,2,0,B|266:57|266:57|280:122,1,100,2|2,0:0|0:0,0:0:0:0:
339,199,176034,1,2,0:0:0:0:
288,285,176379,1,2,0:0:0:0:
288,285,176551,1,12,0:0:0:0:
256,192,176724,12,2,180689,0:0:0:0:
67,282,182068,6,0,L|79:167,1,100,2|2,0:0|0:0,0:0:0:0:
74,82,182758,2,0,P|61:54|61:18,2,50,2|2|2,0:0|0:0|0:0,0:0:0:0:
116,107,183275,2,0,P|166:81|218:87,1,100,2|2,0:0|0:0,0:0:0:0:
284,149,183965,2,0,P|310:163|387:147,1,100,2|2,0:0|0:0,0:0:0:0:
408,114,184482,1,2,0:0:0:0:
476,186,184827,6,0,L|471:295,1,100,2|2,0:0|0:0,0:0:0:0:
384,335,185517,2,0,P|399:365|405:393,2,50,2|2|2,0:0|0:0|0:0,0:0:0:0:
353,294,186034,2,0,P|321:315|251:301,1,100,2|2,0:0|0:0,0:0:0:0:
196,232,186724,2,0,P|159:202|97:205,2,100,2|2|2,0:0|0:0|0:0,0:0:0:0:
339,187,187931,5,2,0:0:0:0:
268,116,188275,2,0,L|265:46,2,50,2|2|2,0:0|0:0|0:0,0:0:0:0:
248,162,188793,2,0,P|213:139|145:139,1,100,2|2,0:0|0:0,0:0:0:0:
68,183,189482,2,0,P|91:210|94:276,1,100,2|2,0:0|0:0,0:0:0:0:
68,314,190000,1,2,0:0:0:0:
159,353,190344,6,0,B|180:321|180:321|258:317,1,100,2|2,0:0|0:0,0:0:0:0:
341,319,191034,2,0,P|350:346|364:370,2,50,2|2|0,0:0|0:0|0:0,0:0:0:0:
348,269,191551,1,0,0:0:0:0:
380,174,191896,2,0,P|391:142|390:111,1,50
379,77,192241,1,2,0:0:0:0:
284,108,192586,2,0,P|251:101|230:91,1,50,2|2,0:0|0:0,0:0:0:0:
197,62,192931,1,2,0:0:0:0:
