osu file format v14

[General]
AudioFilename: audio.mp3
AudioLeadIn: 0
PreviewTime: 54185
Countdown: 0
SampleSet: Soft
StackLeniency: 0.7
Mode: 0
LetterboxInBreaks: 0
WidescreenStoryboard: 0

[Editor]
DistanceSpacing: 0.6
BeatDivisor: 4
GridSize: 4
TimelineZoom: 1

[Metadata]
Title:Tsugihagi Moyou (TV Size)
TitleUnicode:つぎはぎもよう (TV Size)
Artist:nano.RIPE
ArtistUnicode:nano.RIPE
Creator:alacat
Version:Insane
Source:のんのんびより のんすとっぷ
Tags:Non Non Biyori Nonstop op opening iyasine anime japanese pop jpop j-pop nano ripe nanoripe
BeatmapID:2800527
BeatmapSetID:1348216

[Difficulty]
HPDrainRate:7
CircleSize:4.2
OverallDifficulty:8
ApproachRate:8
SliderMultiplier:1.8
SliderTickRate:1

[Events]
//Background and Video events
0,0,"BG.jpg",0,0
Video,0,"video.avi"
//Break Periods
//Storyboard Layer 0 (Background)
//Storyboard Layer 1 (Fail)
//Storyboard Layer 2 (Pass)
//Storyboard Layer 3 (Foreground)
//Storyboard Layer 4 (Overlay)
//Storyboard Sound Samples

[TimingPoints]
-1090,472.44094488189,4,2,1,60,1,0
6469,-100,4,2,1,40,0,0
7650,-100,4,2,1,50,0,0
8358,-100,4,2,1,60,0,0
21350,-125,4,2,1,40,0,0
22768,-100,4,2,1,50,0,0
23004,-100,4,2,1,60,0,0
23476,-100,4,2,1,50,0,0
38595,-100,4,2,1,60,0,0
42374,-100,4,2,1,50,0,0
43319,-100,4,2,1,60,0,0
44264,-100,4,2,1,70,0,0
49933,-100,4,2,1,40,0,0
52295,-100,4,2,1,50,0,0
52768,-100,4,2,1,60,0,0
53240,-100,4,2,1,70,0,0
53713,-100,4,2,1,80,0,0
54894,-100,4,2,1,60,0,0
55602,-100,4,2,1,80,0,1
62689,-100,4,2,1,60,0,1
63161,-100,4,2,1,80,0,1
66941,-100,4,2,1,60,0,1
67886,-100,4,2,1,70,0,1
68358,-100,4,2,1,80,0,1
68595,-100,4,2,1,60,0,1
70721,-100,4,2,1,80,0,1
78280,-100,4,2,1,60,0,0
82059,-100,4,2,1,70,0,0
88201,-100,4,2,1,60,0,0
88673,-100,4,2,1,40,0,0
89146,-100,4,2,1,20,0,0

[Colours]
Combo1 : 255,104,180
Combo2 : 22,203,104
Combo3 : 232,139,0
Combo4 : 1,197,254

[HitObjects]
100,200,563,5,2,0:0:0:0:
100,200,681,1,0,0:0:0:0:
100,200,799,2,0,P|88:155|84:111,1,90,4|0,0:0|0:0,0:0:0:0:
291,131,1272,1,8,0:0:0:0:
187,95,1508,2,0,L|183:143,2,45,0|0|2,0:0|0:0|0:0,0:0:0:0:
395,163,1980,2,0,L|391:115,2,45,0|0|8,0:0|0:0|0:0,0:0:0:0:
284,24,2453,5,2,0:0:0:0:
284,24,2571,1,0,0:0:0:0:
284,24,2689,2,0,P|296:68|304:116,1,90,2|0,0:0|0:0,0:0:0:0:
295,155,3043,1,0,0:0:0:0:
295,155,3161,1,8,0:0:0:0:
65,97,3398,2,0,P|86:90|109:89,1,45
200,140,3634,1,2,0:0:0:0:
338,320,3870,2,0,P|315:314|295:304,1,45
200,243,4106,1,8,0:0:0:0:
394,96,4343,5,0,0:0:0:0:
394,96,4461,1,0,0:0:0:0:
394,96,4579,2,0,P|386:140|374:183,1,90,2|0,0:0|0:0,0:0:0:0:
352,222,4933,1,0,0:0:0:0:
352,222,5051,1,8,0:0:0:0:
189,98,5287,5,0,0:0:0:0:
195,125,5405,1,0,0:0:0:0:
200,152,5524,1,2,0:0:0:0:
148,148,5642,1,8,0:0:0:0:
96,160,5760,1,0,0:0:0:0:
56,196,5878,1,0,0:0:0:0:
36,248,5996,1,8,0:0:0:0:
104,67,6232,1,8,0:3:0:0:
254,335,6469,5,4,0:3:0:0:
264,311,6941,1,4,0:3:0:0:
273,285,7413,1,4,0:3:0:0:
433,194,7650,5,2,0:0:0:0:
424,220,7768,1,0,0:0:0:0:
414,244,7886,2,0,L|323:232,1,90,4|0,0:0|0:0,0:0:0:0:
161,295,8358,6,0,L|216:224,1,90,12|0,0:0|0:0,0:0:0:0:
245,52,8831,2,0,L|280:136,1,90,8|0,0:0|0:0,0:0:0:0:
264,308,9303,1,10,0:0:0:0:
120,204,9539,1,0,0:0:0:0:
364,160,9776,1,8,0:0:0:0:
140,80,10012,5,0,0:0:0:0:
140,80,10130,1,0,0:0:0:0:
140,80,10248,2,0,P|92:84|48:84,1,90,10|0,0:0|0:0,0:0:0:0:
288,39,10721,2,0,P|336:35|380:35,1,90,8|0,0:0|0:0,0:0:0:0:
248,180,11193,1,10,0:0:0:0:
140,80,11429,1,0,0:0:0:0:
48,248,11665,1,8,0:0:0:0:
300,324,11902,5,0,0:0:0:0:
300,324,12020,1,0,0:0:0:0:
300,324,12138,2,0,P|340:248|328:156,1,180,10|8,0:0|0:0,0:0:0:0:
185,48,12847,1,0,0:0:0:0:
120,180,13083,2,0,L|212:192,1,90,10|0,0:0|0:0,0:0:0:0:
368,56,13555,2,0,P|324:60|280:80,1,90,8|0,0:0|0:0,0:0:0:0:
220,168,13910,1,0,0:0:0:0:
209,191,14028,6,0,L|225:283,1,90,10|0,0:0|0:0,0:0:0:0:
108,72,14500,2,0,L|92:164,1,90,8|0,0:0|0:0,0:0:0:0:
304,224,14972,1,10,0:0:0:0:
72,280,15209,1,0,0:0:0:0:
295,200,15445,1,8,0:0:0:0:
144,371,15681,5,0,0:0:0:0:
144,371,15799,1,0,0:0:0:0:
144,371,15917,2,0,P|80:375|72:279,1,180,12|8,0:0|0:0,0:0:0:0:
288,308,16626,1,0,0:0:0:0:
300,320,16744,1,0,0:0:0:0:
312,332,16862,2,0,L|404:324,1,90,10|0,0:0|0:0,0:0:0:0:
376,104,17335,1,8,0:0:0:0:
260,224,17571,5,0,0:0:0:0:
248,236,17689,1,0,0:0:0:0:
236,248,17807,2,0,L|144:240,1,90,10|0,0:0|0:0,0:0:0:0:
208,52,18280,1,8,0:0:0:0:
24,140,18516,2,0,L|116:132,1,90,0|10,0:0|0:0,0:0:0:0:
308,112,18988,1,0,0:0:0:0:
92,16,19224,1,8,0:0:0:0:
146,240,19461,5,0,0:0:0:0:
146,240,19579,1,0,0:0:0:0:
146,240,19697,1,10,0:0:0:0:
208,52,19933,1,0,0:0:0:0:
32,288,20169,2,0,P|96:272|168:272,1,135,12|0,0:0|0:0,0:0:0:0:
256,322,20642,1,4,0:3:0:0:
88,136,20878,1,0,0:0:0:0:
83,161,20996,1,8,0:0:0:0:
78,187,21114,1,8,0:0:0:0:
281,306,21350,6,0,P|349:286|425:286,2,144,4|4|4,0:3|0:3|0:3,0:0:0:0:
232,172,22768,1,4,0:0:0:0:
128,276,23004,2,0,P|172:264|216:260,1,90,4|0,0:0|0:0,0:0:0:0:
388,330,23476,5,4,0:0:0:0:
268,348,23713,1,0,0:0:0:0:
340,152,23949,1,8,0:0:0:0:
486,221,24185,1,0,0:0:0:0:
486,221,24303,1,8,0:0:0:0:
486,221,24421,2,0,B|502:265|502:265|500:309,2,90,0|0|8,0:0|0:0|0:0,0:0:0:0:
308,248,25130,5,0,0:0:0:0:
308,248,25248,1,0,0:0:0:0:
308,248,25366,1,2,0:0:0:0:
268,348,25602,1,0,0:0:0:0:
340,152,25839,1,8,0:0:0:0:
168,308,26075,2,0,L|124:316,2,45,0|8|0,0:0|0:0|0:0,0:0:0:0:
372,328,26547,2,0,P|420:320|464:316,1,90,0|8,0:0|0:0,0:0:0:0:
204,216,27020,5,0,0:0:0:0:
204,216,27138,1,0,0:0:0:0:
204,216,27256,2,0,P|159:220|114:227,1,90,2|0,0:0|0:0,0:0:0:0:
325,119,27728,2,0,P|369:126|414:130,1,90,8|0,0:0|0:0,0:0:0:0:
505,115,28083,1,8,0:0:0:0:
505,115,28201,2,0,L|492:208,1,90
295,49,28673,1,8,0:0:0:0:
204,216,28910,2,0,L|212:260,1,45
234,355,29146,5,2,0:0:0:0:
361,286,29382,1,0,0:0:0:0:
136,144,29618,2,0,L|124:236,1,90,8|0,0:0|0:0,0:0:0:0:
48,304,29972,2,0,L|36:214,1,90,8|0,0:0|0:0,0:0:0:0:
24,128,30327,1,0,0:0:0:0:
216,204,30563,1,8,0:0:0:0:
112,356,30799,5,0,0:0:0:0:
112,356,30917,1,0,0:0:0:0:
112,356,31035,2,0,P|156:344|200:340,1,90,2|0,0:0|0:0,0:0:0:0:
382,360,31508,1,8,0:0:0:0:
216,204,31744,1,0,0:0:0:0:
216,204,31862,1,8,0:0:0:0:
216,204,31980,2,0,P|259:216|299:235,1,90
412,368,32453,1,8,0:0:0:0:
144,264,32689,5,0,0:0:0:0:
144,264,32807,1,0,0:0:0:0:
144,264,32925,2,0,P|99:268|55:280,2,90,2|0|8,0:0|0:0|0:0,0:0:0:0:
376,128,33634,2,0,L|384:176,1,45,0|8,0:0|0:0,0:0:0:0:
396,264,33870,1,0,0:0:0:0:
476,136,34106,1,0,0:0:0:0:
272,48,34343,2,0,P|260:92|260:136,1,90,8|0,0:0|0:0,0:0:0:0:
292,216,34697,1,0,0:0:0:0:
304,236,34815,5,2,0:0:0:0:
160,216,35051,1,0,0:0:0:0:
316,256,35287,1,8,0:0:0:0:
80,264,35523,1,0,0:0:0:0:
68,284,35642,1,8,0:0:0:0:
56,304,35760,1,2,0:0:0:0:
292,216,35996,1,0,0:0:0:0:
68,172,36232,1,8,0:0:0:0:
264,64,36469,2,0,L|256:108,1,45
292,216,36705,6,0,P|340:208|384:208,2,90,2|0|8,0:0|0:0|0:0,0:0:0:0:
152,320,37413,1,2,0:0:0:0:
152,320,37532,1,8,0:0:0:0:
152,320,37650,1,2,0:0:0:0:
348,296,37886,1,8,0:0:0:0:
112,160,38122,1,8,0:0:0:0:
104,188,38240,1,8,0:0:0:0:
96,212,38358,1,8,0:3:0:0:
292,216,38595,6,0,P|308:172|308:128,1,90,4|0,0:0|0:0,0:0:0:0:
244,40,39067,1,8,0:0:0:0:
388,200,39303,1,0,0:0:0:0:
388,200,39421,2,0,L|400:292,1,90,8|8,0:0|0:0,0:0:0:0:
408,368,39776,1,0,0:0:0:0:
256,288,40012,1,8,0:0:0:0:
464,144,40248,5,0,0:0:0:0:
464,144,40366,1,0,0:0:0:0:
464,144,40484,2,0,P|480:188|480:232,1,90,2|0,0:0|0:0,0:0:0:0:
332,324,40957,1,8,0:0:0:0:
160,240,41193,1,0,0:0:0:0:
160,240,41311,2,0,L|252:232,1,90,8|8,0:0|0:0,0:0:0:0:
364,224,41665,2,0,L|272:216,1,90,0|8,0:0|0:0,0:0:0:0:
76,200,42138,1,0,0:0:0:0:
328,80,42374,5,4,0:0:0:0:
328,80,42610,1,0,0:0:0:0:
113,9,42847,2,0,B|73:57|89:113|89:113|113:109,1,135,8|0,0:0|0:0,0:0:0:0:
189,61,43319,1,4,0:0:0:0:
189,61,43555,1,0,0:0:0:0:
412,136,43792,2,0,B|452:88|436:32|436:32|412:36,1,135,8|8,0:0|0:0,0:0:0:0:
324,172,44264,6,0,L|336:264,1,90,4|0,0:0|0:0,0:0:0:0:
233,230,44736,1,8,0:0:0:0:
431,207,44972,1,0,0:0:0:0:
311,84,45209,1,0,0:0:0:0:
311,84,45327,1,8,0:0:0:0:
311,84,45445,1,0,0:0:0:0:
133,245,45681,1,8,0:0:0:0:
256,352,45917,5,0,0:0:0:0:
256,352,46035,1,0,0:0:0:0:
256,352,46154,2,0,L|344:368,1,90,4|0,0:0|0:0,0:0:0:0:
448,340,46508,1,8,0:0:0:0:
464,352,46862,2,0,P|484:288|480:220,1,135,4|8,0:0|0:0,0:0:0:0:
396,153,47335,1,0,0:0:0:0:
256,352,47571,1,8,0:0:0:0:
256,352,47689,1,0,0:0:0:0:
256,352,47807,1,0,0:0:0:0:
173,149,48043,6,0,P|161:190|163:241,1,90,4|0,0:0|0:0,0:0:0:0:
221,314,48398,1,8,0:0:0:0:
237,333,48752,2,0,L|101:317,1,135,4|8,0:0|0:0,0:0:0:0:
4,360,49224,1,0,0:0:0:0:
73,187,49461,1,8,0:0:0:0:
65,151,49579,1,0,0:0:0:0:
58,115,49697,1,0,0:0:0:0:
256,252,49933,5,4,0:0:0:0:
256,252,50406,1,0,0:0:0:0:
376,289,50878,1,2,0:0:0:0:
376,289,51351,1,0,0:0:0:0:
498,325,51823,5,4,0:0:0:0:
376,289,52059,1,0,0:0:0:0:
376,289,52177,1,0,0:0:0:0:
376,289,52295,2,0,L|367:241,1,45,8|0,0:0|0:0,0:0:0:0:
480,161,52532,2,0,L|489:113,1,45
367,15,52768,5,8,0:0:0:0:
334,45,52886,1,0,0:0:0:0:
291,58,53004,1,0,0:0:0:0:
246,53,53122,1,0,0:0:0:0:
203,37,53240,2,0,L|215:88,3,45,8|0|0|0,0:0|0:0|0:0|0:0,0:0:0:0:
250,232,53713,5,4,0:0:0:0:
258,257,54894,1,0,0:0:0:0:
258,257,55130,2,0,P|268:212|267:122,1,135,12|0,0:0|0:0,0:0:0:0:
192,45,55602,6,0,P|186:90|189:136,1,90,12|0,0:0|0:0,0:0:0:0:
357,190,56075,1,8,0:0:0:0:
145,220,56311,1,2,0:0:0:0:
123,224,56429,1,0,0:0:0:0:
101,230,56547,1,8,0:0:0:0:
335,274,56784,1,2,0:0:0:0:
104,150,57020,1,8,0:0:0:0:
311,362,57256,5,2,0:0:0:0:
311,362,57374,1,0,0:0:0:0:
311,362,57492,2,0,P|357:356|403:354,1,90,8|2,0:0|0:0,0:0:0:0:
145,301,57965,1,8,0:0:0:0:
328,183,58201,1,2,0:0:0:0:
334,205,58319,1,0,0:0:0:0:
339,229,58437,2,0,L|334:276,2,45,8|0|2,0:0|0:0|0:0,0:0:0:0:
184,46,58910,2,0,P|170:91|174:139,1,90,8|2,0:0|0:0,0:0:0:0:
221,223,59264,1,0,0:0:0:0:
235,246,59382,6,0,L|223:338,1,90,8|2,0:0|0:0,0:0:0:0:
44,190,59854,1,8,0:0:0:0:
91,356,60091,1,2,0:0:0:0:
111,338,60209,1,0,0:0:0:0:
124,314,60327,1,8,0:0:0:0:
36,165,60563,1,2,0:0:0:0:
223,335,60799,1,8,0:0:0:0:
27,134,61035,1,2,0:0:0:0:
321,356,61272,6,0,P|331:309|329:267,1,90,8|2,0:0|0:0,0:0:0:0:
131,287,61744,1,8,0:0:0:0:
418,254,61980,1,2,0:0:0:0:
410,228,62098,1,0,0:0:0:0:
393,206,62217,1,8,0:0:0:0:
223,335,62453,1,2,0:0:0:0:
490,304,62689,1,12,0:0:0:0:
244,250,62925,5,2,0:0:0:0:
244,250,63043,1,0,0:0:0:0:
244,250,63161,2,0,P|236:202|236:161,1,90,12|0,0:0|0:0,0:0:0:0:
315,311,63634,1,8,0:0:0:0:
149,223,63870,1,2,0:0:0:0:
138,247,63988,1,0,0:0:0:0:
132,273,64106,1,8,0:0:0:0:
133,299,64224,1,0,0:0:0:0:
143,324,64343,1,2,0:0:0:0:
328,199,64579,1,8,0:0:0:0:
68,195,64815,5,2,0:0:0:0:
54,218,64933,1,0,0:0:0:0:
50,244,65051,1,8,0:0:0:0:
244,250,65287,1,2,0:0:0:0:
89,167,65524,2,0,L|0:178,1,90,8|2,0:0|0:0,0:0:0:0:
208,339,65996,1,8,0:0:0:0:
208,339,66114,1,0,0:0:0:0:
208,339,66232,1,2,0:0:0:0:
378,151,66469,2,0,P|331:162|297:189,1,90,8|2,0:0|0:0,0:0:0:0:
281,273,66823,1,0,0:0:0:0:
281,273,66941,6,0,L|297:362,1,90,8|2,0:0|0:0,0:0:0:0:
461,210,67413,1,12,0:0:0:0:
222,142,67650,2,0,P|198:155|186:170,1,45,2|0,0:0|0:0,0:0:0:0:
185,303,67886,1,8,0:0:0:0:
378,151,68122,1,2,0:0:0:0:
369,116,68240,1,8,0:0:0:0:
360,81,68358,1,8,0:0:0:0:
104,200,68595,5,4,0:3:0:0:
301,147,69067,1,4,0:3:0:0:
48,87,69539,1,4,0:3:0:0:
439,274,70012,5,4,0:0:0:0:
439,274,70248,2,0,L|450:183,1,90,12|0,0:0|0:0,0:0:0:0:
280,214,70721,5,12,0:0:0:0:
427,354,70957,1,0,0:0:0:0:
355,154,71193,1,8,0:0:0:0:
316,322,71429,1,2,0:0:0:0:
312,339,71547,1,0,0:0:0:0:
307,356,71665,1,8,0:0:0:0:
192,196,71902,1,2,0:0:0:0:
360,134,72138,1,8,0:0:0:0:
123,246,72374,5,2,0:0:0:0:
109,223,72492,1,0,0:0:0:0:
105,197,72610,1,8,0:0:0:0:
341,224,72847,1,2,0:0:0:0:
44,139,73083,1,8,0:0:0:0:
316,322,73319,1,2,0:0:0:0:
132,114,73555,1,8,0:0:0:0:
132,114,73673,1,0,0:0:0:0:
132,114,73791,1,2,0:0:0:0:
414,296,74028,1,8,0:0:0:0:
210,147,74264,5,2,0:0:0:0:
196,170,74382,1,0,0:0:0:0:
192,196,74500,1,8,0:0:0:0:
436,200,74736,1,2,0:0:0:0:
177,37,74972,1,8,0:0:0:0:
146,263,75209,1,2,0:0:0:0:
169,277,75327,1,0,0:0:0:0:
195,281,75445,1,8,0:0:0:0:
330,135,75681,1,2,0:0:0:0:
462,323,75917,1,8,0:0:0:0:
243,191,76154,5,2,0:0:0:0:
243,191,76272,1,0,0:0:0:0:
243,191,76390,1,8,0:0:0:0:
217,371,76626,1,2,0:0:0:0:
349,118,76862,1,8,0:0:0:0:
375,298,77098,1,2,0:0:0:0:
428,18,77335,1,8,0:0:0:0:
222,0,77571,5,2,0:0:0:0:
177,11,77689,1,0,0:0:0:0:
140,36,77807,1,8,0:0:0:0:
119,75,77925,1,0,0:0:0:0:
121,120,78043,1,2,0:0:0:0:
139,162,78161,1,0,0:0:0:0:
162,200,78280,6,0,P|163:248|155:294,1,90,4|0,0:0|0:0,0:0:0:0:
54,187,78752,1,8,0:0:0:0:
267,223,78988,1,0,0:0:0:0:
267,223,79106,2,0,P|316:218|360:217,1,90,8|8,0:0|0:0,0:0:0:0:
388,234,79461,1,0,0:0:0:0:
487,192,79697,1,8,0:0:0:0:
391,42,79933,5,0,0:0:0:0:
391,42,80051,1,0,0:0:0:0:
391,42,80169,2,0,P|391:87|397:132,1,90,2|2,0:0|0:0,0:0:0:0:
361,306,80642,2,0,P|361:261|355:216,1,90,8|2,0:0|0:0,0:0:0:0:
289,169,80996,1,8,0:0:0:0:
289,169,81114,2,0,L|243:173,2,45,0|8|2,0:0|0:0|0:0,0:0:0:0:
476,218,81587,1,8,0:0:0:0:
270,286,81823,5,2,0:0:0:0:
275,269,81941,1,0,0:0:0:0:
279,252,82059,1,4,0:0:0:0:
203,61,82295,1,8,0:0:0:0:
189,84,82413,1,0,0:0:0:0:
185,110,82531,1,8,0:0:0:0:
353,286,82768,1,4,0:3:0:0:
118,168,83004,5,8,0:0:0:0:
82,176,83122,1,8,0:0:0:0:
47,185,83240,1,8,0:3:0:0:
359,359,83476,2,0,P|367:340|369:313,1,45,4|0,0:3|0:0,0:0:0:0:
306,143,83713,1,4,0:0:0:0:
256,192,85839,12,0,89146,0:0:0:0:
