osu file format v14

[General]
AudioFilename: audio.mp3
AudioLeadIn: 0
PreviewTime: 54185
Countdown: 0
SampleSet: Soft
StackLeniency: 0.7
Mode: 0
LetterboxInBreaks: 0
WidescreenStoryboard: 0

[Editor]
DistanceSpacing: 1
BeatDivisor: 4
GridSize: 4
TimelineZoom: 1

[Metadata]
Title:Tsugihagi Moyou (TV Size)
TitleUnicode:つぎはぎもよう (TV Size)
Artist:nano.RIPE
ArtistUnicode:nano.RIPE
Creator:alacat
Version:Easy
Source:のんのんびより のんすとっぷ
Tags:Non Non Biyori Nonstop op opening iyasine anime japanese pop jpop j-pop nano ripe nanoripe
BeatmapID:2791838
BeatmapSetID:1348216

[Difficulty]
HPDrainRate:2
CircleSize:3
OverallDifficulty:2
ApproachRate:3
SliderMultiplier:0.9
SliderTickRate:1

[Events]
//Background and Video events
0,0,"BG.jpg",0,0
Video,0,"video.avi"
//Break Periods
//Storyboard Layer 0 (Background)
//Storyboard Layer 1 (Fail)
//Storyboard Layer 2 (Pass)
//Storyboard Layer 3 (Foreground)
//Storyboard Layer 4 (Overlay)
//Storyboard Sound Samples

[TimingPoints]
-1090,472.44094488189,4,2,1,60,1,0
6469,-100,4,2,1,40,0,0
7886,-100,4,2,1,50,0,0
8358,-100,4,2,1,70,0,0
21350,-100,4,2,1,40,0,0
23004,-100,4,2,1,60,0,0
23476,-100,4,2,1,50,0,0
38595,-100,4,2,1,60,0,0
49933,-100,4,2,1,50,0,0
51823,-100,4,2,1,40,0,0
52295,-100,4,2,1,50,0,0
52768,-100,4,2,1,60,0,0
53240,-100,4,2,1,70,0,0
53713,-100,4,2,1,80,0,0
55602,-100,4,2,1,80,0,1
62689,-100,4,2,1,60,0,1
63161,-100,4,2,1,80,0,1
66941,-100,4,2,1,50,0,1
67413,-100,4,2,1,60,0,1
67886,-100,4,2,1,70,0,1
68595,-100,4,2,1,60,0,1
70721,-100,4,2,1,80,0,1
78280,-100,4,2,1,60,0,0
82059,-100,4,2,1,70,0,0
88201,-100,4,2,1,60,0,0
88673,-100,4,2,1,40,0,0
89146,-100,4,2,1,20,0,0

[Colours]
Combo1 : 255,104,180
Combo2 : 22,203,104
Combo3 : 232,139,0
Combo4 : 1,197,254

[HitObjects]
454,87,799,6,0,P|368:79|298:139,1,180,4|2,0:0|0:0,0:0:0:0:
279,224,2217,1,8,0:0:0:0:
320,304,2689,2,0,P|253:360|165:354,1,180,2|2,0:0|0:0,0:0:0:0:
88,312,4106,1,8,0:0:0:0:
24,248,4579,6,0,L|44:68,1,180,2|2,0:0|0:0,0:0:0:0:
128,32,5996,1,8,0:0:0:0:
204,76,6469,2,0,L|296:76,2,89.9999999999999,4|4|4,0:3|0:3|0:3,0:0:0:0:
124,120,7886,1,4,0:0:0:0:
84,200,8358,6,0,P|84:244|100:288,1,89.9999999999999,12|8,0:0|0:0,0:0:0:0:
188,304,9303,2,0,P|226:326|272:334,1,89.9999999999999,10|8,0:0|0:0,0:0:0:0:
356,308,10248,1,10,0:0:0:0:
420,244,10721,1,8,0:0:0:0:
409,154,11193,2,0,L|397:62,1,89.9999999999999,10|8,0:0|0:0,0:0:0:0:
314,99,12138,6,0,L|325:188,2,89.9999999999999,10|8|10,0:0|0:0|0:0,0:0:0:0:
252,32,13555,1,8,0:0:0:0:
188,96,14028,2,0,P|140:96|100:84,1,89.9999999999999,10|8,0:0|0:0,0:0:0:0:
20,128,14972,2,0,P|7:171|8:215,1,89.9999999999999,10|8,0:0|0:0,0:0:0:0:
46,297,15917,5,12,0:0:0:0:
130,266,16390,1,8,0:0:0:0:
164,349,16862,2,0,L|256:361,1,89.9999999999999,10|8,0:0|0:0,0:0:0:0:
334,322,17807,2,0,L|426:310,1,89.9999999999999,10|8,0:0|0:0,0:0:0:0:
485,245,18752,1,10,0:0:0:0:
418,184,19224,1,8,0:0:0:0:
484,124,19697,6,0,P|484:76|472:36,1,89.9999999999999,10|12,0:0|0:0,0:0:0:0:
382,28,20642,2,0,L|246:40,1,135,4|4,0:3|0:3,0:0:0:0:
160,60,21823,1,4,0:3:0:0:
96,124,22295,2,0,P|80:188|88:260,1,135,4|4,0:3|0:0,0:0:0:0:
160,312,23476,6,0,B|247:281|248:330|337:308,1,180,4|0,0:0|0:0,0:0:0:0:
412,256,24894,1,8,0:0:0:0:
357,184,25366,2,0,P|345:140|345:96,2,89.9999999999999,2|8|0,0:0|0:0|0:0,0:0:0:0:
412,256,26784,1,8,0:0:0:0:
434,342,27256,6,0,P|349:360|254:362,1,180,2|0,0:0|0:0,0:0:0:0:
182,310,28673,1,8,0:0:0:0:
92,322,29146,2,0,P|76:278|76:234,1,89.9999999999999,2|8,0:0|0:0,0:0:0:0:
13,169,30091,2,0,P|21:123|44:85,1,89.9999999999999,0|8,0:0|0:0,0:0:0:0:
128,64,31035,6,0,P|212:92|304:84,1,180,2|0,0:0|0:0,0:0:0:0:
376,32,32453,1,8,0:0:0:0:
460,60,32925,2,0,L|476:152,1,89.9999999999999,2|8,0:0|0:0,0:0:0:0:
404,204,33870,2,0,L|388:296,1,89.9999999999999,0|8,0:0|0:0,0:0:0:0:
320,348,34815,6,0,B|231:370|230:321|143:352,1,180,2|0,0:0|0:0,0:0:0:0:
56,328,36232,1,8,0:0:0:0:
84,244,36705,2,0,P|124:228|172:228,1,89.9999999999999,2|8,0:0|0:0,0:0:0:0:
252,264,37650,2,0,P|296:264|338:247,1,89.9999999999999,2|8,0:0|0:0,0:0:0:0:
408,192,38595,6,0,L|500:204,2,89.9999999999999,4|8|0,0:0|0:0|0:0,0:0:0:0:
340,132,40012,1,8,0:0:0:0:
252,140,40484,2,0,L|160:152,2,89.9999999999999,2|8|0,0:0|0:0|0:0,0:0:0:0:
288,56,41902,1,8,0:0:0:0:
376,32,42374,6,0,P|412:60|436:100,1,89.9999999999999,4|8,0:0|0:0,0:0:0:0:
388,172,43319,2,0,P|402:215|401:261,1,89.9999999999999,4|8,0:0|0:0,0:0:0:0:
312,280,44264,2,0,P|301:324|274:362,1,89.9999999999999,4|8,0:0|0:0,0:0:0:0:
188,372,45209,1,0,0:0:0:0:
136,300,45681,1,8,0:0:0:0:
176,220,46154,6,0,B|108:208|108:208|48:236,2,135,4|4|8,0:0|0:0|0:0,0:0:0:0:
264,196,48043,2,0,B|332:208|332:208|392:180,2,135,4|4|8,0:0|0:0|0:0,0:0:0:0:
200,136,49933,6,2,B|180:76|232:76|204:4,2,135,4|2|0,0:0|0:0|0:0,0:0:0:0:
256,192,51823,12,4,53713,0:0:0:0:
97,304,55602,6,0,L|188:297,1,89.9999999999999,12|8,0:0|0:0,0:0:0:0:
266,338,56547,2,0,L|357:331,1,89.9999999999999,8|8,0:0|0:0,0:0:0:0:
443,353,57492,1,8,0:0:0:0:
492,277,57965,1,8,0:0:0:0:
411,235,58437,2,0,P|403:189|412:146,1,89.9999999999999,8|8,0:0|0:0,0:0:0:0:
484,93,59382,5,8,0:0:0:0:
438,15,59854,1,8,0:0:0:0:
353,45,60327,2,0,P|308:49|262:42,1,89.9999999999999,8|8,0:0|0:0,0:0:0:0:
176,63,61272,2,0,P|131:56|86:60,2,89.9999999999999,8|8|8,0:0|0:0|0:0,0:0:0:0:
185,153,62689,1,12,0:0:0:0:
268,186,63161,6,0,P|312:192|357:188,1,89.9999999999999,12|8,0:0|0:0,0:0:0:0:
445,205,64106,2,0,P|471:241|488:282,1,89.9999999999999,8|8,0:0|0:0,0:0:0:0:
434,355,65051,1,8,0:0:0:0:
346,374,65524,1,8,0:0:0:0:
263,337,65996,2,0,P|236:300|219:259,1,89.9999999999999,8|8,0:0|0:0,0:0:0:0:
220,167,66941,5,8,0:0:0:0:
277,97,67413,1,12,0:0:0:0:
206,40,67886,2,0,P|137:40|79:71,1,135,8|4,0:0|0:3,0:0:0:0:
53,156,69067,1,4,0:3:0:0:
112,223,69539,2,0,P|181:223|239:192,1,135,4|12,0:3|0:0,0:0:0:0:
328,204,70721,6,0,L|418:217,1,89.9999999999999,12|8,0:0|0:0,0:0:0:0:
426,306,71665,2,0,L|336:293,1,89.9999999999999,8|8,0:0|0:0,0:0:0:0:
252,324,72610,1,8,0:0:0:0:
167,354,73083,1,8,0:0:0:0:
83,321,73555,2,0,P|62:279|61:234,1,89.9999999999999,8|8,0:0|0:0,0:0:0:0:
92,152,74500,6,0,L|0:159,2,89.9999999999999,8|8|8,0:0|0:0|0:0,0:0:0:0:
181,145,75917,1,8,0:0:0:0:
257,192,76390,2,0,P|276:235|281:283,1,89.9999999999999,8|8,0:0|0:0,0:0:0:0:
359,322,77335,2,0,P|402:303|450:298,1,89.9999999999999,8|8,0:0|0:0,0:0:0:0:
508,235,78280,6,0,L|466:58,1,180,4|2,0:0|0:0,0:0:0:0:
382,27,79697,1,8,0:0:0:0:
326,98,80169,2,0,B|237:120|236:71|146:102,1,180,2|2,0:0|0:0,0:0:0:0:
63,129,81587,1,8,0:0:0:0:
33,213,82059,6,0,P|101:341|223:273,1,315,4|4,0:0|0:0,0:0:0:0:
256,192,85839,12,0,89146,0:0:0:0:
