osu file format v14

[General]
AudioFilename: audio.mp3
AudioLeadIn: 0
PreviewTime: 55139
Countdown: 0
SampleSet: Soft
StackLeniency: 0.7
Mode: 3
LetterboxInBreaks: 0
SpecialStyle: 0
WidescreenStoryboard: 1

[Editor]
DistanceSpacing: 0.8
BeatDivisor: 4
GridSize: 32
TimelineZoom: 1

[Metadata]
Title:Tsugihagi Moyou (TV Size)
TitleUnicode:つぎはぎもよう (TV Size)
Artist:nano.RIPE
ArtistUnicode:nano.RIPE
Creator:Takodachi-
Version:Nyanpasu!
Source:のんのんびより のんすとっぷ
Tags:Kanon Matsubara Non Non Biyori Nonstop opening anime japanese LLENN- season 3 op pop jpop j-pop のんのんびよりでいず Days nanoripe きみコ Kimiko female vocals
BeatmapID:3064959
BeatmapSetID:1495457

[Difficulty]
HPDrainRate:7.5
CircleSize:4
OverallDifficulty:8
ApproachRate:5
SliderMultiplier:1.4
SliderTickRate:1

[Events]
//Background and Video events
Video,0,"video.mp4"
0,0,"BG2.jpg",0,0
//Break Periods
//Storyboard Layer 0 (Background)
//Storyboard Layer 1 (Fail)
//Storyboard Layer 2 (Pass)
//Storyboard Layer 3 (Foreground)
//Storyboard Layer 4 (Overlay)
//Storyboard Sound Samples
Sample,50414,0,"Tom1.wav",35

[TimingPoints]
1753,472.44094488189,4,2,1,50,1,0
9312,-100,4,2,1,65,0,0
24430,-100,4,2,1,60,0,0
56556,-100,4,2,1,70,0,1
69784,-100,4,2,1,65,0,0
71674,-100,4,2,1,70,0,1
84666,-100,4,2,1,55,0,0

[HitObjects]
192,192,1516,5,0,0:0:0:50:Tom2.wav
320,192,1634,1,0,0:0:0:50:Tom2.wav
64,192,1753,128,2,2225:0:0:0:0:
192,192,1753,1,4,0:0:0:0:
448,192,1753,1,0,0:0:0:0:
192,192,2225,1,2,0:0:0:0:
320,192,2225,1,8,0:0:0:0:
448,192,2461,1,8,0:0:0:0:
320,192,2579,1,8,0:0:0:0:
64,192,2697,1,2,0:0:0:0:
192,192,2697,1,8,0:0:0:0:
320,192,2934,1,8,0:0:0:0:
192,192,3052,1,8,0:0:0:0:
64,192,3170,1,2,0:0:0:0:
448,192,3170,1,8,0:0:0:0:
448,192,3406,1,8,0:0:0:0:
320,192,3524,1,8,0:0:0:0:
64,192,3642,1,2,0:0:0:0:
192,192,3642,1,8,0:0:0:0:
192,192,3878,1,8,0:0:0:0:
320,192,3997,1,8,0:0:0:0:
64,192,4115,1,2,0:0:0:0:
448,192,4115,1,8,0:0:0:0:
64,192,4351,1,8,0:0:0:0:
192,192,4469,1,8,0:0:0:0:
320,192,4587,1,2,0:0:0:0:
448,192,4587,1,8,0:0:0:0:
192,192,4823,1,8,0:0:0:0:
320,192,4941,1,8,0:0:0:0:
64,192,5060,1,2,0:0:0:0:
448,192,5060,1,8,0:0:0:0:
448,192,5296,1,8,0:0:0:0:
320,192,5414,1,8,0:0:0:0:
64,192,5532,1,2,0:0:0:0:
192,192,5532,1,8,0:0:0:0:
320,192,5768,1,8,0:0:0:0:
192,192,5886,1,8,0:0:0:0:
64,192,6004,1,2,0:0:0:0:
448,192,6004,1,8,0:0:0:0:
448,192,6241,1,8,0:0:0:0:
320,192,6359,1,8,0:0:0:0:
64,192,6477,1,2,0:0:0:0:
192,192,6477,1,8,0:0:0:0:
448,192,6595,1,8,0:0:0:0:
320,192,6713,1,8,0:0:0:0:
192,192,6831,1,8,0:0:0:0:
320,192,6949,1,8,0:0:0:0:
448,192,6949,1,0,0:0:0:0:
64,192,7186,1,2,0:0:0:0:
192,192,7186,1,0,0:0:0:0:
64,192,7422,1,8,0:0:0:0:
448,192,7422,1,0,0:0:0:60:Tom3.wav
192,192,7894,1,8,0:0:0:0:
320,192,7894,1,0,0:0:0:60:Tom3.wav
64,192,8367,1,8,0:0:0:0:
448,192,8367,1,0,0:0:0:60:Tom3.wav
320,192,8603,1,2,0:0:0:0:
192,192,8721,1,2,0:0:0:0:
64,192,8839,128,8,9075:0:0:0:0:
320,192,8839,1,0,0:0:0:65:Crash 2.wav
448,192,8839,1,0,0:0:0:0:
192,192,9075,128,2,9312:0:0:0:0:
64,192,9312,1,2,0:0:0:0:
320,192,9312,1,4,0:0:0:0:
448,192,9312,128,0,10256:0:0:0:0:
192,192,9784,1,8,0:0:0:0:
320,192,9784,1,0,0:0:0:0:
64,192,10256,1,8,0:0:0:0:
192,192,10256,1,0,0:0:0:0:
320,192,10493,128,2,10729:0:0:0:0:
64,192,10729,128,8,10965:0:0:0:0:
448,192,10729,1,0,0:0:0:0:
192,192,10965,128,2,11674:0:0:0:0:
320,192,11201,1,8,0:0:0:0:
448,192,11201,1,2,0:0:0:0:
64,192,11674,1,8,0:0:0:0:
448,192,11674,1,0,0:0:0:0:
320,192,11910,128,0,12146:0:0:0:0:
192,192,12146,1,8,0:0:0:0:
448,192,12146,1,0,0:0:0:0:
64,192,12382,128,2,12619:0:0:0:0:
192,192,12619,1,8,0:0:0:0:
320,192,12619,1,0,0:0:0:0:
448,192,12855,128,2,13091:0:0:0:0:
64,192,13091,1,2,0:0:0:0:
192,192,13091,128,8,14036:0:0:0:0:
320,192,13564,1,8,0:0:0:0:
448,192,13564,1,0,0:0:0:0:
64,192,14036,1,8,0:0:0:0:
448,192,14036,1,0,0:0:0:0:
320,192,14272,128,2,14508:0:0:0:0:
192,192,14508,1,8,0:0:0:0:
448,192,14508,1,0,0:0:0:0:
64,192,14745,128,2,15453:0:0:0:0:
192,192,14981,1,8,0:0:0:0:
320,192,14981,1,2,0:0:0:0:
192,192,15453,1,8,0:0:0:0:
448,192,15453,1,0,0:0:0:0:
320,192,15690,128,2,15926:0:0:0:0:
64,192,15926,1,8,0:0:0:0:
448,192,15926,1,0,0:0:0:0:
192,192,16162,128,2,16398:0:0:0:0:
320,192,16398,1,8,0:0:0:0:
448,192,16398,1,0,0:0:0:0:
64,192,16634,128,2,16871:0:0:0:0:
192,192,16871,1,2,0:0:0:0:
320,192,16871,128,8,17343:0:0:0:0:
448,192,16871,1,4,0:0:0:0:
64,192,17343,1,8,0:0:0:0:
192,192,17343,1,0,0:0:0:0:
448,192,17579,128,0,17815:0:0:0:0:
64,192,17815,1,8,0:0:0:0:
320,192,17815,1,0,0:0:0:0:
192,192,18052,128,2,18288:0:0:0:0:
320,192,18288,1,8,0:0:0:0:
448,192,18288,1,0,0:0:0:0:
64,192,18524,128,2,18760:0:0:0:0:
192,192,18760,1,2,0:0:0:0:
448,192,18760,1,8,0:0:0:0:
320,192,18997,128,0,19233:0:0:0:0:
64,192,19233,128,8,19469:0:0:0:0:
448,192,19233,1,0,0:0:0:0:
192,192,19469,128,0,19705:0:0:0:0:
64,192,19705,1,8,0:0:0:0:
448,192,19705,128,0,19941:0:0:0:0:
320,192,19941,128,2,20178:0:0:0:0:
64,192,20178,128,8,20414:0:0:0:0:
448,192,20178,1,0,0:0:0:0:
192,192,20414,128,2,20650:0:0:0:0:
320,192,20650,1,8,0:0:0:0:
448,192,20650,128,0,21123:0:0:0:0:
64,192,20886,1,2,0:0:0:0:
192,192,21123,1,8,0:0:0:0:
320,192,21123,1,0,0:0:0:65:Crash 2.wav
64,192,21359,1,0,0:0:0:0:
192,192,21477,1,8,0:0:0:0:
320,192,21595,1,2,0:0:0:0:
448,192,21595,1,0,0:0:0:45:Tom1.wav
448,192,21831,1,8,0:0:0:0:
320,192,21949,1,8,0:0:0:0:
64,192,22067,1,8,0:0:0:0:
192,192,22067,1,0,0:0:0:0:
320,192,22304,1,8,0:0:0:0:
448,192,22304,1,0,0:0:0:60:Tom3.wav
64,192,22776,1,8,0:0:0:0:
192,192,22776,1,0,0:0:0:60:Tom3.wav
320,192,23249,1,8,0:0:0:0:
448,192,23249,1,0,0:0:0:60:Tom3.wav
64,192,23721,1,8,0:0:0:0:
192,192,23721,1,0,0:0:0:65:Crash 2.wav
64,192,23957,1,8,0:0:0:0:
192,192,23957,1,0,0:0:0:65:Crash 2.wav
448,192,23957,128,0,24430:0:0:0:0:
64,192,24430,128,4,24902:0:0:0:0:
320,192,24430,1,2,0:0:0:0:
192,192,24666,1,2,0:0:0:0:
320,192,24902,128,8,25138:0:0:0:0:
448,192,24902,1,0,0:0:0:0:
192,192,25138,1,0,0:0:0:0:
64,192,25256,1,8,0:0:0:0:
448,192,25256,128,0,25611:0:0:0:0:
320,192,25611,1,2,0:0:0:0:
64,192,25847,1,8,0:0:0:0:
448,192,25847,1,0,0:0:0:0:
192,192,26083,128,2,26319:0:0:0:0:
448,192,26319,128,2,26556:0:0:0:0:
64,192,26556,128,2,26792:0:0:0:0:
320,192,26792,128,8,27146:0:0:0:0:
448,192,26792,1,0,0:0:0:0:
192,192,27028,1,0,0:0:0:0:
64,192,27146,128,8,27501:0:0:0:0:
448,192,27146,1,0,0:0:0:0:
320,192,27501,1,2,0:0:0:0:
192,192,27737,1,8,0:0:0:0:
448,192,27737,1,0,0:0:0:0:
320,192,27973,1,2,0:0:0:0:
192,192,28091,1,0,0:0:0:0:
64,192,28209,1,2,0:0:0:0:
320,192,28445,128,2,28682:0:0:0:0:
64,192,28682,1,8,0:0:0:0:
192,192,28682,1,0,0:0:0:0:
448,192,28918,1,0,0:0:0:0:
64,192,29036,1,8,0:0:0:0:
320,192,29036,1,0,0:0:0:0:
192,192,29154,128,0,29390:0:0:0:0:
320,192,29390,128,2,29627:0:0:0:0:
64,192,29627,1,8,0:0:0:0:
448,192,29627,1,0,0:0:0:0:
192,192,29863,128,2,30099:0:0:0:0:
64,192,30099,128,2,30335:0:0:0:0:
448,192,30335,128,2,30571:0:0:0:0:
64,192,30571,1,8,0:0:0:0:
320,192,30571,128,0,30926:0:0:0:0:
192,192,30808,1,0,0:0:0:0:
64,192,30926,128,8,31280:0:0:0:0:
448,192,30926,1,0,0:0:0:0:
320,192,31280,1,2,0:0:0:0:
192,192,31516,1,8,0:0:0:0:
448,192,31516,1,0,0:0:0:0:
320,192,31753,128,2,31989:0:0:0:0:
64,192,31989,128,2,32225:0:0:0:0:
192,192,32225,1,2,0:0:0:0:
320,192,32461,1,8,0:0:0:0:
448,192,32461,128,0,32697:0:0:0:0:
192,192,32697,1,0,0:0:0:0:
64,192,32815,128,8,33170:0:0:0:0:
320,192,32815,1,0,0:0:0:0:
192,192,33170,128,2,33406:0:0:0:0:
64,192,33406,1,8,0:0:0:0:
448,192,33406,1,0,0:0:0:0:
320,192,33642,128,2,33878:0:0:0:0:
64,192,33878,128,2,34115:0:0:0:0:
320,192,34115,1,2,0:0:0:0:
64,192,34351,1,8,0:0:0:0:
448,192,34351,1,0,0:0:0:0:
320,192,34587,1,0,0:0:0:0:
192,192,34705,1,8,0:0:0:0:
448,192,34705,1,0,0:0:0:0:
64,192,34941,1,0,0:0:0:0:
448,192,35060,128,2,35296:0:0:0:0:
64,192,35296,1,8,0:0:0:0:
192,192,35296,128,0,35532:0:0:0:0:
320,192,35532,128,2,35768:0:0:0:0:
64,192,35768,128,2,36241:0:0:0:0:
192,192,36004,1,2,0:0:0:0:
320,192,36241,1,8,0:0:0:0:
448,192,36241,1,0,0:0:0:0:
192,192,36477,1,0,0:0:0:0:
64,192,36595,1,8,0:0:0:0:
448,192,36595,1,0,0:0:0:0:
320,192,36949,1,2,0:0:0:0:
64,192,37186,1,8,0:0:0:0:
448,192,37186,1,0,0:0:0:0:
192,192,37422,128,2,37658:0:0:0:0:
320,192,37658,1,2,0:0:0:0:
448,192,37658,128,0,38130:0:0:0:0:
192,192,37894,1,2,0:0:0:0:
64,192,38130,1,8,0:0:0:0:
320,192,38130,1,0,0:0:0:0:
64,192,38485,1,8,0:0:0:0:
192,192,38485,1,0,0:0:0:0:
320,192,38603,1,2,0:0:0:0:
192,192,38839,1,8,0:0:0:0:
448,192,38839,1,0,0:0:0:0:
320,192,38957,1,8,0:0:0:0:
192,192,39075,1,10,0:0:0:0:
64,192,39193,1,8,0:0:0:0:
320,192,39312,1,0,0:0:0:35:Tom1.wav
448,192,39430,1,0,0:0:0:40:Tom2.wav
64,192,39548,128,4,40020:0:0:0:0:
192,192,39548,1,2,0:0:0:0:
320,192,39548,1,0,0:0:0:0:
448,192,39784,1,2,0:0:0:0:
192,192,40020,1,8,0:0:0:0:
448,192,40020,1,0,0:0:0:0:
320,192,40256,1,2,0:0:0:0:
192,192,40375,1,8,0:0:0:0:
448,192,40375,128,0,40729:0:0:0:0:
64,192,40611,1,8,0:0:0:0:
320,192,40729,128,2,40965:0:0:0:0:
64,192,40965,1,8,0:0:0:0:
448,192,40965,1,0,0:0:0:0:
192,192,41201,128,2,41438:0:0:0:0:
64,192,41438,128,2,41674:0:0:0:0:
320,192,41674,1,2,0:0:0:0:
192,192,41910,1,8,0:0:0:0:
448,192,41910,1,0,0:0:0:0:
64,192,42146,1,2,0:0:0:0:
320,192,42264,1,8,0:0:0:0:
448,192,42264,1,0,0:0:0:0:
64,192,42501,1,0,0:0:0:0:
192,192,42619,1,2,0:0:0:0:
320,192,42619,1,0,0:0:0:0:
64,192,42855,1,8,0:0:0:0:
448,192,42855,1,0,0:0:0:0:
192,192,43091,128,2,43327:0:0:0:0:
64,192,43327,1,2,0:0:0:0:
320,192,43327,1,4,0:0:0:0:
192,192,43564,1,2,0:0:0:0:
320,192,43800,1,8,0:0:0:0:
448,192,43800,1,0,0:0:0:0:
192,192,44036,1,0,0:0:0:0:
320,192,44154,1,8,0:0:0:0:
64,192,44272,128,2,44745:0:0:0:0:
448,192,44272,1,0,0:0:0:65:Crash 2.wav
192,192,44508,1,2,0:0:0:0:
320,192,44745,1,8,0:0:0:0:
448,192,44745,1,0,0:0:0:0:
320,192,44981,1,0,0:0:0:0:
192,192,45099,1,8,0:0:0:0:
64,192,45217,1,2,0:0:0:0:
448,192,45217,128,4,45690:0:0:0:0:
320,192,45453,1,2,0:0:0:0:
64,192,45690,1,8,0:0:0:0:
192,192,45690,1,0,0:0:0:0:
320,192,45926,1,2,0:0:0:0:
64,192,46280,1,8,0:0:0:0:
448,192,46280,1,0,0:0:0:0:
192,192,46398,1,2,0:0:0:0:
64,192,46634,1,8,0:0:0:0:
320,192,46634,1,0,0:0:0:0:
192,192,46871,1,8,0:0:0:0:
320,192,46989,1,8,0:0:0:0:
64,192,47107,128,2,47461:0:0:0:0:
448,192,47107,1,0,0:0:0:65:Crash 2.wav
192,192,47461,1,8,0:0:0:0:
448,192,47461,1,0,0:0:0:0:
64,192,47815,1,2,0:0:0:0:
448,192,47815,128,4,48170:0:0:0:0:
64,192,48170,1,8,0:0:0:0:
192,192,48170,1,0,0:0:0:0:
320,192,48288,1,2,0:0:0:0:
64,192,48524,1,8,0:0:0:0:
448,192,48524,1,0,0:0:0:0:
192,192,48642,1,8,0:0:0:0:
320,192,48760,1,0,0:0:0:35:Tom1.wav
448,192,48878,1,0,0:0:0:35:Tom1.wav
64,192,48997,128,2,49351:0:0:0:0:
192,192,48997,1,4,0:0:0:0:
320,192,49351,1,8,0:0:0:0:
448,192,49351,1,0,0:0:0:0:
64,192,49705,1,8,0:0:0:0:
192,192,49705,128,0,50060:0:0:0:65:Crash 2.wav
448,192,50060,1,8,0:0:0:0:
320,192,50178,1,2,0:0:0:0:
192,192,50296,1,8,0:0:0:0:
64,192,50414,1,8,0:0:0:0:
448,192,50532,1,0,0:0:0:40:Tom2.wav
320,192,50650,1,0,0:0:0:40:Tom3.wav
192,192,50768,1,0,0:0:0:0:
64,192,50886,128,4,51359:0:0:0:0:
320,192,50886,1,2,0:0:0:0:
448,192,50886,1,0,0:0:0:0:
192,192,51359,1,2,0:0:0:0:
320,192,51359,1,0,0:0:0:0:
192,192,51831,1,2,0:0:0:0:
448,192,51831,1,0,0:0:0:0:
64,192,52304,1,2,0:0:0:0:
320,192,52304,1,0,0:0:0:0:
64,192,52776,1,2,0:0:0:0:
192,192,52776,1,4,0:0:0:0:
448,192,52776,128,0,53012:0:0:0:0:
320,192,53012,1,8,0:0:0:0:
192,192,53130,1,8,0:0:0:0:
64,192,53249,1,10,0:0:0:0:
448,192,53367,1,8,0:0:0:0:
320,192,53485,1,8,0:0:0:0:
192,192,53603,1,8,0:0:0:0:
64,192,53721,1,10,0:0:0:0:
448,192,53839,1,8,0:0:0:0:
192,192,53957,1,8,0:0:0:0:
320,192,54075,1,8,0:0:0:0:
448,192,54193,1,10,0:0:0:0:
64,192,54312,1,8,0:0:0:0:
192,192,54430,1,8,0:0:0:0:
320,192,54548,1,8,0:0:0:0:
64,192,54666,128,2,55138:0:0:0:0:
448,192,54666,128,0,55138:0:0:0:65:Crash 2.wav
320,192,55138,128,0,55611:0:0:0:0:
64,192,55611,128,0,55847:0:0:0:0:
192,192,55847,128,2,56083:0:0:0:0:
64,192,56083,1,8,0:0:0:0:
320,192,56083,1,0,0:0:0:65:Crash 2.wav
448,192,56083,128,0,56556:0:0:0:0:
64,192,56556,1,2,0:0:0:0:
192,192,56556,1,4,0:0:0:0:
320,192,56556,128,0,57028:0:0:0:0:
64,192,57028,1,8,0:0:0:0:
448,192,57028,1,0,0:0:0:0:
320,192,57264,1,0,0:0:0:0:
192,192,57382,1,0,0:0:0:0:
64,192,57501,1,8,0:0:0:0:
448,192,57501,1,0,0:0:0:0:
192,192,57737,128,2,57973:0:0:0:0:
320,192,57973,1,8,0:0:0:0:
448,192,57973,1,0,0:0:0:0:
64,192,58209,128,2,58445:0:0:0:0:
192,192,58445,1,8,0:0:0:0:
320,192,58445,1,2,0:0:0:0:
448,192,58682,128,0,58918:0:0:0:0:
192,192,58918,1,8,0:0:0:0:
320,192,58918,128,0,59154:0:0:0:0:
64,192,59154,128,0,59390:0:0:0:0:
192,192,59272,1,0,0:0:0:0:
320,192,59390,1,8,0:0:0:0:
448,192,59390,128,0,59863:0:0:0:0:
192,192,59627,1,2,0:0:0:0:
64,192,59863,1,8,0:0:0:0:
320,192,59863,1,0,0:0:0:0:
192,192,60099,128,2,60335:0:0:0:0:
64,192,60335,1,2,0:0:0:0:
448,192,60335,1,8,0:0:0:0:
320,192,60571,128,0,60808:0:0:0:0:
192,192,60808,1,8,0:0:0:0:
448,192,60808,1,0,0:0:0:0:
64,192,61044,1,0,0:0:0:0:
192,192,61162,1,0,0:0:0:0:
320,192,61280,1,8,0:0:0:0:
448,192,61280,1,0,0:0:0:0:
64,192,61516,128,2,61753:0:0:0:0:
192,192,61753,128,8,61989:0:0:0:0:
448,192,61753,1,0,0:0:0:0:
320,192,61989,128,2,62225:0:0:0:0:
64,192,62225,1,2,0:0:0:0:
448,192,62225,1,8,0:0:0:0:
192,192,62461,128,0,62697:0:0:0:0:
64,192,62697,1,8,0:0:0:0:
320,192,62697,1,0,0:0:0:0:
448,192,62934,128,2,63170:0:0:0:0:
320,192,63052,1,0,0:0:0:0:
64,192,63170,128,8,63406:0:0:0:0:
192,192,63170,1,0,0:0:0:0:
320,192,63406,128,2,63642:0:0:0:0:
64,192,63642,1,8,0:0:0:0:
448,192,63642,128,0,63878:0:0:0:65:Crash 2.wav
192,192,63878,128,2,64115:0:0:0:0:
320,192,63997,1,0,0:0:0:0:
64,192,64115,128,10,64587:0:0:0:0:
448,192,64115,1,4,0:0:0:0:
320,192,64351,1,0,0:0:0:0:
192,192,64587,1,8,0:0:0:0:
448,192,64587,1,0,0:0:0:0:
320,192,64823,128,0,65060:0:0:0:0:
192,192,64941,1,0,0:0:0:0:
64,192,65060,1,8,0:0:0:0:
448,192,65060,1,0,0:0:0:0:
192,192,65296,128,2,65532:0:0:0:0:
64,192,65532,1,8,0:0:0:0:
320,192,65532,1,0,0:0:0:0:
448,192,65768,128,2,66004:0:0:0:0:
192,192,66004,1,8,0:0:0:0:
320,192,66004,1,2,0:0:0:0:
64,192,66241,128,0,66477:0:0:0:0:
320,192,66477,1,8,0:0:0:0:
448,192,66477,1,0,0:0:0:0:
192,192,66713,1,0,0:0:0:0:
320,192,66831,1,0,0:0:0:0:
64,192,66949,1,8,0:0:0:0:
448,192,66949,1,0,0:0:0:0:
192,192,67067,1,0,0:0:0:0:
320,192,67186,128,2,67422:0:0:0:0:
64,192,67422,1,8,0:0:0:0:
448,192,67422,1,0,0:0:0:0:
192,192,67658,128,2,67894:0:0:0:0:
64,192,67894,1,8,0:0:0:0:
320,192,67894,128,0,68130:0:0:0:0:
448,192,68130,128,2,68367:0:0:0:0:
64,192,68367,128,8,68603:0:0:0:0:
192,192,68367,1,0,0:0:0:65:Crash 2.wav
320,192,68603,1,0,0:0:0:0:
192,192,68721,1,8,0:0:0:0:
64,192,68839,1,0,0:0:0:40:Tom1.wav
448,192,68957,1,0,0:0:0:40:Tom1.wav
320,192,69075,1,8,0:0:0:0:
192,192,69193,1,8,0:0:0:0:
64,192,69312,1,8,0:0:0:0:
448,192,69312,1,0,0:0:0:0:
192,192,69548,1,8,0:0:0:0:
320,192,69548,1,0,0:0:0:60:Tom3.wav
64,192,70020,1,8,0:0:0:0:
448,192,70020,1,0,0:0:0:60:Tom3.wav
192,192,70493,1,8,0:0:0:0:
320,192,70493,1,0,0:0:0:60:Tom3.wav
64,192,70965,128,8,71201:0:0:0:0:
448,192,70965,128,0,71201:0:0:0:65:Crash 2.wav
192,192,71201,128,8,71674:0:0:0:0:
320,192,71201,1,0,0:0:0:65:Crash 2.wav
64,192,71674,1,2,0:0:0:0:
320,192,71674,1,4,0:0:0:0:
448,192,71674,128,0,72146:0:0:0:0:
192,192,72146,1,8,0:0:0:0:
320,192,72146,1,0,0:0:0:0:
64,192,72382,1,0,0:0:0:0:
192,192,72501,1,0,0:0:0:0:
320,192,72619,1,8,0:0:0:0:
448,192,72619,1,0,0:0:0:0:
192,192,72855,128,2,73091:0:0:0:0:
64,192,73091,1,8,0:0:0:0:
448,192,73091,1,0,0:0:0:0:
320,192,73327,128,2,73564:0:0:0:0:
192,192,73564,1,8,0:0:0:0:
448,192,73564,1,2,0:0:0:0:
64,192,73800,128,0,74036:0:0:0:0:
192,192,74036,128,8,74272:0:0:0:0:
320,192,74036,1,0,0:0:0:0:
448,192,74272,128,0,74508:0:0:0:0:
320,192,74390,1,0,0:0:0:0:
64,192,74508,128,8,74981:0:0:0:0:
192,192,74508,1,0,0:0:0:0:
320,192,74745,1,2,0:0:0:0:
192,192,74981,1,8,0:0:0:0:
448,192,74981,1,0,0:0:0:0:
320,192,75217,128,2,75453:0:0:0:0:
192,192,75335,1,0,0:0:0:0:
64,192,75453,1,8,0:0:0:0:
448,192,75453,1,2,0:0:0:0:
192,192,75690,128,0,75926:0:0:0:0:
64,192,75926,1,8,0:0:0:0:
320,192,75926,1,0,0:0:0:0:
448,192,76162,128,0,76398:0:0:0:0:
192,192,76280,1,0,0:0:0:0:
64,192,76398,1,8,0:0:0:0:
320,192,76398,1,0,0:0:0:0:
192,192,76634,128,2,76871:0:0:0:0:
320,192,76871,1,8,0:0:0:0:
448,192,76871,1,0,0:0:0:0:
64,192,77107,128,2,77343:0:0:0:0:
192,192,77225,1,0,0:0:0:0:
320,192,77343,1,8,0:0:0:0:
448,192,77343,128,0,77815:0:0:0:0:
64,192,77815,1,8,0:0:0:0:
320,192,77815,1,0,0:0:0:0:
192,192,78052,128,2,78288:0:0:0:0:
320,192,78288,1,8,0:0:0:0:
448,192,78288,1,0,0:0:0:0:
192,192,78524,1,2,0:0:0:0:
320,192,78642,1,8,0:0:0:0:
64,192,78760,1,8,0:0:0:0:
448,192,78760,1,0,0:0:0:0:
192,192,78878,1,8,0:0:0:0:
320,192,78997,1,8,0:0:0:0:
192,192,79115,1,8,0:0:0:0:
64,192,79233,1,2,0:0:0:0:
448,192,79233,128,4,79705:0:0:0:0:
192,192,79469,1,2,0:0:0:0:
64,192,79705,1,8,0:0:0:0:
320,192,79705,1,0,0:0:0:0:
448,192,79941,1,0,0:0:0:0:
64,192,80060,1,8,0:0:0:0:
192,192,80060,1,0,0:0:0:0:
320,192,80296,1,8,0:0:0:0:
448,192,80296,1,0,0:0:0:0:
192,192,80414,128,2,80650:0:0:0:0:
64,192,80650,128,8,80886:0:0:0:0:
320,192,80650,1,0,0:0:0:0:
448,192,80886,128,0,81595:0:0:0:0:
320,192,81004,1,0,0:0:0:0:
192,192,81123,1,2,0:0:0:0:
64,192,81359,1,2,0:0:0:0:
192,192,81595,1,8,0:0:0:0:
320,192,81595,1,0,0:0:0:0:
448,192,81831,1,0,0:0:0:0:
64,192,81949,1,8,0:0:0:0:
192,192,81949,1,0,0:0:0:0:
320,192,82186,1,8,0:0:0:0:
448,192,82186,1,0,0:0:0:0:
192,192,82304,1,2,0:0:0:0:
64,192,82540,1,8,0:0:0:0:
320,192,82540,1,0,0:0:0:0:
192,192,82776,1,0,0:0:0:0:
64,192,82894,1,0,0:0:0:0:
320,192,83012,1,2,0:0:0:0:
448,192,83012,128,0,83249:0:0:0:65:Crash 2.wav
64,192,83249,1,8,0:0:0:0:
192,192,83249,1,0,0:0:0:0:
320,192,83485,1,8,0:0:0:0:
448,192,83485,1,0,0:0:0:0:
64,192,83721,1,0,0:0:0:40:Tom1.wav
192,192,83839,1,0,0:0:0:40:Tom1.wav
64,192,83957,1,8,0:0:0:0:
448,192,83957,1,0,0:0:0:0:
320,192,84075,1,8,0:0:0:0:
192,192,84193,1,0,0:0:0:70:Tom2.wav
320,192,84430,1,0,0:0:0:50:Tom3.wav
192,192,84548,1,0,0:0:0:50:Tom3.wav
64,192,84666,128,2,85552:0:0:0:0:
320,192,84666,1,4,0:0:0:0:
448,192,84666,128,0,86556:0:0:0:0:
192,192,85552,128,0,85788:0:0:0:0:
320,192,85788,128,0,86378:0:0:0:0:
192,192,86378,1,0,0:0:0:0:
64,192,86556,128,0,88209:0:0:0:0:
192,192,86792,128,0,90099:0:0:0:0:
320,192,86792,1,0,0:0:0:0:
