osu file format v14

[General]
AudioFilename: audio.mp3
AudioLeadIn: 0
PreviewTime: 55139
Countdown: 0
SampleSet: Soft
StackLeniency: 0.7
Mode: 3
LetterboxInBreaks: 0
SpecialStyle: 0
WidescreenStoryboard: 0

[Editor]
DistanceSpacing: 0.8
BeatDivisor: 4
GridSize: 32
TimelineZoom: 0.4999999

[Metadata]
Title:Tsugihagi Moyou (TV Size)
TitleUnicode:つぎはぎもよう (TV Size)
Artist:nano.RIPE
ArtistUnicode:nano.RIPE
Creator:Takodachi-
Version:Easy
Source:のんのんびより のんすとっぷ
Tags:Kanon Matsubara Non Non Biyori Nonstop opening anime japanese LLENN- season 3 op pop jpop j-pop のんのんびよりでいず Days nanoripe きみコ Kimiko female vocals
BeatmapID:3064958
BeatmapSetID:1495457

[Difficulty]
HPDrainRate:7
CircleSize:4
OverallDifficulty:7
ApproachRate:5
SliderMultiplier:1.4
SliderTickRate:1

[Events]
//Background and Video events
0,0,"BG.jpg",0,0
Video,0,"video.mp4"
//Break Periods
//Storyboard Layer 0 (Background)
//Storyboard Layer 1 (Fail)
//Storyboard Layer 2 (Pass)
//Storyboard Layer 3 (Foreground)
//Storyboard Layer 4 (Overlay)
//Storyboard Sound Samples
Sample,7422,0,"Tom3.wav",60
Sample,7894,0,"Tom3.wav",60
Sample,8367,0,"Tom3.wav",60
Sample,8839,0,"Crash 2.wav",65
Sample,21595,0,"Tom1.wav",45
Sample,22304,0,"Tom3.wav",60
Sample,22776,0,"Tom3.wav",60
Sample,23249,0,"Tom3.wav",60
Sample,23721,0,"Crash 2.wav",65
Sample,47107,0,"Crash 2.wav",65
Sample,50414,0,"Tom1.wav",35
Sample,69548,0,"Tom3.wav",60
Sample,70020,0,"Tom3.wav",60
Sample,70493,0,"Tom3.wav",60
Sample,70965,0,"Crash 2.wav",65

[TimingPoints]
1753,472.44094488189,4,2,1,50,1,0
9312,-100.0,4,2,1,65,0,0
24430,-100.0,4,2,1,60,0,0
56556,-100.0,4,2,1,70,0,1
69784,-100.0,4,2,1,65,0,0
71674,-100.0,4,2,1,70,0,1
84666,-100.0,4,2,1,55,0,0

[HitObjects]
320,192,1516,1,0,0:0:0:50:Tom2.wav
64,192,1753,128,2,2225:0:0:0:0:
448,192,1753,1,4,0:0:0:0:
192,192,2225,1,10,0:0:0:0:
448,192,2697,1,10,0:0:0:0:
320,192,3170,1,10,0:0:0:0:
64,192,3642,1,10,0:0:0:0:
192,192,4115,1,10,0:0:0:0:
320,192,4587,1,10,0:0:0:0:
448,192,5060,1,10,0:0:0:0:
192,192,5532,1,10,0:0:0:0:
64,192,6004,1,10,0:0:0:0:
320,192,6477,1,10,0:0:0:0:
192,192,6713,1,8,0:0:0:0:
64,192,6949,1,8,0:0:0:0:
448,192,7186,1,2,0:0:0:0:
192,192,7422,1,8,0:0:0:0:
320,192,7894,1,8,0:0:0:0:
64,192,8367,1,8,0:0:0:0:
448,192,8839,1,8,0:0:0:0:
320,192,9075,1,2,0:0:0:0:
192,192,9312,1,2,0:0:0:0:
448,192,9312,1,4,0:0:0:0:
64,192,9784,1,8,0:0:0:0:
448,192,10256,1,8,0:0:0:0:
192,192,10729,1,8,0:0:0:0:
64,192,10965,1,2,0:0:0:0:
320,192,11201,1,10,0:0:0:0:
448,192,11674,1,8,0:0:0:0:
192,192,12146,1,8,0:0:0:0:
64,192,12619,1,8,0:0:0:0:
320,192,12855,1,2,0:0:0:0:
448,192,13091,1,10,0:0:0:0:
64,192,13564,1,8,0:0:0:0:
320,192,14036,1,8,0:0:0:0:
192,192,14508,1,8,0:0:0:0:
320,192,14745,1,2,0:0:0:0:
448,192,14981,1,10,0:0:0:0:
64,192,15453,1,8,0:0:0:0:
192,192,15926,1,8,0:0:0:0:
320,192,16398,1,8,0:0:0:0:
192,192,16634,1,2,0:0:0:0:
64,192,16871,1,10,0:0:0:0:
448,192,16871,128,4,17343:0:0:0:0:
320,192,17343,1,8,0:0:0:0:
192,192,17815,1,8,0:0:0:0:
448,192,18288,1,8,0:0:0:0:
64,192,18524,1,2,0:0:0:0:
320,192,18760,1,10,0:0:0:0:
192,192,19233,1,8,0:0:0:0:
448,192,19705,1,8,0:0:0:0:
64,192,20178,1,8,0:0:0:0:
192,192,20414,1,2,0:0:0:0:
448,192,20650,1,8,0:0:0:0:
320,192,20886,1,2,0:0:0:0:
64,192,21123,128,8,21595:0:0:0:0:
192,192,21123,1,0,0:0:0:65:Crash 2.wav
448,192,21595,1,2,0:0:0:0:
320,192,21831,1,8,0:0:0:0:
64,192,22067,1,8,0:0:0:0:
192,192,22304,1,8,0:0:0:0:
320,192,22776,1,8,0:0:0:0:
192,192,23249,1,8,0:0:0:0:
320,192,23721,1,8,0:0:0:0:
64,192,23957,1,8,0:0:0:0:
448,192,23957,128,0,24430:0:0:0:65:Crash 2.wav
192,192,24430,1,4,0:0:0:0:
320,192,24430,1,2,0:0:0:0:
64,192,24902,1,8,0:0:0:0:
192,192,25256,1,8,0:0:0:0:
448,192,25611,1,2,0:0:0:0:
320,192,25847,1,8,0:0:0:0:
64,192,26319,1,2,0:0:0:0:
192,192,26792,1,8,0:0:0:0:
320,192,27146,1,8,0:0:0:0:
448,192,27501,1,2,0:0:0:0:
64,192,27737,1,8,0:0:0:0:
320,192,28209,1,2,0:0:0:0:
192,192,28682,1,8,0:0:0:0:
448,192,29036,1,8,0:0:0:0:
64,192,29390,1,2,0:0:0:0:
192,192,29627,1,8,0:0:0:0:
320,192,30099,1,2,0:0:0:0:
64,192,30571,1,8,0:0:0:0:
448,192,30926,1,8,0:0:0:0:
192,192,31280,1,2,0:0:0:0:
64,192,31516,1,8,0:0:0:0:
448,192,31989,1,2,0:0:0:0:
320,192,32461,1,8,0:0:0:0:
64,192,32815,1,8,0:0:0:0:
192,192,33170,1,2,0:0:0:0:
448,192,33406,1,8,0:0:0:0:
320,192,33878,1,2,0:0:0:0:
64,192,34351,1,8,0:0:0:0:
192,192,34705,1,8,0:0:0:0:
448,192,35060,1,2,0:0:0:0:
320,192,35296,1,8,0:0:0:0:
64,192,35768,1,2,0:0:0:0:
320,192,36241,1,8,0:0:0:0:
192,192,36595,1,8,0:0:0:0:
448,192,36949,1,2,0:0:0:0:
64,192,37186,1,8,0:0:0:0:
320,192,37658,1,2,0:0:0:0:
448,192,38130,1,8,0:0:0:0:
64,192,38603,1,2,0:0:0:0:
320,192,38839,1,8,0:0:0:0:
192,192,39075,1,10,0:0:0:0:
64,192,39312,1,0,0:0:0:35:Tom1.wav
320,192,39548,1,4,0:0:0:0:
448,192,39548,128,2,40020:0:0:0:0:
192,192,40020,1,8,0:0:0:0:
64,192,40375,1,8,0:0:0:0:
448,192,40729,1,2,0:0:0:0:
320,192,40965,1,8,0:0:0:0:
64,192,41438,1,2,0:0:0:0:
320,192,41910,1,8,0:0:0:0:
192,192,42264,1,8,0:0:0:0:
448,192,42619,1,2,0:0:0:0:
64,192,42855,1,8,0:0:0:0:
192,192,43327,1,2,0:0:0:0:
320,192,43327,128,4,43800:0:0:0:0:
448,192,43800,1,8,0:0:0:0:
64,192,44272,128,2,44745:0:0:0:0:
192,192,44272,1,0,0:0:0:65:Crash 2.wav
320,192,44745,1,8,0:0:0:0:
192,192,45217,1,2,0:0:0:0:
448,192,45217,128,4,45690:0:0:0:0:
64,192,45690,1,8,0:0:0:0:
320,192,45926,1,2,0:0:0:0:
448,192,46398,1,2,0:0:0:0:
64,192,46634,1,8,0:0:0:0:
192,192,46871,1,8,0:0:0:0:
448,192,47107,1,2,0:0:0:0:
64,192,47461,1,8,0:0:0:0:
192,192,47815,1,2,0:0:0:0:
320,192,47815,128,4,48288:0:0:0:0:
448,192,48288,1,2,0:0:0:0:
192,192,48524,1,8,0:0:0:0:
320,192,48760,1,0,0:0:0:35:Tom1.wav
64,192,48997,1,6,0:0:0:0:
448,192,49351,1,8,0:0:0:0:
192,192,49705,1,8,0:0:0:0:
320,192,49705,128,0,50178:0:0:0:65:Crash 2.wav
64,192,50178,1,2,0:0:0:0:
192,192,50414,1,8,0:0:0:0:
320,192,50650,1,0,0:0:0:40:Tom3.wav
64,192,50886,128,4,51359:0:0:0:0:
448,192,50886,1,2,0:0:0:0:
192,192,51359,1,2,0:0:0:0:
320,192,51831,1,2,0:0:0:0:
64,192,52304,1,2,0:0:0:0:
192,192,52776,1,2,0:0:0:0:
448,192,52776,128,4,53249:0:0:0:0:
320,192,53249,128,10,53721:0:0:0:0:
192,192,53721,128,10,54193:0:0:0:0:
64,192,54193,128,10,54666:0:0:0:0:
320,192,54666,1,2,0:0:0:0:
448,192,54666,128,0,55847:0:0:0:65:Crash 2.wav
192,192,55847,1,2,0:0:0:0:
64,192,56083,128,8,56556:0:0:0:0:
320,192,56083,1,0,0:0:0:65:Crash 2.wav
192,192,56556,1,2,0:0:0:0:
448,192,56556,128,4,57028:0:0:0:0:
64,192,57028,1,8,0:0:0:0:
320,192,57501,1,8,0:0:0:0:
192,192,57973,1,8,0:0:0:0:
64,192,58209,1,2,0:0:0:0:
448,192,58445,1,10,0:0:0:0:
320,192,58918,1,8,0:0:0:0:
192,192,59390,1,8,0:0:0:0:
64,192,59863,1,8,0:0:0:0:
320,192,60099,1,2,0:0:0:0:
448,192,60335,1,10,0:0:0:0:
64,192,60808,1,8,0:0:0:0:
320,192,61280,1,8,0:0:0:0:
192,192,61753,1,8,0:0:0:0:
64,192,61989,1,2,0:0:0:0:
448,192,62225,1,10,0:0:0:0:
192,192,62697,1,8,0:0:0:0:
448,192,63170,1,8,0:0:0:0:
320,192,63406,1,2,0:0:0:0:
64,192,63642,128,8,64115:0:0:0:0:
192,192,63642,1,0,0:0:0:65:Crash 2.wav
320,192,64115,1,10,0:0:0:0:
448,192,64115,128,4,64587:0:0:0:0:
64,192,64587,1,8,0:0:0:0:
320,192,65060,1,8,0:0:0:0:
448,192,65532,1,8,0:0:0:0:
192,192,65768,1,2,0:0:0:0:
64,192,66004,1,10,0:0:0:0:
320,192,66477,1,8,0:0:0:0:
64,192,66949,1,8,0:0:0:0:
192,192,67422,1,8,0:0:0:0:
320,192,67658,1,2,0:0:0:0:
448,192,67894,1,8,0:0:0:0:
192,192,68367,1,8,0:0:0:0:
320,192,68367,128,0,68839:0:0:0:65:Crash 2.wav
64,192,68839,1,0,0:0:0:40:Tom1.wav
192,192,69075,1,8,0:0:0:0:
448,192,69312,1,8,0:0:0:0:
320,192,69548,1,8,0:0:0:0:
192,192,70020,1,8,0:0:0:0:
64,192,70493,1,8,0:0:0:0:
320,192,70965,1,8,0:0:0:0:
64,192,71201,1,8,0:0:0:0:
448,192,71201,128,0,71674:0:0:0:65:Crash 2.wav
192,192,71674,1,2,0:0:0:0:
320,192,71674,128,4,72146:0:0:0:0:
64,192,72146,1,8,0:0:0:0:
448,192,72619,1,8,0:0:0:0:
320,192,73091,1,8,0:0:0:0:
192,192,73327,1,2,0:0:0:0:
64,192,73564,1,10,0:0:0:0:
448,192,74036,1,8,0:0:0:0:
192,192,74508,1,8,0:0:0:0:
320,192,74981,1,8,0:0:0:0:
448,192,75217,1,2,0:0:0:0:
64,192,75453,1,10,0:0:0:0:
192,192,75926,1,8,0:0:0:0:
320,192,76398,1,8,0:0:0:0:
448,192,76871,1,8,0:0:0:0:
64,192,77107,1,2,0:0:0:0:
192,192,77343,1,8,0:0:0:0:
448,192,77815,1,8,0:0:0:0:
320,192,78288,1,8,0:0:0:0:
64,192,78760,1,8,0:0:0:0:
192,192,78997,1,8,0:0:0:0:
320,192,79233,1,2,0:0:0:0:
448,192,79233,128,4,79705:0:0:0:0:
64,192,79705,1,8,0:0:0:0:
192,192,80060,1,8,0:0:0:0:
448,192,80414,1,2,0:0:0:0:
320,192,80650,1,8,0:0:0:0:
192,192,81123,1,2,0:0:0:0:
64,192,81595,1,8,0:0:0:0:
320,192,81949,1,8,0:0:0:0:
448,192,82304,1,2,0:0:0:0:
192,192,82540,1,8,0:0:0:0:
64,192,83012,128,2,83485:0:0:0:0:
320,192,83012,1,0,0:0:0:65:Crash 2.wav
448,192,83485,1,8,0:0:0:0:
64,192,83957,1,8,0:0:0:0:
192,192,84193,1,0,0:0:0:70:Tom2.wav
320,192,84430,1,0,0:0:0:50:Tom3.wav
64,192,84666,1,2,0:0:0:0:
448,192,84666,128,4,86792:0:0:0:0:
64,192,86792,128,0,90099:0:0:0:0:
