osu file format v14

[General]
AudioFilename: audio.mp3
AudioLeadIn: 0
PreviewTime: 137219
Countdown: 0
SampleSet: Soft
StackLeniency: 0.7
Mode: 0
LetterboxInBreaks: 0
WidescreenStoryboard: 0

[Editor]
DistanceSpacing: 0.9
BeatDivisor: 8
GridSize: 32
TimelineZoom: 2.08

[Metadata]
Title:Tsugihagi Moyou
TitleUnicode:つぎはぎもよう
Artist:nano.RIPE
ArtistUnicode:nano.RIPE
Creator:Cris-
Version:Nyanpasu~!
Source:のんのんびより のんすとっぷ
Tags:Non Non Biyori Nonstop Opening Third 3rd Season J-Rock JRock Rock J-Pop JPop Pop Anime Japanese nano RIPE nanoRIPE 宮内れんげ Miyauchi Renge 一条蛍 Ichijō Hotaru Ichijou Ichijo 越谷夏海 Koshigaya Natsumi 越谷小鞠 Koshigaya Komari きみコ Kimiko ササキジュン Sasaki Jun Full Version
BeatmapID:2860842
BeatmapSetID:1384791

[Difficulty]
HPDrainRate:5
CircleSize:4
OverallDifficulty:8
ApproachRate:9.3
SliderMultiplier:1.8
SliderTickRate:1

[Events]
//Background and Video events
0,0,"Tsugihagi Moyou.jpg",0,0
//Break Periods
2,199430,206235
//Storyboard Layer 0 (Background)
//Storyboard Layer 1 (Fail)
//Storyboard Layer 2 (Pass)
//Storyboard Layer 3 (Foreground)
//Storyboard Layer 4 (Overlay)
//Storyboard Sound Samples

[TimingPoints]
805,472.44094488189,4,2,1,50,1,0
805,-111.111111111111,4,2,1,50,0,0
6474,-100,4,2,1,50,0,0
6533,-100,4,2,1,5,0,0
6946,-100,4,2,1,50,0,0
7005,-100,4,2,1,5,0,0
7419,-100,4,2,1,50,0,0
7478,-100,4,2,1,5,0,0
7655,-100,4,2,1,60,0,0
7891,-71.4285714285714,4,2,1,60,0,0
8009,-71.4285714285714,4,2,1,5,0,0
8127,-71.4285714285714,4,2,1,60,0,0
8245,-71.4285714285714,4,2,1,5,0,0
8364,-62.5,4,2,1,70,0,0
21415,-62.5,4,2,1,5,0,0
21828,-62.5,4,2,1,70,0,0
21887,-62.5,4,2,1,5,0,0
22301,-62.5,4,2,1,70,0,0
22360,-62.5,4,2,1,5,0,0
22773,-62.5,4,2,1,70,0,0
22891,-62.5,4,2,1,5,0,0
23009,-76.9230769230769,4,2,1,70,0,0
23364,-76.9230769230769,4,2,1,5,0,0
23482,-90.9090909090909,4,2,1,60,0,0
53009,-76.9230769230769,4,2,1,60,0,0
53718,-83.3333333333333,4,2,1,65,0,0
57616,-83.3333333333333,4,2,1,5,0,0
57734,-83.3333333333333,4,2,1,65,0,0
57852,-83.3333333333333,4,2,1,5,0,0
57970,-83.3333333333333,4,2,1,65,0,0
58560,-83.3333333333333,4,2,1,5,0,0
58679,-83.3333333333333,4,2,1,65,0,0
58797,-83.3333333333333,4,2,1,5,0,0
58915,-83.3333333333333,4,2,1,65,0,0
59505,-83.3333333333333,4,2,1,5,0,0
59623,-83.3333333333333,4,2,1,65,0,0
59742,-83.3333333333333,4,2,1,5,0,0
59860,-83.3333333333333,4,2,1,65,0,0
61277,-76.9230769230769,4,2,1,70,0,0
61631,-100,4,2,1,70,0,0
61986,-76.9230769230769,4,2,1,70,0,0
63521,-100,4,2,1,70,0,0
63875,-76.9230769230769,4,2,1,70,0,0
65056,-111.111111111111,4,2,1,55,0,0
66946,-90.9090909090909,4,2,1,65,0,0
67419,-83.3333333333333,4,2,1,65,0,0
67891,-76.9230769230769,4,2,1,70,0,0
68364,-71.4285714285714,4,2,1,75,0,0
68836,-111.111111111111,4,2,1,75,0,0
69308,-111.111111111111,4,2,1,55,0,0
70253,-50,4,2,1,75,0,0
70608,-50,4,2,1,5,0,0
70726,-55.5555555555556,4,2,1,75,0,1
77812,-50,4,2,1,75,0,1
78285,-55.5555555555556,4,2,1,75,0,1
83482,-55.5555555555556,4,2,1,75,0,0
83718,-55.5555555555556,4,2,1,75,0,1
83777,-55.5555555555556,4,2,1,5,0,0
84190,-55.5555555555556,4,2,1,75,0,1
84249,-55.5555555555556,4,2,1,5,0,0
84663,-55.5555555555556,4,2,1,75,0,1
84722,-55.5555555555556,4,2,1,5,0,0
85135,-50,4,2,1,75,0,1
85253,-50,4,2,1,5,0,0
85371,-45.4545454545455,4,2,1,75,0,1
85726,-45.4545454545455,4,2,1,75,0,0
85844,-55.5555555555556,4,2,1,75,0,1
92930,-50,4,2,1,75,0,1
93403,-71.4285714285714,4,2,1,70,0,0
98836,-166.666666666667,4,2,1,60,0,0
99899,-166.666666666667,4,2,1,5,0,0
100017,-111.111111111111,4,2,1,60,0,0
100844,-111.111111111111,4,2,1,5,0,0
100962,-90.9090909090909,4,2,1,70,0,0
101316,-90.9090909090909,4,2,1,5,0,0
101434,-90.9090909090909,4,2,1,70,0,0
106159,-71.4285714285714,4,2,1,70,0,0
106631,-62.5,4,2,1,70,0,0
106690,-62.5,4,2,1,5,0,0
107104,-62.5,4,2,1,70,0,0
107163,-62.5,4,2,1,5,0,0
107576,-62.5,4,2,1,70,0,0
107635,-62.5,4,2,1,5,0,0
107812,-62.5,4,2,1,70,0,0
108049,-76.9230769230769,4,2,1,70,0,0
108403,-76.9230769230769,4,2,1,5,0,0
108521,-76.9230769230769,4,2,1,60,0,0
123639,-83.3333333333333,4,2,1,65,0,0
127537,-83.3333333333333,4,2,1,5,0,0
127655,-83.3333333333333,4,2,1,65,0,0
127773,-83.3333333333333,4,2,1,5,0,0
127891,-83.3333333333333,4,2,1,65,0,0
128482,-83.3333333333333,4,2,1,5,0,0
128600,-83.3333333333333,4,2,1,65,0,0
128718,-83.3333333333333,4,2,1,5,0,0
128836,-83.3333333333333,4,2,1,65,0,0
129427,-83.3333333333333,4,2,1,5,0,0
129545,-83.3333333333333,4,2,1,65,0,0
129663,-83.3333333333333,4,2,1,5,0,0
129781,-83.3333333333333,4,2,1,65,0,0
131198,-76.9230769230769,4,2,1,70,0,0
131553,-100,4,2,1,70,0,0
131907,-76.9230769230769,4,2,1,70,0,0
133442,-100,4,2,1,70,0,0
133797,-76.9230769230769,4,2,1,70,0,0
134978,-111.111111111111,4,2,1,55,0,0
136395,-76.9230769230769,4,2,1,60,0,0
136867,-90.9090909090909,4,2,1,65,0,0
137340,-83.3333333333333,4,2,1,70,0,0
137812,-76.9230769230769,4,2,1,60,0,0
138049,-62.5,4,2,1,70,0,0
138285,-50,4,2,1,75,0,0
138640,-50,4,2,1,5,0,0
138757,-55.5555555555556,4,2,1,75,0,1
145844,-50,4,2,1,75,0,1
146316,-55.5555555555556,4,2,1,75,0,1
151513,-55.5555555555556,4,2,1,75,0,0
151749,-55.5555555555556,4,2,1,75,0,1
151808,-55.5555555555556,4,2,1,5,0,0
152222,-55.5555555555556,4,2,1,75,0,1
152281,-55.5555555555556,4,2,1,5,0,0
152694,-55.5555555555556,4,2,1,75,0,1
152753,-55.5555555555556,4,2,1,5,0,0
153167,-50,4,2,1,75,0,1
153285,-50,4,2,1,5,0,0
153403,-45.4545454545455,4,2,1,75,0,1
153757,-45.4545454545455,4,2,1,75,0,0
153875,-55.5555555555556,4,2,1,75,0,1
160962,-50,4,2,1,75,0,1
161434,-71.4285714285714,4,2,1,70,0,0
166867,-166.666666666667,4,2,1,60,0,0
167812,-166.666666666667,4,2,1,50,0,0
168403,-166.666666666667,4,2,1,5,0,0
168521,-111.111111111111,4,2,1,55,0,0
168875,-111.111111111111,4,2,1,5,0,0
168993,-90.909090909091,4,2,1,60,0,0
170883,-83.3333333333333,4,2,1,60,0,0
172773,-76.9230769230769,4,2,1,60,0,0
174663,-71.4285714285714,4,2,1,60,0,0
176553,-62.5,4,2,1,65,0,0
182222,-62.5,4,2,1,70,0,0
182281,-62.5,4,2,1,5,0,0
182694,-62.5,4,2,1,70,0,0
182753,-62.5,4,2,1,5,0,0
183167,-62.5,4,2,1,70,0,0
183226,-62.5,4,2,1,5,0,0
183403,-62.5,4,2,1,75,0,0
184112,-55.5555555555556,4,2,1,75,0,1
187182,-55.5555555555556,4,2,2,75,0,1
187301,-55.5555555555556,4,2,1,75,0,1
187419,-55.5555555555556,4,2,3,75,0,1
187537,-55.5555555555556,4,2,1,75,0,1
190962,-55.5555555555556,4,2,2,75,0,1
191080,-55.5555555555556,4,2,1,75,0,1
191198,-55.5555555555556,4,2,3,75,0,1
191316,-55.5555555555556,4,2,1,75,0,1
194742,-55.5555555555556,4,2,3,75,0,1
194860,-55.5555555555556,4,2,1,75,0,1
194978,-55.5555555555556,4,2,3,75,0,1
195096,-55.5555555555556,4,2,1,75,0,1
197163,-55.5555555555556,4,2,1,5,0,1
197576,-55.5555555555556,4,2,1,75,0,1
197635,-55.5555555555556,4,2,1,5,0,1
198049,-76.9230769230769,4,2,1,75,0,1
198521,-76.9230769230769,4,2,1,70,0,1
198757,-76.9230769230769,4,2,1,65,0,1
198993,-76.9230769230769,4,2,1,60,0,1
199230,-166.666666666667,4,2,1,50,0,0
206789,-100,4,2,1,65,0,0
212222,-55.5555555555556,4,2,1,75,0,1
212281,-55.5555555555556,4,2,1,5,0,0
212694,-55.5555555555556,4,2,1,75,0,1
212753,-55.5555555555556,4,2,1,5,0,0
213167,-55.5555555555556,4,2,1,75,0,1
213226,-55.5555555555556,4,2,1,5,0,0
213639,-50,4,2,1,75,0,1
213757,-50,4,2,1,5,0,0
213875,-45.4545454545455,4,2,1,75,0,1
214230,-45.4545454545455,4,2,1,75,0,0
214348,-55.5555555555556,4,2,1,75,0,1
221434,-50,4,2,1,75,0,1
221907,-71.4285714285714,4,2,1,70,0,0
227340,-166.666666666667,4,2,1,65,0,0
228403,-166.666666666667,4,2,1,5,0,0
228521,-111.111111111111,4,2,1,65,0,0
229348,-111.111111111111,4,2,1,5,0,0
229466,-111.111111111111,4,2,1,70,0,0
229820,-111.111111111111,4,2,1,5,0,0
229938,-111.111111111111,4,2,1,70,0,0
232419,-111.111111111111,4,2,1,5,0,0
232537,-100,4,2,1,60,0,0
232773,-71.4285714285714,4,2,1,60,0,0
232891,-71.4285714285714,4,2,1,5,0,0
233009,-71.4285714285714,4,2,1,60,0,0
233127,-71.4285714285714,4,2,1,5,0,0
233245,-62.5,4,2,1,70,0,0
246297,-62.5,4,2,1,5,0,0
246710,-62.5,4,2,1,70,0,0
246769,-62.5,4,2,1,5,0,0
247182,-83.3333333333333,4,2,1,70,0,0
247655,-62.5,4,2,1,70,0,0
247773,-62.5,4,2,1,5,0,0
247891,-76.9230769230769,4,2,1,70,0,0
248245,-76.9230769230769,4,2,1,5,0,0
248364,-111.111111111111,4,2,1,50,0,0
260647,-111.111111111111,4,2,1,50,0,0
261592,-111.111111111111,4,2,1,45,0,0
262537,-111.111111111111,4,2,1,40,0,0
263482,-111.111111111111,4,2,1,35,0,0
263954,-111.111111111111,4,2,1,30,0,0
264427,-111.111111111111,4,2,1,25,0,0
264899,-111.111111111111,4,2,1,20,0,0
265371,-111.111111111111,4,2,1,15,0,0
265844,-111.111111111111,4,2,4,5,0,0

[Colours]
Combo1 : 247,207,72
Combo2 : 128,143,255
Combo3 : 248,139,92
Combo4 : 248,135,214

[HitObjects]
150,335,568,5,2,3:2:0:0:
156,347,686,1,2,3:2:0:0:
161,357,805,2,0,P|122:367|85:385,1,80.9999975280763,6|0,3:2|3:0,0:0:0:0:
23,342,1159,1,2,3:2:0:0:
23,342,1277,1,0,1:0:0:0:
107,169,1513,6,0,P|125:177|144:183,1,40.4999987640381,2|0,3:2|3:0,0:0:0:0:
42,218,1749,1,2,3:2:0:0:
206,101,1986,2,0,P|213:119|222:137,1,40.4999987640381,0|2,3:0|3:2,0:0:0:0:
125,89,2222,1,0,1:0:0:0:
316,0,2458,5,2,3:2:0:0:
334,9,2576,1,2,3:2:0:0:
349,15,2694,2,0,P|331:51|321:90,1,80.9999975280763,2|0,3:2|3:0,0:0:0:0:
365,161,3048,1,2,3:2:0:0:
365,161,3167,1,2,1:2:0:0:
197,301,3403,5,2,3:2:0:0:
189,271,3521,1,0,3:0:0:0:
173,247,3639,1,2,3:2:0:0:
382,329,3875,1,0,3:0:0:0:
365,353,3993,1,2,3:2:0:0:
358,383,4111,1,0,1:0:0:0:
239,119,4348,5,2,3:2:0:0:
251,143,4466,1,2,3:2:0:0:
261,167,4584,2,0,P|300:156|337:138,1,80.9999975280763,6|0,3:2|3:0,0:0:0:0:
404,189,4938,1,2,3:2:0:0:
404,189,5056,1,0,1:0:0:0:
158,112,5293,5,2,3:2:0:0:
167,92,5411,1,0,3:0:0:0:
176,72,5529,5,2,1:2:0:0:
133,15,5647,1,0,1:0:0:0:
65,0,5765,1,0,1:0:0:0:
7,38,5883,1,2,1:2:0:0:
0,106,6001,1,0,1:0:0:0:
231,0,6238,1,0,3:0:0:0:
97,229,6474,6,0,L|77:219,1,22.5,10|0,1:2|0:0,0:0:0:0:
106,219,6946,6,0,L|86:209,1,22.5,10|0,1:2|0:0,0:0:0:0:
111,209,7419,6,0,L|91:199,1,22.5,10|0,1:2|0:0,0:0:0:0:
224,100,7655,5,2,3:2:0:0:
267,135,7773,1,0,3:0:0:0:
242,184,7891,2,0,P|232:213|251:235,1,62.9999980773926,14|0,0:0|0:0,0:0:0:0:
395,294,8127,2,0,P|414:271|404:242,1,62.9999980773926,2|0,3:2|0:0,0:0:0:0:
187,383,8364,6,0,P|282:333|388:309,1,216,6|0,1:2|0:0,0:0:0:0:
251,235,8836,2,0,P|318:256|379:294,1,144,10|2,0:0|0:0,0:0:0:0:
387,309,9190,1,0,0:0:0:0:
462,201,9308,1,10,0:0:0:0:
265,34,9545,6,0,P|299:22|329:5,1,72,2|0,3:2|0:0,0:0:0:0:
262,161,9781,2,0,P|230:143|195:136,1,72,10|0,0:0|0:0,0:0:0:0:
54,0,10017,5,2,3:2:0:0:
0,45,10135,1,0,0:0:0:0:
37,106,10253,2,0,B|102:84|154:56|154:56|188:62|203:95|190:123,1,216,2|0,1:2|0:0,0:0:0:0:
54,0,10726,1,8,0:0:0:0:
131,257,10962,5,2,0:0:0:0:
182,208,11080,1,2,0:0:0:0:
128,161,11198,2,0,P|96:177|61:186,1,72,8|0,0:0|0:0,0:0:0:0:
226,308,11434,2,0,P|156:324|92:358,1,144,2|10,3:2|0:0,0:0:0:0:
341,177,11907,5,2,3:2:0:0:
280,212,12025,1,0,0:0:0:0:
317,272,12143,2,0,B|368:278|388:343|349:385|349:385|335:349|300:340,1,216,2|0,1:2|0:0,0:0:0:0:
172,243,12616,2,0,P|209:181|229:112,1,144,10|2,0:0|0:0,0:0:0:0:
223,99,12970,1,0,0:0:0:0:
337,42,13088,1,10,0:0:0:0:
87,0,13324,6,0,P|80:33|106:56,1,72,2|0,3:2|0:0,0:0:0:0:
0,166,13560,2,0,P|-6:132|19:109,1,72,10|0,0:0|0:0,0:0:0:0:
188,248,13797,5,2,3:2:0:0:
224,186,13915,1,2,0:0:0:0:
165,146,14033,2,0,P|72:177|101:269,1,216,2|0,1:2|0:0,0:0:0:0:
233,108,14505,1,10,0:0:0:0:
316,384,14742,5,2,3:2:0:0:
362,329,14860,1,0,0:0:0:0:
307,282,14978,2,0,P|275:298|240:307,1,72,8|0,0:0|0:0,0:0:0:0:
431,384,15214,2,0,P|446:314|480:250,1,144,2|8,3:2|0:0,0:0:0:0:
259,55,15686,5,2,3:2:0:0:
321,20,15805,1,2,0:0:0:0:
356,82,15923,2,0,B|387:142|332:183|315:158|259:202|291:262,1,216,6|0,1:2|0:0,0:0:0:0:
411,375,16395,1,10,0:0:0:0:
512,140,16631,5,2,0:0:0:0:
450,107,16749,1,0,0:0:0:0:
422,172,16867,2,0,L|450:238,1,72,10|0,0:0|0:0,0:0:0:0:
299,344,17104,2,0,P|363:325|393:384,1,144,2|8,3:2|0:0,0:0:0:0:
190,230,17576,5,2,3:2:0:0:
254,202,17694,1,2,0:0:0:0:
319,174,17812,2,0,P|301:142|291:107,1,72,10|0,0:0|0:0,0:0:0:0:
127,9,18049,2,0,P|116:43|99:75,1,72,2|0,3:2|0:0,0:0:0:0:
319,174,18285,6,0,P|329:139|346:107,1,72,10|0,0:0|0:0,0:0:0:0:
127,9,18521,2,0,P|144:40|154:75,1,72,2|0,3:2|0:0,0:0:0:0:
375,0,18757,5,10,0:0:0:0:
317,42,18875,1,2,0:0:0:0:
248,26,18993,1,2,3:2:0:0:
51,187,19230,2,0,P|83:201|113:222,1,72,10|0,0:0|0:0,0:0:0:0:
256,343,19466,5,2,3:2:0:0:
319,312,19584,1,2,0:0:0:0:
304,244,19702,1,10,0:0:0:0:
150,363,19938,1,0,3:0:0:0:
367,188,20175,6,0,L|301:160,1,72,14|0,0:0|0:0,0:0:0:0:
127,15,20411,1,2,3:2:0:0:
136,35,20529,1,0,1:0:0:0:
145,55,20647,1,2,3:2:0:0:
154,75,20765,1,2,3:2:0:0:
163,95,20883,5,2,3:2:0:0:
233,113,21001,1,0,1:0:0:0:
268,50,21119,1,10,0:0:0:0:
97,229,21356,6,0,L|65:213,1,36,10|0,1:2|0:0,0:0:0:0:
104,219,21828,6,0,L|72:203,1,36,10|0,1:2|0:0,0:0:0:0:
111,209,22301,6,0,L|79:193,1,36,10|0,1:2|0:0,0:0:0:0:
310,384,22773,6,0,L|341:320,1,72,14|0,0:0|0:0,0:0:0:0:
111,209,23009,2,0,P|71:278|136:325,1,175.499991966248,14|0,0:0|0:0,0:0:0:0:
147,316,23482,5,2,3:2:0:0:
256,250,23718,1,2,3:2:0:0:
82,112,23954,1,10,0:0:0:0:
191,46,24190,1,2,0:0:0:0:
196,60,24308,6,0,P|125:39|62:0,1,148.50000453186,10|0,0:0|3:0,0:0:0:0:
111,209,24899,1,8,0:0:0:0:
322,71,25135,5,2,3:2:0:0:
285,96,25253,1,0,0:0:0:0:
298,138,25371,1,2,3:2:0:0:
196,60,25608,1,2,3:2:0:0:
346,225,25844,6,0,P|307:252|314:298,1,99.0000030212403,10|0,0:0|0:0,0:0:0:0:
439,199,26198,2,0,P|416:261|355:236,1,148.50000453186,10|0,0:0|3:0,0:0:0:0:
512,129,26789,1,8,0:0:0:0:
288,4,27025,5,2,3:2:0:0:
313,41,27143,1,0,0:0:0:0:
355,28,27261,1,2,3:2:0:0:
256,108,27497,1,2,3:2:0:0:
452,215,27734,1,10,0:0:0:0:
353,295,27970,1,2,0:0:0:0:
292,248,28088,1,8,0:0:0:0:
305,236,28206,6,0,P|295:213|287:189,1,49.5000015106202,2|0,0:0|0:0,0:0:0:0:
367,292,28442,2,0,P|346:336|332:384,1,99.0000030212403,2|8,3:2|0:0,0:0:0:0:
236,131,28915,5,2,3:2:0:0:
197,154,29033,1,0,0:0:0:0:
208,196,29151,1,2,3:2:0:0:
352,264,29387,1,2,3:2:0:0:
111,149,29623,6,0,P|134:105|148:57,1,99.0000030212403,10|0,0:0|0:0,0:0:0:0:
21,196,29978,2,0,P|44:134|105:161,1,148.50000453186,10|0,0:0|3:0,0:0:0:0:
0,359,30568,1,8,0:0:0:0:
231,244,30805,5,2,3:2:0:0:
195,271,30923,1,0,0:0:0:0:
180,313,31041,2,0,P|140:283|96:261,1,99.0000030212403,2|0,3:2|3:0,0:0:0:0:
286,384,31513,1,10,0:0:0:0:
364,282,31749,1,2,0:0:0:0:
308,228,31867,1,8,0:0:0:0:
323,220,31986,6,0,P|344:209|364:194,1,49.5000015106202,2|0,0:0|0:0,0:0:0:0:
231,244,32222,2,0,P|209:199|179:160,1,99.0000030212403,2|8,3:2|0:0,0:0:0:0:
328,0,32694,5,2,3:2:0:0:
286,15,32812,1,2,0:0:0:0:
260,51,32930,2,0,P|282:95|311:134,1,99.0000030212403,2|0,3:2|3:0,0:0:0:0:
365,194,33285,1,2,0:0:0:0:
365,194,33403,1,8,0:0:0:0:
206,348,33639,1,2,0:0:0:0:
261,293,33757,6,0,L|217:271,2,49.5000015106202,8|2|0,0:0|0:0|0:0,0:0:0:0:
214,255,34112,1,2,3:2:0:0:
399,384,34348,1,10,0:0:0:0:
312,135,34584,5,2,3:2:0:0:
275,160,34702,1,0,0:0:0:0:
288,202,34820,1,2,3:2:0:0:
158,107,35056,5,2,3:2:0:0:
354,0,35293,1,10,0:0:0:0:
459,198,35529,1,2,0:0:0:0:
390,163,35647,1,8,0:0:0:0:
399,148,35765,6,0,P|410:126|419:103,1,49.5000015106202,2|0,0:0|0:0,0:0:0:0:
464,214,36001,1,2,3:2:0:0:
263,305,36238,1,8,0:0:0:0:
512,384,36474,5,2,3:2:0:0:
470,367,36592,1,2,0:0:0:0:
445,330,36710,1,2,3:2:0:0:
246,225,36946,1,2,3:2:0:0:
87,384,37182,1,10,0:0:0:0:
257,233,37419,1,2,0:0:0:0:
187,180,37537,6,0,P|198:158|207:135,1,49.5000015106202,8|0,0:0|0:0,0:0:0:0:
10,28,37891,2,2,P|19:51|30:73,1,49.5000015106202,2|0,0:2|0:0,0:0:0:0:
136,0,38127,1,10,0:0:0:0:
14,220,38364,5,2,0:0:0:0:
57,226,38482,1,0,0:0:0:0:
88,257,38600,1,2,3:2:0:0:
187,180,38836,1,2,0:0:0:0:
13,316,39072,1,10,0:0:0:0:
121,384,39308,1,2,0:0:0:0:
129,371,39427,6,0,B|135:347|151:333|151:333|99:244,1,148.50000453186,10|2,0:0|3:2,0:0:0:0:
288,362,40017,1,8,0:0:0:0:
355,120,40253,5,2,3:2:0:0:
330,83,40371,1,2,0:0:0:0:
288,96,40489,1,2,3:2:0:0:
365,237,40726,1,2,3:2:0:0:
192,113,40962,6,0,P|214:68|226:21,1,99.0000030212403,10|0,0:0|0:0,0:0:0:0:
57,86,41316,2,0,B|97:70|130:103|112:114|141:149|183:131,1,148.50000453186,10|2,0:0|3:2,0:0:0:0:
36,12,41907,1,8,0:0:0:0:
247,179,42143,5,2,3:2:0:0:
274,143,42261,1,0,0:0:0:0:
316,128,42379,1,2,3:2:0:0:
247,20,42616,1,2,3:2:0:0:
449,123,42852,1,10,0:0:0:0:
380,231,43089,1,2,0:0:0:0:
442,278,43206,1,8,0:0:0:0:
455,290,43324,6,0,P|474:276|476:252,1,49.5000015106202,2|0,0:0|0:0,0:0:0:0:
367,374,43560,2,0,P|379:330|342:301,1,99.0000030212403,2|10,3:2|0:0,0:0:0:0:
145,131,44033,5,2,3:2:0:0:
108,153,44151,1,0,0:0:0:0:
119,197,44269,1,2,3:2:0:0:
260,114,44505,1,2,3:2:0:0:
177,356,44742,6,0,P|136:326|92:306,1,99.0000030212403,10|0,0:0|0:0,0:0:0:0:
264,242,45096,2,0,P|220:301|189:369,1,148.50000453186,10|2,0:0|3:2,0:0:0:0:
47,197,45686,1,8,0:0:0:0:
265,377,45923,5,2,3:2:0:0:
276,333,46041,1,0,0:0:0:0:
239,311,46159,2,0,P|194:332|147:345,1,99.0000030212403,2|0,3:2|3:0,0:0:0:0:
330,202,46631,1,10,0:0:0:0:
228,126,46867,1,2,0:0:0:0:
163,174,46985,1,8,0:0:0:0:
177,183,47104,6,0,L|155:139,1,49.5000015106202,2|0,0:0|0:0,0:0:0:0:
289,52,47340,2,0,B|265:37|262:11|262:11|243:28|217:25,1,99.0000030212403,2|8,3:2|0:0,0:0:0:0:
0,161,47812,5,2,3:2:0:0:
25,198,47930,1,2,0:0:0:0:
67,185,48049,2,0,P|86:142|54:109,1,99.0000030212403,2|0,3:2|3:0,0:0:0:0:
0,59,48403,1,2,0:0:0:0:
0,59,48521,1,8,0:0:0:0:
218,0,48757,1,2,0:0:0:0:
163,55,48875,6,0,L|207:77,2,49.5000015106202,8|2|0,0:0|0:0|0:0,0:0:0:0:
210,93,49230,1,2,3:2:0:0:
0,161,49466,1,10,0:0:0:0:
185,338,49702,5,2,3:2:0:0:
226,317,49820,1,0,0:0:0:0:
216,274,49938,1,2,3:2:0:0:
158,107,50174,5,2,3:2:0:0:
354,0,50411,1,10,0:0:0:0:
459,198,50647,1,2,0:0:0:0:
390,163,50765,1,8,0:0:0:0:
399,148,50883,6,0,P|410:126|419:103,1,49.5000015106202,2|0,0:0|0:0,0:0:0:0:
464,214,51119,1,2,3:2:0:0:
263,305,51356,1,8,0:0:0:0:
512,384,51592,5,2,3:2:0:0:
470,367,51710,1,2,0:0:0:0:
445,330,51828,1,2,3:2:0:0:
246,225,52064,1,2,3:2:0:0:
87,384,52300,1,10,0:0:0:0:
257,233,52537,1,2,0:0:0:0:
187,180,52655,6,0,P|198:158|207:135,1,49.5000015106202,8|2,0:0|3:2,0:0:0:0:
398,315,53009,1,10,0:0:0:0:
398,315,53127,1,2,1:2:0:0:
470,249,53245,5,10,0:0:0:0:
445,200,53364,1,8,0:0:0:0:
392,213,53482,1,2,3:2:0:0:
159,384,53718,6,0,P|205:357|257:343,1,107.999996704102,6|0,3:2|3:0,0:0:0:0:
51,263,54190,1,10,0:0:0:0:
187,180,54427,1,2,3:2:0:0:
119,141,54545,6,0,P|132:119|140:93,1,53.9999983520508,8|0,0:0|0:0,0:0:0:0:
61,24,54781,1,0,3:0:0:0:
68,36,54899,2,0,P|61:61|49:85,1,53.9999983520508,2|0,3:2|0:0,0:0:0:0:
229,24,55135,1,8,0:0:0:0:
310,264,55371,5,2,3:2:0:0:
346,239,55490,1,0,0:0:0:0:
333,198,55608,2,0,P|280:183|233:160,1,107.999996704102,2|0,3:2|3:0,0:0:0:0:
218,168,55962,1,2,0:0:0:0:
299,102,56080,1,8,0:0:0:0:
191,333,56316,1,2,3:2:0:0:
115,281,56434,6,0,P|140:273|165:261,1,53.9999983520508,8|0,0:0|0:0,0:0:0:0:
124,372,56671,1,0,3:0:0:0:
116,360,56789,2,0,P|91:348|65:341,1,53.9999983520508,2|0,3:2|0:0,0:0:0:0:
129,157,57025,1,14,0:0:0:0:
367,319,57261,5,2,3:2:0:0:
427,267,57379,1,2,0:0:0:0:
372,211,57497,2,0,P|345:211|331:232,1,53.9999983520508,6|0,3:2|0:0,0:0:0:0:
244,99,57734,2,0,P|225:117|230:143,1,53.9999983520508,2|0,3:2|0:0,0:0:0:0:
427,267,57970,1,10,0:0:0:0:
178,374,58206,5,2,0:0:0:0:
116,328,58324,1,10,0:0:0:0:
191,384,58442,2,0,P|200:358|214:335,1,53.9999983520508,6|0,3:2|0:0,0:0:0:0:
122,206,58679,2,0,P|131:231|145:254,1,53.9999983520508,2|0,3:2|0:0,0:0:0:0:
341,133,58915,1,10,0:0:0:0:
96,0,59151,5,2,0:0:0:0:
49,63,59269,1,10,0:0:0:0:
120,98,59387,2,0,B|135:104|144:111|144:111|148:100|157:89,1,53.9999983520508,4|0,3:2|0:0,0:0:0:0:
296,10,59623,2,0,B|281:16|272:23|272:23|268:12|259:1,1,53.9999983520508,2|0,3:2|0:0,0:0:0:0:
337,213,59860,1,10,0:0:0:0:
105,354,60096,6,0,P|130:307|145:255,1,107.999996704102,2|0,3:2|0:0,0:0:0:0:
83,189,60450,1,10,0:0:0:0:
157,264,60568,1,2,3:2:0:0:
389,102,60805,6,0,P|374:79|365:53,1,53.9999983520508,10|0,0:0|3:0,0:0:0:0:
337,213,61041,1,2,1:2:0:0:
350,196,61159,1,0,1:0:0:0:
478,30,61277,6,0,P|525:54|509:105,1,116.999994644165,6|0,3:2|0:0,0:0:0:0:
465,46,61631,2,0,P|457:68|467:85,1,45,10|0,0:0|0:0,0:0:0:0:
273,287,61986,6,0,B|320:307|320:307|325:316|325:316|375:337,1,116.999994644165,6|0,3:2|0:0,0:0:0:0:
486,273,62340,1,8,0:0:0:0:
392,351,62458,2,0,L|369:298,1,58.4999973220826,2|0,3:2|3:0,0:0:0:0:
293,123,62694,5,8,0:0:0:0:
423,183,62812,1,8,0:0:0:0:
404,174,62930,2,0,L|381:227,1,58.4999973220826,2|2,3:2|0:0,0:0:0:0:
201,319,63167,6,0,B|165:318|142:273|167:245|167:245|173:247|177:255,1,116.999994644165,6|0,3:2|0:0,0:0:0:0:
213,334,63521,2,0,P|211:355|194:368,1,45,10|0,0:0|0:0,0:0:0:0:
71,110,63875,6,0,P|154:86|232:47,1,175.499991966248,14|0,0:0|0:0,0:0:0:0:
346,2,64348,5,2,3:2:0:0:
346,2,64467,1,0,1:0:0:0:
349,98,64584,5,10,0:0:0:0:
304,108,64702,1,0,3:0:0:0:
264,85,64820,1,0,3:0:0:0:
253,40,64938,1,0,3:0:0:0:
421,45,65056,6,0,P|366:32|344:84,1,121.499996292114,6|2,3:2|0:0,0:0:0:0:
349,98,65529,1,0,3:0:0:0:
223,197,65765,2,0,P|240:233|251:272,1,80.9999975280763,2|0,0:0|3:0,0:0:0:0:
387,351,66238,2,0,P|398:333|405:314,1,40.4999987640381,2|0,0:0|0:0,0:0:0:0:
398,303,66474,1,2,3:2:0:0:
172,384,66710,5,2,0:0:0:0:
190,376,66828,1,2,0:0:0:0:
202,364,66946,2,0,P|141:331|163:268,1,148.50000453186,6|0,3:2|3:0,0:0:0:0:
288,208,67419,5,2,1:2:0:0:
304,250,67537,1,0,3:0:0:0:
281,290,67655,1,0,3:0:0:0:
235,294,67773,1,0,3:0:0:0:
279,218,67891,5,2,1:2:0:0:
334,240,68009,1,0,3:0:0:0:
347,298,68127,1,0,3:0:0:0:
309,344,68245,1,0,3:0:0:0:
271,228,68364,5,2,1:2:0:0:
338,198,68482,1,0,3:0:0:0:
399,238,68600,1,0,3:0:0:0:
406,310,68718,1,2,3:2:0:0:
309,344,68836,5,6,3:2:0:0:
309,344,69308,6,0,P|337:268|382:200,1,161.999995056153,2|2,0:0|0:0,0:0:0:0:
286,116,70017,1,0,3:0:0:0:
153,373,70253,6,0,P|133:269|224:325,1,270,14|0,0:0|0:0,0:0:0:0:
382,201,70726,6,0,P|264:166|155:113,1,242.999992584229,14|0,0:0|0:0,0:0:0:0:
336,32,71198,2,0,P|299:51|262:64,1,80.9999975280763,10|0,1:2|0:0,0:0:0:0:
63,0,71434,5,2,0:0:0:0:
127,45,71553,1,2,3:2:0:0:
81,108,71671,2,0,P|44:89|6:77,1,80.9999975280763,8|0,0:0|0:0,0:0:0:0:
186,262,71907,2,0,B|151:282|151:330|151:330|123:291|82:295,1,161.999995056153,2|8,3:2|1:2,0:0:0:0:
367,130,72379,5,2,3:2:0:0:
412,194,72498,1,2,0:0:0:0:
475,148,72616,2,0,P|487:109|505:73,1,80.9999975280763,10|0,0:0|0:0,0:0:0:0:
407,208,72852,2,0,P|419:247|437:283,1,80.9999975280763,2|0,0:0|0:0,0:0:0:0:
360,115,73088,2,0,P|377:79|387:40,1,80.9999975280763,10|0,1:2|0:0,0:0:0:0:
203,163,73324,5,2,0:0:0:0:
197,241,73442,1,2,0:0:0:0:
251,302,73560,1,10,0:0:0:0:
251,302,73679,1,2,0:0:0:0:
191,254,73797,2,0,P|154:272|116:283,1,80.9999975280763,2|0,3:2|0:0,0:0:0:0:
317,384,74033,6,0,P|379:344|352:275,1,161.999995056153,10|2,1:2|3:2,0:0:0:0:
338,285,74387,1,2,0:0:0:0:
128,194,74505,6,0,P|100:220|107:258,1,80.9999975280763,10|0,0:0|0:0,0:0:0:0:
208,134,74742,2,0,P|199:96|163:83,1,80.9999975280763,2|0,0:0|0:0,0:0:0:0:
218,232,74978,2,0,P|256:243|284:217,1,80.9999975280763,10|0,1:2|0:0,0:0:0:0:
96,357,75214,6,0,P|67:282|19:217,1,161.999995056153,2|8,0:0|0:0,0:0:0:0:
98,40,75568,1,2,0:0:0:0:
162,83,75686,2,0,P|138:115|123:152,1,80.9999975280763,2|0,3:2|0:0,0:0:0:0:
338,285,75923,6,0,P|368:260|364:222,1,80.9999975280763,10|0,1:2|0:0,0:0:0:0:
201,322,76159,2,0,P|198:360|229:384,1,80.9999975280763,2|0,3:2|0:0,0:0:0:0:
319,131,76395,6,0,P|382:179|461:196,2,161.999995056153,10|2|8,0:0|0:0|1:2,0:0:0:0:
108,259,77104,5,2,3:2:0:0:
148,192,77222,1,2,0:0:0:0:
85,146,77340,2,0,P|47:163|8:174,1,80.9999975280763,10|0,0:0|0:0,0:0:0:0:
114,52,77576,2,0,P|150:69|189:80,1,80.9999975280763,2|0,3:2|0:0,0:0:0:0:
433,7,77812,6,0,P|353:-12|326:65,1,180,14|2,1:2|3:2,0:0:0:0:
339,78,78167,1,2,0:0:0:0:
206,245,78285,6,0,P|195:206|177:169,1,80.9999975280763,14|0,0:0|0:0,0:0:0:0:
270,295,78521,2,0,P|234:275|196:261,1,80.9999975280763,2|0,0:0|0:0,0:0:0:0:
350,285,78757,2,0,P|311:295|274:313,1,80.9999975280763,10|0,1:2|0:0,0:0:0:0:
394,116,78993,5,2,0:0:0:0:
459,160,79112,1,2,0:0:0:0:
416,226,79230,2,0,L|340:197,1,80.9999975280763,10|0,0:0|0:0,0:0:0:0:
417,343,79466,2,0,L|492:314,1,80.9999975280763,2|0,3:2|0:0,0:0:0:0:
268,233,79702,6,0,P|245:161|310:123,1,161.999995056153,10|2,1:2|3:2,0:0:0:0:
340,197,80056,1,2,0:0:0:0:
164,343,80175,6,0,P|182:307|195:268,1,80.9999975280763,10|0,0:0|0:0,0:0:0:0:
88,137,80411,2,0,P|75:175|56:210,1,80.9999975280763,2|0,0:0|0:0,0:0:0:0:
176,350,80647,2,0,P|194:314|207:275,1,80.9999975280763,10|0,1:2|0:0,0:0:0:0:
0,384,80883,6,0,B|-21:346|10:310|10:310|59:308|73:350,1,161.999995056153,2|8,0:0|0:0,0:0:0:0:
69,369,81238,1,2,0:0:0:0:
207,275,81356,5,2,3:2:0:0:
143,230,81474,1,2,0:0:0:0:
173,158,81592,2,0,P|211:145|246:126,1,80.9999975280763,10|0,1:2|0:0,0:0:0:0:
139,246,81828,2,0,P|103:226|65:214,1,80.9999975280763,2|0,3:2|0:0,0:0:0:0:
253,381,82064,6,0,P|283:356|279:318,1,80.9999975280763,10|0,0:0|0:0,0:0:0:0:
437,211,82301,2,0,P|432:249|462:274,1,80.9999975280763,2|0,3:2|0:0,0:0:0:0:
247,59,82537,6,0,P|324:39|395:0,1,161.999995056153,14|2,1:2|3:2,0:0:0:0:
462,37,82891,1,0,1:0:0:0:
501,155,83009,5,2,3:2:0:0:
422,188,83127,1,0,3:0:0:0:
350,142,83245,1,2,3:2:0:0:
342,57,83364,1,0,1:0:0:0:
462,37,83481,5,10,1:2:0:0:
364,349,83718,6,0,L|336:320,1,40.4999987640381,10|0,1:2|0:0,0:0:0:0:
69,198,84190,6,0,L|107:187,1,40.4999987640381,10|0,1:2|0:0,0:0:0:0:
344,20,84663,6,0,L|332:57,1,40.4999987640381,10|0,1:2|0:0,0:0:0:0:
96,319,85135,6,0,P|62:291|69:249,1,90,14|0,0:0|0:0,0:0:0:0:
282,384,85371,6,0,B|256:332|306:292|321:316|373:278|345:219,1,198.000006042481,14|2,1:2|0:0,0:0:0:0:
289,165,85726,1,2,0:0:0:0:
420,366,85844,6,0,P|316:301|201:264,1,242.999992584229,14|0,0:0|0:0,0:0:0:0:
387,296,86316,2,0,P|419:271|455:256,1,80.9999975280763,10|0,1:2|0:0,0:0:0:0:
325,61,86553,5,2,0:0:0:0:
359,131,86671,1,2,3:2:0:0:
289,165,86789,2,0,P|256:140|219:125,1,80.9999975280763,10|0,0:0|0:0,0:0:0:0:
487,33,87025,2,0,P|447:103|427:180,1,161.999995056153,2|8,3:2|1:2,0:0:0:0:
148,328,87497,5,2,3:2:0:0:
117,256,87616,1,2,0:0:0:0:
86,184,87734,2,0,P|47:178|21:207,1,80.9999975280763,10|0,0:0|0:0,0:0:0:0:
203,272,87970,2,0,P|227:241|214:204,1,80.9999975280763,2|0,0:0|0:0,0:0:0:0:
68,329,88206,2,0,P|82:365|120:373,1,80.9999975280763,10|0,1:2|0:0,0:0:0:0:
163,146,88442,5,2,0:0:0:0:
237,119,88560,1,2,3:2:0:0:
292,182,88679,1,10,0:0:0:0:
292,182,88797,1,2,0:0:0:0:
231,106,88915,2,0,P|249:69|260:31,1,80.9999975280763,2|0,3:2|0:0,0:0:0:0:
420,214,89151,6,0,B|379:195|341:230|360:245|325:282|281:262,1,161.999995056153,10|2,1:2|3:2,0:0:0:0:
266,253,89505,1,2,0:0:0:0:
475,155,89623,6,0,P|505:178|501:216,1,80.9999975280763,10|0,0:0|0:0,0:0:0:0:
374,68,89860,2,0,P|343:43|349:5,1,80.9999975280763,2|0,0:0|0:0,0:0:0:0:
475,155,90096,2,0,P|480:193|450:217,1,80.9999975280763,10|0,1:2|0:0,0:0:0:0:
242,371,90332,6,0,B|266:360|272:338|272:338|378:384,1,161.999995056153,2|8,0:0|0:0,0:0:0:0:
292,182,90686,1,2,0:0:0:0:
281,262,90805,2,0,L|355:231,1,80.9999975280763,2|0,3:2|0:0,0:0:0:0:
139,91,91041,6,0,P|108:115|113:153,1,80.9999975280763,10|0,1:2|0:0,0:0:0:0:
283,61,91277,2,0,P|313:37|308:0,1,80.9999975280763,2|0,3:2|0:0,0:0:0:0:
131,251,91513,6,0,B|136:203|104:172|58:178|58:178|50:197|30:206,2,161.999995056153,10|2|10,0:0|0:0|1:2,0:0:0:0:
378,384,92222,5,2,3:2:0:0:
418,317,92340,1,2,0:0:0:0:
355,271,92458,2,0,P|317:288|278:299,1,80.9999975280763,10|0,0:0|0:0,0:0:0:0:
433,183,92694,5,2,3:2:0:0:
365,257,92812,1,2,1:2:0:0:
426,200,92930,6,0,P|467:218|510:230,1,90,10|0,1:2|0:0,0:0:0:0:
341,166,93167,5,10,0:0:0:0:
418,317,93285,1,8,0:0:0:0:
331,181,93403,6,0,P|317:123|368:95,1,125.999996154785,6|0,3:2|3:0,0:0:0:0:
175,264,93875,1,10,0:0:0:0:
99,90,94112,1,2,0:0:0:0:
171,125,94230,6,0,P|160:154|143:180,1,62.9999980773926,8|0,0:0|0:0,0:0:0:0:
50,271,94466,1,8,0:0:0:0:
66,258,94584,1,2,3:2:0:0:
301,155,94820,1,10,0:0:0:0:
231,336,95056,5,2,0:0:0:0:
186,274,95175,1,0,0:0:0:0:
222,350,95293,1,2,3:2:0:0:
73,161,95529,2,0,P|25:194|45:250,1,125.999996154785,2|8,3:2|0:0,0:0:0:0:
190,76,96001,5,2,0:0:0:0:
146,43,96120,1,8,0:0:0:0:
196,64,96238,5,2,0:0:0:0:
142,52,96357,1,0,1:0:0:0:
196,53,96474,5,2,3:2:0:0:
141,64,96592,1,2,0:0:0:0:
168,59,96710,5,10,0:0:0:0:
343,199,96946,1,2,0:0:0:0:
388,137,97065,1,2,3:2:0:0:
352,213,97183,5,6,3:2:0:0:
173,141,97419,1,0,3:0:0:0:
314,319,97655,5,10,0:0:0:0:
234,41,97891,1,2,3:2:0:0:
304,5,98009,1,8,0:0:0:0:
349,70,98127,5,8,0:0:0:0:
266,155,98364,1,2,3:2:0:0:
234,41,98600,1,2,3:2:0:0:
435,291,98836,6,0,B|393:229|461:171|479:201|542:153|508:90,1,242.999992584229,6|0,3:2|0:0,0:0:0:0:
449,38,100017,5,10,0:0:0:0:
412,72,100135,1,8,0:0:0:0:
435,117,100253,1,2,3:2:0:0:
235,220,100490,1,10,0:0:0:0:
333,350,100726,2,0,P|340:331|349:314,1,40.4999987640381,2|0,3:2|0:0,0:0:0:0:
162,256,100962,6,0,P|195:316|260:296,1,148.50000453186,14|0,0:0|0:0,0:0:0:0:
235,220,101434,1,10,1:2:0:0:
440,314,101671,5,2,0:0:0:0:
456,292,101789,1,2,0:0:0:0:
452,265,101907,2,0,P|426:260|410:274,1,49.5000015106202,10|0,0:0|0:0,0:0:0:0:
333,350,102143,1,0,3:0:0:0:
270,133,102379,1,10,1:2:0:0:
443,49,102616,5,2,3:2:0:0:
444,75,102734,1,2,0:0:0:0:
428,96,102852,2,0,P|381:81|344:50,1,99.0000030212403,10|0,0:0|0:0,0:0:0:0:
286,0,103206,1,2,0:0:0:0:
286,0,103324,1,8,1:2:0:0:
149,179,103560,5,2,0:0:0:0:
169,162,103679,1,2,0:0:0:0:
175,137,103797,2,0,P|163:115|155:92,1,49.5000015106202,10|0,0:0|0:0,0:0:0:0:
257,175,104033,2,0,P|269:153|285:135,1,49.5000015106202,0|2,3:0|0:0,0:0:0:0:
211,249,104269,1,8,1:2:0:0:
26,94,104505,5,2,3:2:0:0:
52,90,104623,1,2,0:0:0:0:
71,108,104742,2,0,P|82:153|46:185,1,99.0000030212403,10|0,0:0|0:0,0:0:0:0:
0,251,105096,1,2,0:0:0:0:
0,251,105214,1,8,1:2:0:0:
219,384,105450,5,2,3:2:0:0:
228,364,105568,1,0,3:0:0:0:
237,344,105686,5,10,0:0:0:0:
194,287,105804,1,0,3:0:0:0:
126,272,105922,1,0,3:0:0:0:
68,310,106041,1,2,3:2:0:0:
61,378,106159,6,0,P|44:317|7:268,1,125.999996154785,14|0,0:0|3:0,0:0:0:0:
0,281,106513,1,2,0:0:0:0:
88,189,106631,6,0,L|72:221,1,36,14|0,1:2|0:0,0:0:0:0:
78,182,107103,6,0,L|62:214,1,36,10|0,1:2|0:0,0:0:0:0:
68,175,107576,6,0,L|52:207,1,36,10|0,1:2|0:0,0:0:0:0:
185,118,107812,6,0,P|164:89|152:55,1,72,2|0,3:2|0:0,0:0:0:0:
311,257,108049,2,0,P|234:232|202:305,1,175.499991966248,14|0,1:2|0:0,0:0:0:0:
283,343,108521,5,6,1:2:0:0:
368,166,108757,1,2,3:2:0:0:
276,358,108993,1,10,0:0:0:0:
185,118,109230,2,0,P|172:92|166:64,1,58.4999973220826,2|2,1:2|1:2,0:0:0:0:
244,173,109466,5,2,3:2:0:0:
209,215,109584,1,0,1:0:0:0:
158,194,109702,1,2,1:2:0:0:
360,295,109938,1,8,0:0:0:0:
119,384,110175,5,2,1:2:0:0:
136,331,110293,1,0,1:0:0:0:
151,279,110411,1,2,3:2:0:0:
22,134,110647,1,2,3:2:0:0:
163,293,110883,1,10,0:0:0:0:
236,49,111119,1,2,1:2:0:0:
236,49,111238,1,2,1:2:0:0:
177,104,111355,5,2,3:2:0:0:
212,146,111473,1,0,1:0:0:0:
262,124,111591,1,2,1:2:0:0:
68,237,111828,1,8,0:0:0:0:
303,342,112064,5,2,3:2:0:0:
268,384,112182,1,0,3:0:0:0:
218,362,112301,1,2,1:2:0:0:
135,187,112537,1,2,3:2:0:0:
225,378,112773,1,10,0:0:0:0:
302,132,113009,2,0,L|284:77,1,58.4999973220826,2|0,1:2|1:0,0:0:0:0:
376,188,113245,5,2,3:2:0:0:
323,205,113363,1,0,1:0:0:0:
271,220,113481,1,2,1:2:0:0:
457,346,113718,1,8,0:0:0:0:
302,132,113954,5,2,1:2:0:0:
280,82,114072,1,0,1:0:0:0:
322,47,114190,1,2,3:2:0:0:
164,207,114427,1,2,3:2:0:0:
335,35,114663,1,10,0:0:0:0:
420,282,114899,1,2,1:2:0:0:
420,282,115017,1,2,1:2:0:0:
451,194,115135,5,2,3:2:0:0:
399,209,115253,1,0,1:0:0:0:
346,226,115371,1,2,1:2:0:0:
512,76,115608,1,8,0:0:0:0:
267,0,115844,5,2,3:2:0:0:
263,52,115962,1,0,3:0:0:0:
227,95,116080,1,2,1:2:0:0:
394,193,116316,1,0,3:0:0:0:
212,86,116553,1,10,0:0:0:0:
120,329,116789,2,0,P|133:355|138:383,1,58.4999973220826,2|0,1:2|1:0,0:0:0:0:
61,274,117025,5,2,3:2:0:0:
96,232,117143,1,0,1:0:0:0:
146,254,117261,1,2,1:2:0:0:
352,353,117497,1,10,0:0:0:0:
282,106,117734,5,2,1:2:0:0:
278,158,117852,1,0,1:0:0:0:
242,201,117970,1,2,3:2:0:0:
417,119,118206,1,2,3:2:0:0:
225,210,118442,1,8,0:0:0:0:
448,348,118679,1,2,1:2:0:0:
448,348,118797,1,0,1:0:0:0:
373,374,118915,5,2,3:2:0:0:
351,324,119033,1,0,1:0:0:0:
393,289,119151,1,2,1:2:0:0:
185,376,119387,1,10,0:0:0:0:
88,138,119623,5,2,3:2:0:0:
123,96,119741,1,0,3:0:0:0:
173,118,119859,1,2,1:2:0:0:
71,282,120096,1,2,3:2:0:0:
184,102,120332,1,10,0:0:0:0:
270,350,120568,2,0,L|215:368,1,58.4999973220826,2|2,1:2|1:2,0:0:0:0:
349,285,120805,5,2,3:2:0:0:
297,281,120923,1,0,1:0:0:0:
254,245,121041,1,2,1:2:0:0:
96,357,121277,1,10,0:0:0:0:
325,209,121513,5,2,3:2:0:0:
347,159,121631,1,0,3:0:0:0:
305,124,121749,1,2,3:2:0:0:
426,275,121986,1,2,3:2:0:0:
292,109,122222,1,10,0:0:0:0:
199,384,122458,1,2,1:2:0:0:
199,384,122576,1,2,1:2:0:0:
106,334,122694,5,2,3:2:0:0:
142,294,122812,1,2,3:2:0:0:
156,241,122931,1,2,1:2:0:0:
196,278,123049,1,0,1:0:0:0:
248,293,123167,1,10,0:0:0:0:
44,199,123403,1,0,3:0:0:0:
277,100,123639,6,0,P|248:54|232:2,1,107.999996704102,6|0,3:2|3:0,0:0:0:0:
328,205,124112,1,10,0:0:0:0:
181,146,124348,1,2,3:2:0:0:
153,219,124466,6,0,P|166:195|174:169,1,53.9999983520508,8|0,0:0|0:0,0:0:0:0:
96,95,124702,1,0,3:0:0:0:
103,106,124820,2,0,P|95:131|83:155,1,53.9999983520508,2|0,3:2|0:0,0:0:0:0:
256,68,125056,1,8,0:0:0:0:
324,316,125292,5,2,3:2:0:0:
291,344,125411,1,0,0:0:0:0:
249,330,125529,2,0,P|230:283|268:250,1,107.999996704102,2|0,3:2|3:0,0:0:0:0:
279,260,125883,1,2,0:0:0:0:
238,356,126001,1,8,0:0:0:0:
30,216,126237,1,2,3:2:0:0:
81,275,126355,6,0,P|93:251|109:229,1,53.9999983520508,8|0,0:0|0:0,0:0:0:0:
35,351,126592,1,0,3:0:0:0:
28,335,126710,2,0,P|15:311|0:289,1,53.9999983520508,2|0,3:2|0:0,0:0:0:0:
171,179,126946,1,14,0:0:0:0:
386,384,127182,5,2,3:2:0:0:
432,319,127301,1,2,0:0:0:0:
364,278,127418,2,0,L|313:295,1,53.9999983520508,6|0,3:2|0:0,0:0:0:0:
418,173,127655,2,0,L|469:190,1,53.9999983520508,2|0,3:2|0:0,0:0:0:0:
304,313,127891,1,10,0:0:0:0:
244,58,128127,5,2,0:0:0:0:
184,106,128245,1,10,0:0:0:0:
257,47,128363,2,0,P|233:33|213:16,1,53.9999983520508,6|0,3:2|0:0,0:0:0:0:
314,146,128600,2,0,P|334:128|357:115,1,53.9999983520508,2|0,3:2|0:0,0:0:0:0:
179,251,128836,1,10,0:0:0:0:
70,1,129072,5,2,0:0:0:0:
111,69,129190,1,10,0:0:0:0:
38,101,129308,2,0,B|23:107|23:107|-12:93,1,53.9999983520508,4|0,3:2|0:0,0:0:0:0:
163,8,129545,2,0,B|198:22|198:22|213:16,1,53.9999983520508,2|0,3:2|0:0,0:0:0:0:
0,82,129781,1,10,0:0:0:0:
184,300,130017,6,0,P|228:277|218:227,1,107.999996704102,2|0,3:2|0:0,0:0:0:0:
144,175,130371,1,10,0:0:0:0:
205,235,130489,1,2,3:2:0:0:
0,384,130726,6,0,P|25:337|40:285,1,107.999996704102,10|2,0:0|0:0,0:0:0:0:
107,244,131080,1,0,0:0:0:0:
275,347,131198,6,0,P|221:336|194:383,1,116.999994644165,6|0,3:2|0:0,0:0:0:0:
284,363,131553,2,0,P|303:352|305:330,1,45,10|0,0:0|0:0,0:0:0:0:
116,134,131907,6,0,B|142:145|148:169|148:169|264:120,1,175.499991966248,14|0,0:0|0:0,0:0:0:0:
372,50,132379,2,0,L|319:27,1,58.4999973220826,2|0,3:2|0:0,0:0:0:0:
266,212,132615,5,8,0:0:0:0:
383,167,132734,1,8,0:0:0:0:
364,176,132852,2,0,L|341:123,1,58.4999973220826,2|0,3:2|0:0,0:0:0:0:
256,312,133088,6,0,B|247:295|233:288|233:288|266:212,1,116.999994644165,6|0,3:2|0:0,0:0:0:0:
270,327,133442,2,0,P|291:329|308:315,1,45,10|0,0:0|0:0,0:0:0:0:
220,45,133797,6,0,P|142:85|58:108,1,175.499991966248,14|0,0:0|0:0,0:0:0:0:
132,215,134269,5,2,3:2:0:0:
132,215,134388,1,0,3:0:0:0:
66,286,134505,5,10,0:0:0:0:
26,261,134623,1,0,1:0:0:0:
14,217,134741,1,2,3:2:0:0:
37,178,134859,1,0,3:0:0:0:
155,298,134978,6,0,P|124:250|72:272,1,121.499996292114,6|2,3:2|0:0,0:0:0:0:
66,286,135451,1,0,3:0:0:0:
190,180,135686,2,0,P|172:143|161:104,1,80.9999975280763,2|0,0:0|3:0,0:0:0:0:
15,37,136159,2,0,P|9:56|0:74,1,40.4999987640381,2|0,0:0|0:0,0:0:0:0:
187,8,136395,6,2,B|134:-17|134:-17|95:26,1,116.999994644165,6|2,3:2|0:0,0:0:0:0:
87,40,136749,1,2,0:0:0:0:
215,178,136867,5,6,1:2:0:0:
268,172,136985,1,0,3:0:0:0:
298,127,137104,1,0,3:0:0:0:
281,76,137222,1,0,3:0:0:0:
220,162,137340,5,2,1:2:0:0:
273,210,137457,1,0,3:0:0:0:
342,195,137575,1,0,3:0:0:0:
371,132,137693,1,0,3:0:0:0:
226,145,137812,6,0,P|197:142|178:161,1,58.4999973220826,2|0,3:2|0:0,0:0:0:0:
365,55,138049,2,0,P|400:51|423:74,1,72,14|0,0:0|0:0,0:0:0:0:
117,0,138285,6,0,P|81:130|24:251,1,270,14|0,1:2|0:0,0:0:0:0:
212,326,138757,6,0,P|112:282|76:384,1,242.999992584229,14|0,0:0|0:0,0:0:0:0:
168,203,139230,2,0,P|145:171|129:133,1,80.9999975280763,10|0,1:2|0:0,0:0:0:0:
348,230,139466,5,2,0:0:0:0:
297,289,139585,1,2,3:2:0:0:
238,237,139702,2,0,P|261:205|277:167,1,80.9999975280763,8|0,0:0|0:0,0:0:0:0:
509,335,139938,2,0,B|468:316|430:351|449:366|414:403|370:383,1,161.999995056153,2|8,3:2|1:2,0:0:0:0:
457,69,140411,5,2,3:2:0:0:
412,133,140529,1,2,0:0:0:0:
349,86,140647,2,0,P|337:47|319:11,1,80.9999975280763,10|0,0:0|0:0,0:0:0:0:
412,147,140883,2,0,P|376:128|337:115,1,80.9999975280763,2|0,0:0|0:0,0:0:0:0:
500,133,141119,2,0,P|461:144|425:162,1,80.9999975280763,10|0,1:2|0:0,0:0:0:0:
257,312,141355,5,2,0:0:0:0:
335,306,141473,1,2,0:0:0:0:
396,360,141591,1,10,0:0:0:0:
396,360,141710,1,2,0:0:0:0:
348,300,141828,2,0,P|366:263|377:225,1,80.9999975280763,2|0,3:2|0:0,0:0:0:0:
204,370,142064,6,0,B|177:356|169:332|169:332|184:304|180:272|180:272|158:262|149:238,1,161.999995056153,10|2,1:2|3:2,0:0:0:0:
139,251,142419,1,2,0:0:0:0:
267,69,142537,6,0,P|247:104|222:136,1,80.9999975280763,10|0,0:0|0:0,0:0:0:0:
92,42,142773,2,0,P|127:61|159:86,1,80.9999975280763,2|0,0:0|0:0,0:0:0:0:
65,217,143009,2,0,P|84:181|109:149,1,80.9999975280763,10|0,1:2|0:0,0:0:0:0:
297,316,143245,6,0,B|288:271|250:249|212:268|212:268|210:290|190:308,1,161.999995056153,2|8,0:0|0:0,0:0:0:0:
12,378,143599,1,2,0:0:0:0:
64,321,143718,2,0,P|94:345|89:384,1,80.9999975280763,2|0,3:2|0:0,0:0:0:0:
0,143,143954,6,0,P|38:129|73:109,1,80.9999975280763,10|0,1:2|0:0,0:0:0:0:
256,173,144190,2,0,P|217:186|182:206,1,80.9999975280763,2|0,3:2|0:0,0:0:0:0:
335,0,144427,6,0,P|263:19|276:91,2,161.999995056153,10|2|10,0:0|0:0|1:2,0:0:0:0:
441,273,145135,5,2,3:2:0:0:
441,273,145253,1,2,0:0:0:0:
487,196,145371,5,10,0:0:0:0:
350,273,145490,1,10,0:0:0:0:
485,352,145608,2,0,P|460:320|444:283,1,80.9999975280763,2|0,3:2|0:0,0:0:0:0:
201,376,145844,6,0,P|271:320|353:285,1,180,14|2,1:2|3:2,0:0:0:0:
367,295,146198,1,2,0:0:0:0:
477,99,146316,6,0,P|438:91|425:54,1,80.9999975280763,14|0,0:0|0:0,0:0:0:0:
395,214,146553,2,0,P|420:184|458:191,1,80.9999975280763,2|0,0:0|0:0,0:0:0:0:
336,86,146789,2,0,P|348:122|323:152,1,80.9999975280763,10|0,1:2|0:0,0:0:0:0:
118,65,147024,5,2,0:0:0:0:
162,0,147143,1,2,0:0:0:0:
228,43,147261,2,0,P|205:76|192:115,1,80.9999975280763,10|0,0:0|0:0,0:0:0:0:
91,237,147497,2,0,P|78:198|55:165,1,80.9999975280763,2|0,3:2|0:0,0:0:0:0:
268,258,147734,6,0,B|234:279|236:327|236:327|206:290|165:296,1,161.999995056153,10|2,1:2|3:2,0:0:0:0:
197,223,148088,1,2,0:0:0:0:
46,384,148206,6,0,P|71:353|90:316,1,80.9999975280763,10|0,0:0|0:0,0:0:0:0:
185,213,148442,2,0,P|210:182|229:145,1,80.9999975280763,2|0,0:0|0:0,0:0:0:0:
77,307,148679,2,0,P|58:343|32:374,1,80.9999975280763,10|0,1:2|0:0,0:0:0:0:
0,143,148915,6,0,P|53:203|119:249,1,161.999995056153,2|8,0:0|0:0,0:0:0:0:
132,260,149269,1,2,0:0:0:0:
256,366,149387,5,2,3:2:0:0:
323,326,149505,1,2,0:0:0:0:
293,254,149623,2,0,P|268:224|230:231,1,80.9999975280763,10|0,1:2|0:0,0:0:0:0:
333,337,149860,2,0,P|371:344|395:314,1,80.9999975280763,2|0,3:2|0:0,0:0:0:0:
173,162,150096,6,0,P|162:201|141:235,1,80.9999975280763,10|0,0:0|0:0,0:0:0:0:
298,123,150332,2,0,P|287:83|266:49,1,80.9999975280763,2|0,3:2|0:0,0:0:0:0:
443,246,150568,6,0,P|418:175|347:190,1,161.999995056153,14|2,1:2|3:2,0:0:0:0:
367,265,150923,1,0,1:0:0:0:
312,376,151041,5,2,3:2:0:0:
231,347,151159,1,0,3:0:0:0:
209,265,151277,1,2,3:2:0:0:
262,198,151395,1,0,1:0:0:0:
367,265,151513,5,10,1:2:0:0:
60,214,151749,6,0,P|67:197|72:176,1,40.4999987640381,10|0,1:2|0:0,0:0:0:0:
283,29,152222,6,0,P|268:15|256:-1,1,40.4999987640381,10|0,1:2|0:0,0:0:0:0:
304,285,152694,6,0,P|323:279|343:276,1,40.4999987640381,10|0,1:2|0:0,0:0:0:0:
44,106,153167,6,0,P|38:148|72:175,1,90,14|0,0:0|0:0,0:0:0:0:
283,29,153403,6,0,B|269:63|241:76|241:76|205:61|167:70|167:70|158:98|130:112,1,198.000006042481,14|2,1:2|0:0,0:0:0:0:
95,43,153757,1,2,0:0:0:0:
188,211,153875,6,0,B|201:175|230:166|230:166|190:88|166:0,1,242.999992584229,14|0,0:0|0:0,0:0:0:0:
107,198,154347,2,0,P|146:206|182:225,1,80.9999975280763,10|0,1:2|0:0,0:0:0:0:
386,319,154584,5,2,0:0:0:0:
343,384,154702,1,2,3:2:0:0:
272,352,154820,2,0,P|243:326|251:288,1,80.9999975280763,10|0,0:0|0:0,0:0:0:0:
487,124,155056,2,0,B|467:133|459:152|459:152|413:158|381:127|386:79,1,161.999995056153,2|8,3:2|1:2,0:0:0:0:
76,0,155529,5,2,3:2:0:0:
135,51,155648,1,2,0:0:0:0:
83,110,155765,2,0,P|51:87|13:71,1,80.9999975280763,10|0,0:0|0:0,0:0:0:0:
207,85,156001,2,0,P|230:52|261:25,1,80.9999975280763,2|0,0:0|0:0,0:0:0:0:
155,144,156238,2,0,P|162:183|178:220,1,80.9999975280763,10|0,1:2|0:0,0:0:0:0:
367,342,156473,5,2,0:0:0:0:
293,315,156591,1,2,3:2:0:0:
242,376,156710,1,10,0:0:0:0:
242,376,156828,1,2,0:0:0:0:
299,302,156946,2,0,P|281:265|270:227,1,80.9999975280763,2|0,3:2|0:0,0:0:0:0:
448,51,157182,6,0,P|476:119|410:152,1,161.999995056153,10|2,1:2|3:2,0:0:0:0:
399,141,157536,1,2,0:0:0:0:
197,45,157655,6,0,P|235:33|269:12,1,80.9999975280763,10|0,0:0|0:0,0:0:0:0:
344,194,157891,2,0,P|306:206|272:227,1,80.9999975280763,2|0,0:0|0:0,0:0:0:0:
197,45,158127,2,0,P|235:57|269:78,1,80.9999975280763,10|0,1:2|0:0,0:0:0:0:
116,292,158364,6,0,B|132:250|95:213|81:233|43:200|60:155,1,161.999995056153,2|8,0:0|0:0,0:0:0:0:
270,79,158717,1,2,0:0:0:0:
197,45,158836,2,0,P|184:83|163:117,1,80.9999975280763,2|0,3:2|0:0,0:0:0:0:
35,329,159072,6,0,P|4:305|8:267,1,80.9999975280763,10|0,1:2|0:0,0:0:0:0:
192,322,159308,2,0,P|198:360|168:384,1,80.9999975280763,2|0,3:2|0:0,0:0:0:0:
60,155,159545,6,0,B|100:149|130:187|130:187|128:139|162:118,2,161.999995056153,10|2|10,0:0|0:0|1:2,0:0:0:0:
332,256,160253,5,2,3:2:0:0:
265,295,160371,1,2,0:0:0:0:
220,231,160490,2,0,P|239:193|252:155,1,80.9999975280763,10|0,0:0|0:0,0:0:0:0:
131,307,160725,5,2,3:2:0:0:
206,241,160843,1,2,1:2:0:0:
147,298,160962,6,0,P|168:338|180:380,1,90,10|0,1:2|0:0,0:0:0:0:
115,215,161198,5,10,0:0:0:0:
265,295,161316,1,8,0:0:0:0:
130,205,161434,6,0,B|97:210|72:190|72:190|70:223|41:243,1,125.999996154785,6|0,3:2|3:0,0:0:0:0:
244,83,161906,1,10,0:0:0:0:
68,0,162143,1,2,0:0:0:0:
140,35,162261,6,0,P|129:64|112:90,1,62.9999980773926,8|0,0:0|0:0,0:0:0:0:
13,173,162497,1,2,0:0:0:0:
0,157,162615,1,2,3:2:0:0:
240,250,162851,1,10,0:0:0:0:
69,339,163087,5,2,0:0:0:0:
131,384,163206,1,0,0:0:0:0:
55,348,163324,1,2,3:2:0:0:
263,172,163560,2,0,P|207:152|174:200,1,125.999996154785,2|8,3:2|0:0,0:0:0:0:
351,340,164033,5,2,3:2:0:0:
307,373,164151,1,8,0:0:0:0:
357,352,164269,5,2,0:0:0:0:
303,364,164387,1,0,3:0:0:0:
357,363,164505,5,2,3:2:0:0:
302,352,164623,1,2,0:0:0:0:
329,357,164742,5,10,0:0:0:0:
263,172,164977,1,2,0:0:0:0:
201,217,165096,1,2,3:2:0:0:
277,181,165214,5,6,3:2:0:0:
205,2,165450,1,0,3:0:0:0:
383,143,165686,5,10,0:0:0:0:
105,63,165922,1,2,3:2:0:0:
62,131,166041,1,0,1:0:0:0:
135,173,166159,5,8,0:0:0:0:
135,173,166277,1,8,0:0:0:0:
174,103,166395,1,2,3:2:0:0:
353,29,166631,1,2,3:2:0:0:
248,333,166867,6,0,B|226:276|194:240|194:240|198:200|233:178|272:191,1,215.999993408203,6|2,3:2|0:0,0:0:0:0:
411,286,168049,6,0,P|445:266|449:228,1,80.9999975280763,2|0,0:0|0:0,0:0:0:0:
400,298,168521,6,2,P|353:265|369:211,1,121.499996292114,6|0,0:0|0:0,0:0:0:0:
411,312,168993,6,0,P|364:324|319:346,1,99.0000030212403,6|0,3:2|3:0,0:0:0:0:
251,384,169348,1,2,3:2:0:0:
251,384,169466,1,0,1:0:0:0:
133,274,169702,2,0,P|125:297|112:318,1,49.5000015106202,2|0,3:2|3:0,0:0:0:0:
199,236,169938,6,0,P|152:224|107:202,1,99.0000030212403,2|0,3:2|3:0,0:0:0:0:
100,197,170293,1,2,3:2:0:0:
94,192,170411,1,0,1:0:0:0:
259,92,170647,5,2,3:2:0:0:
245,104,170765,1,0,3:0:0:0:
238,117,170883,2,0,P|194:90|205:42,1,107.999996704102,2|0,3:2|3:0,0:0:0:0:
287,0,171238,1,2,3:2:0:0:
287,0,171356,1,0,1:0:0:0:
361,180,171592,2,0,P|373:155|389:134,1,53.9999983520508,2|0,3:2|3:0,0:0:0:0:
360,262,171828,6,0,P|340:215|290:220,1,107.999996704102,2|0,3:2|3:0,0:0:0:0:
282,234,172182,1,2,3:2:0:0:
287,249,172301,1,0,1:0:0:0:
83,351,172537,5,2,3:2:0:0:
105,354,172655,1,0,3:0:0:0:
120,338,172773,2,0,B|140:283|140:283|94:247,1,116.999994644165,2|0,3:2|3:0,0:0:0:0:
13,197,173127,1,2,3:2:0:0:
13,197,173245,1,0,1:0:0:0:
201,70,173482,2,0,L|178:17,1,58.4999973220826,2|0,3:2|3:0,0:0:0:0:
275,103,173718,6,0,P|217:110|173:147,1,116.999994644165,2|0,3:2|3:0,0:0:0:0:
170,169,174072,1,2,3:2:0:0:
185,184,174190,1,0,1:0:0:0:
399,330,174427,5,2,3:2:0:0:
365,343,174545,1,0,3:0:0:0:
339,358,174663,2,0,P|320:297|289:243,1,125.999996154785,2|0,3:2|3:0,0:0:0:0:
199,304,175017,1,2,3:2:0:0:
199,304,175135,1,0,1:0:0:0:
412,160,175371,6,0,P|396:187|386:217,1,62.9999980773926,2|0,3:2|1:0,0:0:0:0:
392,234,175608,1,2,3:2:0:0:
409,241,175726,1,0,3:0:0:0:
315,110,175844,6,0,P|284:118|256:132,1,62.9999980773926,2|0,1:2|1:0,0:0:0:0:
248,148,176081,1,0,3:0:0:0:
382,25,176198,6,0,P|354:9|324:0,1,62.9999980773926,2|2,0:0|1:2,0:0:0:0:
307,4,176435,1,0,1:0:0:0:
164,226,176553,6,0,B|201:171|143:123|126:147|69:103|99:47,1,216,6|10,3:2|0:0,0:0:0:0:
155,239,177025,1,2,0:0:0:0:
382,25,177261,6,0,B|356:56|323:59|323:59|290:32|248:29|248:29|229:54|195:59,1,216,14|0,0:0|0:0,0:0:0:0:
266,118,177734,2,0,P|248:149|240:184,1,72,2|0,3:2|3:0,0:0:0:0:
384,315,177970,5,10,0:0:0:0:
306,305,178088,1,8,0:0:0:0:
252,362,178206,1,2,3:2:0:0:
42,162,178442,6,0,B|17:242|-18:310|-18:310|6:318|18:348,1,216,6|10,3:2|0:0,0:0:0:0:
28,150,178915,1,2,0:0:0:0:
252,362,179151,6,0,P|224:267|128:287,1,216,14|0,0:0|1:0,0:0:0:0:
247,375,179623,5,2,3:2:0:0:
303,384,179741,1,2,1:2:0:0:
343,343,179859,1,10,0:0:0:0:
329,286,179977,1,2,3:2:0:0:
276,262,180096,2,0,L|210:290,1,72,2|0,3:2|3:0,0:0:0:0:
402,119,180332,6,0,B|397:76|352:74|352:74|311:111|335:174|382:187,1,216,6|10,3:2|0:0,0:0:0:0:
387,196,180805,1,2,0:0:0:0:
146,18,181041,6,0,P|127:87|94:150,1,144,6|2,3:2|0:0,0:0:0:0:
33,232,181395,1,8,0:0:0:0:
85,166,181513,1,2,3:2:0:0:
325,328,181749,6,0,P|290:337|259:353,1,72,10|0,0:0|0:0,0:0:0:0:
250,361,181986,1,2,3:2:0:0:
243,368,182104,1,2,0:0:0:0:
346,241,182222,6,0,P|362:251|379:257,1,36,10|0,1:2|0:0,0:0:0:0:
140,42,182694,6,0,P|140:24|137:7,1,36,10|0,1:2|0:0,0:0:0:0:
70,321,183167,6,0,P|54:328|40:340,1,36,10|0,1:2|0:0,0:0:0:0:
188,267,183403,5,2,3:2:0:0:
108,225,183521,1,2,3:2:0:0:
188,267,183639,5,14,1:2:0:0:
160,168,183757,1,2,0:0:0:0:
188,267,183875,5,2,3:2:0:0:
230,198,183993,1,2,0:0:0:0:
138,350,184112,6,0,P|196:298|273:313,1,161.999995056153,14|2,0:0|3:2,0:0:0:0:
323,372,184466,1,2,0:0:0:0:
475,216,184584,6,0,P|436:202|403:181,2,80.9999975280763,10|0|2,1:2|0:0|0:0,0:0:0:0:
387,169,184938,1,2,0:0:0:0:
292,384,185056,6,0,P|326:362|364:348,1,80.9999975280763,10|0,0:0|0:0,0:0:0:0:
274,209,185293,2,0,P|313:138|336:61,1,161.999995056153,2|10,3:2|1:2,0:0:0:0:
91,269,185765,5,2,3:2:0:0:
136,205,185884,1,2,0:0:0:0:
199,250,186001,2,0,B|226:281|226:281|212:317,1,80.9999975280763,10|0,0:0|0:0,0:0:0:0:
67,169,186238,2,0,B|52:133|52:133|80:101,1,80.9999975280763,2|0,0:0|0:0,0:0:0:0:
199,250,186474,2,0,B|213:285|213:285|185:317,1,80.9999975280763,10|0,1:2|0:0,0:0:0:0:
336,61,186710,6,0,P|258:37|188:0,1,161.999995056153,2|8,0:0|0:0,0:0:0:0:
0,230,187182,6,0,P|38:241|74:260,1,80.9999975280763,10|0,3:2|0:0,0:0:0:0:
246,186,187419,5,10,1:2:0:0:
199,250,187537,1,2,0:0:0:0:
246,186,187655,5,2,3:2:0:0:
171,156,187773,1,2,0:0:0:0:
149,330,187891,6,0,P|205:277|283:293,1,161.999995056153,10|2,0:0|0:0,0:0:0:0:
294,308,188245,1,2,0:0:0:0:
141,349,188364,6,0,P|64:362|8:307,1,161.999995056153,10|2,1:2|0:0,0:0:0:0:
2,288,188718,1,2,0:0:0:0:
124,186,188836,6,0,P|105:222|96:262,1,80.9999975280763,10|0,0:0|0:0,0:0:0:0:
0,41,189072,2,0,P|76:54|132:0,1,161.999995056153,2|8,3:2|0:0,0:0:0:0:
407,153,189545,5,2,3:2:0:0:
364,218,189664,1,2,0:0:0:0:
299,175,189781,2,0,P|273:146|284:108,1,80.9999975280763,10|0,0:0|0:0,0:0:0:0:
433,255,190017,2,0,P|444:292|418:321,1,80.9999975280763,2|0,3:2|0:0,0:0:0:0:
299,175,190253,2,0,P|287:137|313:108,1,80.9999975280763,10|0,1:2|0:0,0:0:0:0:
152,343,190490,6,0,P|228:329|284:384,1,161.999995056153,2|0,0:0|3:0,0:0:0:0:
500,195,190962,6,0,P|462:184|426:165,1,80.9999975280763,10|0,3:2|0:0,0:0:0:0:
259,246,191198,5,14,1:2:0:0:
299,175,191317,1,2,0:0:0:0:
259,246,191435,5,2,3:2:0:0:
330,274,191553,1,2,0:0:0:0:
215,132,191671,6,0,P|292:148|348:95,1,161.999995056153,14|2,0:0|0:0,0:0:0:0:
374,23,192025,1,2,0:0:0:0:
158,82,192143,6,0,P|132:53|143:15,2,80.9999975280763,10|0|2,1:2|0:0|0:0,0:0:0:0:
157,0,192497,1,2,0:0:0:0:
67,168,192615,6,0,P|103:182|136:206,1,80.9999975280763,10|0,0:0|0:0,0:0:0:0:
348,95,192852,2,0,P|272:66|205:22,1,161.999995056153,2|8,3:2|0:0,0:0:0:0:
62,312,193324,5,2,3:2:0:0:
97,381,193443,1,2,0:0:0:0:
166,345,193560,2,0,B|197:318|197:318|187:279,1,80.9999975280763,10|0,0:0|0:0,0:0:0:0:
29,170,193797,2,0,B|-3:196|-3:196|7:235,1,80.9999975280763,2|0,0:0|0:0,0:0:0:0:
166,345,194033,2,0,B|175:306|175:306|144:279,1,80.9999975280763,10|0,1:2|0:0,0:0:0:0:
348,95,194269,6,0,P|272:66|204:21,1,161.999995056153,2|0,0:0|3:0,0:0:0:0:
473,153,194742,6,0,P|487:116|511:83,1,80.9999975280763,10|0,0:0|0:0,0:0:0:0:
345,238,194978,2,0,P|329:200|305:168,1,80.9999975280763,14|0,1:2|0:0,0:0:0:0:
465,170,195214,2,0,P|441:137|425:100,1,80.9999975280763,2|0,0:0|0:0,0:0:0:0:
325,341,195450,6,0,P|394:317|424:384,1,161.999995056153,14|2,0:0|0:0,0:0:0:0:
193,208,195923,2,0,B|185:232|163:243|163:243|161:275|178:302|178:302|171:326|145:342,1,161.999995056153,10|2,1:2|0:0,0:0:0:0:
130,350,196277,1,8,0:0:0:0:
251,270,196395,6,0,P|286:288|325:299,1,80.9999975280763,2|0,3:2|0:0,0:0:0:0:
121,175,196631,1,2,1:2:0:0:
155,105,196749,1,0,1:0:0:0:
188,35,196867,6,0,P|149:24|113:5,1,80.9999975280763,10|0,1:2|0:0,0:0:0:0:
263,139,197104,6,0,L|287:107,1,40.4999987640381,10|0,1:2|0:0,0:0:0:0:
84,267,197576,6,0,L|59:235,1,40.4999987640381,10|0,1:2|0:0,0:0:0:0:
285,359,198049,6,0,B|253:296|318:253|334:283|402:231|366:171,1,233.999989288331,10|0,1:2|3:0,0:0:0:0:
253,80,198757,5,2,3:2:0:0:
354,159,198993,1,0,3:0:0:0:
234,208,199230,1,6,3:2:0:0:
97,44,206789,6,0,P|136:64|180:73,1,90,6|2,3:2|3:2,0:0:0:0:
194,71,207143,1,0,3:0:0:0:
206,65,207261,1,2,1:2:0:0:
365,184,207497,5,2,3:2:0:0:
365,184,207616,2,0,P|343:188|323:198,1,45,2|0,3:2|3:0,0:0:0:0:
382,15,207970,2,0,P|401:25|423:29,1,45,2|0,3:2|3:0,0:0:0:0:
423,29,208206,1,0,1:0:0:0:
230,137,208442,5,2,3:2:0:0:
230,137,208560,1,0,3:0:0:0:
230,137,208679,2,0,P|237:94|206:64,1,90,2|2,3:2|3:2,0:0:0:0:
194,70,209033,1,0,3:0:0:0:
188,82,209151,1,2,1:2:0:0:
365,184,209387,5,2,3:2:0:0:
365,184,209505,2,0,L|379:142,1,45,0|0,3:0|3:0,0:0:0:0:
239,274,209860,1,2,3:2:0:0:
239,274,209978,2,0,L|253:316,1,45,0|0,3:0|1:0,0:0:0:0:
479,384,210332,5,2,3:2:0:0:
479,384,210450,1,0,3:0:0:0:
479,384,210568,2,0,P|459:345|450:301,1,90,2|0,3:2|3:0,0:0:0:0:
457,288,210923,1,0,3:0:0:0:
469,283,211041,1,2,1:2:0:0:
258,179,211277,5,2,3:2:0:0:
258,179,211395,1,0,3:0:0:0:
258,179,211513,2,0,P|256:156|249:135,1,45,2|0,3:2|0:0,0:0:0:0:
425,218,211749,2,0,P|406:230|391:247,1,45,2|0,3:2|0:0,0:0:0:0:
375,53,211986,2,0,P|394:63|417:67,1,45,2|0,1:2|0:0,0:0:0:0:
258,179,212222,6,0,L|221:163,1,40.4999987640381,10|0,1:2|0:0,0:0:0:0:
468,11,212694,6,0,L|505:27,1,40.4999987640381,10|0,1:2|0:0,0:0:0:0:
251,190,213167,6,0,L|214:174,1,40.4999987640381,10|0,1:2|0:0,0:0:0:0:
512,16,213639,6,0,P|518:58|484:85,1,90,14|0,0:0|0:0,0:0:0:0:
290,272,213875,6,0,B|299:242|322:234|322:234|288:171|266:100,1,198.000006042481,14|2,1:2|0:0,0:0:0:0:
200,55,214230,1,2,0:0:0:0:
398,145,214348,6,0,B|338:106|283:162|310:183|257:241|189:200,1,242.999992584229,14|0,0:0|0:0,0:0:0:0:
278,16,214820,2,0,P|311:38|350:50,1,80.9999975280763,10|0,1:2|0:0,0:0:0:0:
473,247,215057,5,2,0:0:0:0:
406,285,215175,1,2,3:2:0:0:
367,220,215293,2,0,L|398:146,1,80.9999975280763,10|0,0:0|0:0,0:0:0:0:
149,0,215529,2,0,P|82:34|103:106,1,161.999995056153,2|8,3:2|1:2,0:0:0:0:
411,1,216001,5,2,3:2:0:0:
350,50,216120,1,2,0:0:0:0:
289,99,216238,2,0,P|256:77|256:39,1,80.9999975280763,10|0,0:0|0:0,0:0:0:0:
351,206,216474,2,0,P|348:244|315:264,1,80.9999975280763,2|0,0:0|0:0,0:0:0:0:
413,99,216710,2,0,P|447:81|481:100,1,80.9999975280763,10|0,1:2|0:0,0:0:0:0:
271,196,216946,5,2,0:0:0:0:
210,145,217064,1,2,3:2:0:0:
237,72,217183,1,10,0:0:0:0:
237,72,217301,1,2,0:0:0:0:
201,157,217419,2,0,L|127:126,1,80.9999975280763,2|0,3:2|0:0,0:0:0:0:
363,0,217655,6,0,B|344:41|379:79|394:60|431:95|411:139,1,161.999995056153,10|2,1:2|3:2,0:0:0:0:
374,208,218009,1,2,0:0:0:0:
237,72,218127,6,0,P|259:38|271:0,1,80.9999975280763,10|0,0:0|0:0,0:0:0:0:
469,48,218364,2,0,P|391:67|322:108,1,161.999995056153,2|8,0:0|1:2,0:0:0:0:
310,120,218718,1,2,0:0:0:0:
112,16,218836,6,0,B|120:36|139:47|139:47|110:98|92:157,1,161.999995056153,2|8,3:2|0:0,0:0:0:0:
263,243,219190,1,2,0:0:0:0:
212,305,219308,2,0,P|193:268|183:229,1,80.9999975280763,2|0,3:2|0:0,0:0:0:0:
271,0,219545,6,0,P|309:-4|334:25,1,80.9999975280763,10|0,1:2|0:0,0:0:0:0:
175,133,219781,2,0,P|136:136|112:106,1,80.9999975280763,2|0,3:2|0:0,0:0:0:0:
338,224,220017,6,0,B|311:238|303:262|303:262|318:290|314:322|314:322|292:332|283:356,2,161.999995056153,10|2|10,0:0|3:2|1:2,0:0:0:0:
112,106,220726,5,2,3:2:0:0:
183,72,220844,1,2,1:2:0:0:
217,142,220962,2,0,P|192:175|177:212,1,80.9999975280763,10|0,0:0|0:0,0:0:0:0:
50,351,221198,5,2,3:2:0:0:
1,263,221316,1,2,0:0:0:0:
58,365,221434,6,0,P|78:286|157:303,1,180,10|2,1:2|3:2,0:0:0:0:
136,381,221789,1,2,0:0:0:0:
272,247,221907,6,0,P|284:304|233:332,1,125.999996154785,6|0,3:2|3:0,0:0:0:0:
37,161,222379,1,10,0:0:0:0:
178,16,222616,1,2,0:0:0:0:
123,75,222734,6,0,P|98:55|70:41,1,62.9999980773926,8|0,0:0|0:0,0:0:0:0:
135,156,222970,1,8,0:0:0:0:
125,176,223088,1,2,3:2:0:0:
342,37,223324,1,10,0:0:0:0:
271,218,223560,5,2,0:0:0:0:
226,156,223679,1,2,0:0:0:0:
262,232,223797,1,2,3:2:0:0:
59,339,224033,2,0,P|11:306|31:250,1,125.999996154785,2|8,3:2|0:0,0:0:0:0:
233,349,224505,5,2,0:0:0:0:
189,382,224623,1,10,0:0:0:0:
239,361,224742,5,2,0:0:0:0:
185,373,224860,1,0,3:0:0:0:
239,372,224978,5,2,3:2:0:0:
184,361,225095,1,2,0:0:0:0:
211,366,225214,5,14,0:0:0:0:
340,219,225450,1,2,0:0:0:0:
295,157,225569,1,2,3:2:0:0:
331,233,225687,5,6,3:2:0:0:
164,138,225923,2,0,P|184:114|196:84,1,62.9999980773926,2|0,1:2|0:0,0:0:0:0:
256,270,226159,5,10,0:0:0:0:
417,31,226395,2,0,P|387:19|363:0,1,62.9999980773926,2|0,3:2|0:0,0:0:0:0:
512,130,226631,5,10,0:0:0:0:
479,201,226750,1,8,0:0:0:0:
408,169,226867,1,2,3:2:0:0:
196,85,227104,5,2,3:2:0:0:
196,85,227222,1,0,3:0:0:0:
258,18,227340,6,0,L|335:248,1,242.999992584229,6|0,3:2|0:0,0:0:0:0:
415,286,228521,6,0,B|337:235|274:311|308:333|254:410|181:365,1,283.499991348267,2|0,0:0|0:0,0:0:0:0:
256,192,229466,12,0,232419,0:0:0:0:
56,86,232537,5,2,3:2:0:0:
91,129,232655,1,0,3:0:0:0:
140,104,232773,2,0,P|169:94|191:113,1,62.9999980773926,14|0,0:0|0:0,0:0:0:0:
63,220,233009,2,0,P|39:239|11:229,1,62.9999980773926,2|0,3:2|0:0,0:0:0:0:
220,384,233246,6,0,P|169:288|146:183,1,216,6|0,1:2|0:0,0:0:0:0:
72,321,233718,2,0,P|93:253|131:192,1,144,10|2,0:0|0:0,0:0:0:0:
146,184,234072,1,0,0:0:0:0:
56,86,234190,1,10,0:0:0:0:
305,0,234427,6,0,P|316:33|334:65,1,72,2|0,3:2|0:0,0:0:0:0:
227,186,234663,2,0,P|215:152|197:120,1,72,10|0,0:0|0:0,0:0:0:0:
382,204,234899,5,2,3:2:0:0:
403,272,235017,1,0,0:0:0:0:
338,302,235135,2,0,P|252:276|271:363,1,216,2|0,1:2|0:0,0:0:0:0:
382,204,235608,1,8,0:0:0:0:
168,56,235844,5,2,0:0:0:0:
198,121,235962,1,2,0:0:0:0:
260,85,236080,2,0,P|271:51|290:20,1,72,8|0,0:0|0:0,0:0:0:0:
140,194,236316,2,0,P|117:127|75:68,1,144,2|10,3:2|0:0,0:0:0:0:
319,256,236789,5,2,3:2:0:0:
284,317,236907,1,0,0:0:0:0:
224,280,237025,2,0,B|184:246|122:276|118:333|118:333|154:319|185:339,1,216,2|0,1:2|0:0,0:0:0:0:
319,256,237497,2,0,P|338:192|279:162,1,144,10|2,0:0|0:0,0:0:0:0:
271,174,237852,1,0,0:0:0:0:
166,97,237970,1,10,0:0:0:0:
382,0,238206,6,0,P|408:22|401:56,1,72,2|0,3:2|0:0,0:0:0:0:
279,162,238442,2,0,P|272:129|298:106,1,72,10|0,0:0|0:0,0:0:0:0:
458,277,238679,5,2,3:2:0:0:
494,215,238797,1,2,0:0:0:0:
435,175,238915,2,0,B|375:144|334:199|359:216|315:271|255:240,1,216,2|0,1:2|0:0,0:0:0:0:
95,132,239387,1,10,0:0:0:0:
264,354,239623,5,2,3:2:0:0:
198,384,239742,1,2,0:0:0:0:
174,317,239860,1,10,0:0:0:0:
174,317,239978,1,8,0:0:0:0:
264,354,240096,2,0,P|283:285|322:224,1,144,2|12,3:2|0:0,0:0:0:0:
109,27,240568,5,2,3:2:0:0:
171,61,240687,1,2,0:0:0:0:
206,0,240805,2,0,P|299:31|270:123,1,216,6|0,1:2|0:0,0:0:0:0:
139,218,241277,1,10,0:0:0:0:
362,351,241513,5,2,0:0:0:0:
299,384,241631,1,0,0:0:0:0:
271,319,241749,2,0,L|299:253,1,72,10|0,0:0|0:0,0:0:0:0:
478,175,241986,2,0,P|410:150|351:109,1,144,2|8,3:2|0:0,0:0:0:0:
138,0,242458,5,2,3:2:0:0:
103,60,242576,1,2,0:0:0:0:
68,121,242694,2,0,P|38:100|5:86,1,72,10|0,0:0|0:0,0:0:0:0:
197,52,242930,2,0,P|226:72|259:86,1,72,2|0,3:2|0:0,0:0:0:0:
68,121,243167,6,0,P|32:127|0:141,1,72,10|0,0:0|0:0,0:0:0:0:
197,52,243403,2,0,P|232:45|265:31,1,72,2|0,3:2|0:0,0:0:0:0:
220,252,243639,5,10,0:0:0:0:
162,207,243757,1,2,0:0:0:0:
159,137,243875,1,2,3:2:0:0:
378,288,244112,2,0,P|357:317|342:350,1,72,10|0,0:0|0:0,0:0:0:0:
376,162,244348,5,2,3:2:0:0:
444,147,244466,1,2,0:0:0:0:
475,210,244584,1,10,0:0:0:0:
291,280,244820,1,0,3:0:0:0:
512,97,245056,6,0,P|479:82|450:61,1,72,14|0,0:0|0:0,0:0:0:0:
243,151,245293,1,2,3:2:0:0:
261,160,245411,1,0,3:0:0:0:
280,171,245529,5,10,0:0:0:0:
330,123,245647,1,0,1:0:0:0:
337,53,245765,1,2,1:2:0:0:
293,0,245883,1,0,1:0:0:0:
223,1,246001,1,10,0:0:0:0:
395,235,246238,6,0,L|427:219,1,36,10|0,1:2|0:0,0:0:0:0:
388,225,246710,6,0,L|420:209,1,36,10|0,1:2|0:0,0:0:0:0:
381,215,247182,6,0,L|413:199,3,36,10|2|2|2,1:2|0:0|0:0|0:0,0:0:0:0:
179,384,247655,6,0,L|148:320,1,72,14|0,0:0|0:0,0:0:0:0:
381,215,247891,2,0,P|421:284|356:331,1,175.499991966248,14|0,0:0|0:0,0:0:0:0:
344,322,248364,6,0,P|275:279|197:255,1,161.999995056153,2|2,3:2|3:2,0:0:0:0:
94,341,249072,1,2,0:0:0:0:
94,341,249190,2,0,P|146:255|176:158,1,202.499993820191,2|0,0:0|3:0,0:0:0:0:
115,81,250017,1,2,0:0:0:0:
255,0,250253,6,0,P|266:38|287:73,1,80.9999975280763,2|2,3:2|0:0,0:0:0:0:
377,169,250726,2,0,P|338:180|303:201,1,80.9999975280763,2|0,3:2|0:0,0:0:0:0:
293,210,251080,2,0,P|208:196|228:279,1,202.499993820191,2|0,0:0|3:0,0:0:0:0:
310,333,251907,1,2,0:0:0:0:
157,384,252143,6,0,P|145:345|124:310,1,80.9999975280763,2|0,3:2|0:0,0:0:0:0:
8,251,252616,2,0,P|46:239|81:218,1,80.9999975280763,2|2,3:2|0:0,0:0:0:0:
93,212,252970,1,2,0:0:0:0:
105,204,253088,1,2,3:2:0:0:
211,128,253324,2,0,P|189:93|178:54,1,80.9999975280763,2|0,0:0|3:0,0:0:0:0:
92,16,253797,1,2,0:0:0:0:
32,172,254033,6,0,P|70:183|105:204,1,80.9999975280763,2|2,3:2|0:0,0:0:0:0:
211,128,254505,2,0,P|172:116|137:95,1,80.9999975280763,2|2,3:2|0:0,0:0:0:0:
126,89,254859,1,2,0:0:0:0:
114,81,254978,2,0,P|191:57|259:14,1,161.999995056153,2|0,3:2|3:0,0:0:0:0:
340,69,255686,1,2,0:0:0:0:
224,183,255923,6,0,P|257:250|331:233,1,161.999995056153,2|2,3:2|3:2,0:0:0:0:
214,172,256631,2,0,P|140:155|107:222,1,161.999995056153,2|2,0:0|0:0,0:0:0:0:
194,269,257340,1,0,3:0:0:0:
56,359,257576,5,2,0:0:0:0:
65,348,257694,1,2,0:0:0:0:
74,337,257812,2,0,P|55:279|23:228,1,121.499996292114,2|2,3:2|0:0,0:0:0:0:
15,215,258285,1,0,3:0:0:0:
107,121,258521,2,0,P|140:188|214:172,1,161.999995056153,2|2,0:0|0:0,0:0:0:0:
162,53,259230,2,0,P|201:52|225:84,1,80.9999975280763,2|0,3:2|0:0,0:0:0:0:
212,91,259584,1,2,0:0:0:0:
199,98,259702,6,0,L|181:107,2,20.2499993820191,2|2|2,0:0|0:0|0:0,0:0:0:0:
256,192,259938,12,0,265844,0:0:0:0:
