osu file format v14

[General]
AudioFilename: audio.mp3
AudioLeadIn: 0
PreviewTime: 47800
Countdown: 1
SampleSet: Soft
StackLeniency: 0.7
Mode: 2
LetterboxInBreaks: 0
WidescreenStoryboard: 1

[Editor]
DistanceSpacing: 1
BeatDivisor: 4
GridSize: 8
TimelineZoom: 1.8

[Metadata]
Title:Real World (TV ver.)
TitleUnicode:リアルワールド (TV ver.)
Artist:nano.RIPE
ArtistUnicode:nano.RIPE
Creator:IMkoley
Version:Accuracy Has Declined
Source:人類は衰退しました
Tags:Jinrui wa Suitai Shimashita op opening anime Humanity Has Declined
BeatmapID:1517723
BeatmapSetID:718211

[Difficulty]
HPDrainRate:5.4
CircleSize:4.4
OverallDifficulty:9.4
ApproachRate:9.4
SliderMultiplier:2.2
SliderTickRate:1

[Events]
//Background and Video events
0,0,"6ea22f41.jpg",0,0
//Break Periods
//Storyboard Layer 0 (Background)
//Storyboard Layer 1 (Fail)
//Storyboard Layer 2 (Pass)
//Storyboard Layer 3 (Foreground)
//Storyboard Sound Samples

[TimingPoints]
581,306.122448979592,4,2,1,100,1,0
4101,-66.6666666666667,4,2,1,100,0,0
4407,-100,4,2,1,100,0,0
5172,-83.3333333333333,4,2,1,100,0,0
5325,-100,4,2,1,100,0,0
7545,-100,4,2,1,100,0,0
9458,-100,4,2,1,100,0,0
13438,-100,4,2,1,100,0,0
13744,-100,4,2,1,100,0,0
17417,-100,4,2,1,100,0,0
17723,-100,4,2,1,100,0,0
18336,-100,4,2,1,100,0,0
18642,-100,4,2,1,100,0,0
19254,-100,4,2,1,100,0,0
28591,-100,4,2,1,100,0,0
29050,-100,4,2,1,100,0,0
29356,-100,4,2,1,100,0,0
35632,-100,4,2,1,100,0,0
35938,-100,4,2,1,100,0,0
42060,-100,4,2,1,100,0,0
42366,-100,4,2,1,100,0,0
42672,-100,4,2,1,100,0,0
42978,-100,4,2,1,100,0,0
43744,-100,4,2,1,100,0,0
44050,-100,4,2,1,100,0,0
44203,-100,4,2,1,100,0,0
44509,-100,4,2,1,100,0,0
45427,-81.3008130081301,4,2,1,100,0,0
45734,-100,4,2,1,100,0,0
52009,-86.9565217391306,4,2,1,100,0,0
52315,-100,4,2,1,100,0,0
52621,-66.6666666666667,4,2,1,100,0,0
52927,-100,4,2,1,100,0,0
53081,-100,4,2,1,100,0,0
53616,-100,4,2,1,100,0,0
62800,-83.3333333333333,4,2,0,100,0,0
63029,-100,4,2,1,100,0,0
72213,-95.2380952380952,4,2,1,100,0,0
72825,-100,4,2,1,100,0,0
73208,-100,4,2,1,100,0,0
75581,-83.3333333333333,4,2,1,100,0,0
75734,-100,4,2,1,100,0,0
79866,-90.9090909090909,4,2,1,100,0,0
80172,-100,4,2,1,100,0,0
80478,-100,4,2,1,100,0,0
81091,-100,4,2,1,100,0,0
81626,-100,4,2,1,100,0,0
81933,-100,4,2,1,100,0,0
86754,-100,4,2,1,100,0,0

[HitObjects]
416,240,581,5,8,0:0:0:0:
176,240,887,2,8,L|432:152,1,220
160,128,1346,1,0,0:0:0:0:
335,109,1652,1,2,0:0:0:0:
48,112,1958,1,0,0:0:0:0:
304,208,2264,1,2,0:0:0:0:
464,208,2417,1,2,0:0:0:0:
72,184,2723,6,8,B|184:176|184:176|64:184,1,220,8|8,0:0|0:0,0:0:0:0:
281,192,3336,1,8,0:0:0:0:
511,197,3489,1,0,0:0:0:0:
112,184,3795,1,0,0:0:0:0:
328,184,4101,2,0,B|168:144|168:144|320:56,1,330.000012588501,8|8,0:0|0:0,0:0:0:0:
104,88,4560,1,4,0:0:0:0:
408,224,4866,2,0,L|280:224,1,110,4|0,0:0|0:0,0:0:0:0:
88,264,5172,2,0,B|24:224|24:224|48:168,1,131.99999597168,12|0,0:0|0:0,0:0:0:0:
256,184,5478,1,0,0:0:0:0:
103,157,5632,2,0,B|88:112|88:112|168:72,1,110,12|0,0:0|0:0,0:0:0:0:
392,16,5938,2,8,P|308:50|400:96,1,220,8|12,0:0|0:0,0:0:0:0:
12,277,6550,2,8,L|48:320,1,55,8|0,0:0|0:0,0:0:0:0:
288,352,6703,2,0,L|192:272,1,110,8|0,0:0|0:0,0:0:0:0:
424,288,7009,1,4,0:0:0:0:
144,272,7315,5,0,0:0:0:0:
320,192,7545,1,8,0:0:0:0:
349,145,7621,1,8,0:0:0:0:
140,192,7698,1,8,0:0:0:0:
83,157,7774,1,8,0:0:0:0:
99,93,7851,1,8,0:0:0:0:
163,77,7927,1,8,0:0:0:0:
497,106,8004,1,12,0:0:0:0:
256,192,8157,12,0,9305,0:0:0:0:
320,184,9458,6,0,L|88:128,1,220,0|8,0:0|0:0,0:0:0:0:
232,96,9917,1,0,0:0:0:0:
360,120,10070,2,0,L|128:144,1,220,0|8,0:0|0:0,0:0:0:0:
360,120,10529,2,0,L|480:304,1,220,0|8,0:0|0:0,0:0:0:0:
192,248,10989,1,0,0:0:0:0:
360,120,11142,6,0,P|240:80|128:144,1,220,0|8,0:0|0:0,0:0:0:0:
368,160,11601,2,0,L|144:160,1,220,8|0,0:0|0:0,0:0:0:0:
352,192,12060,1,0,0:0:0:0:
240,192,12213,1,8,0:0:0:0:
464,144,12366,2,0,L|336:112,1,110,0|8,0:0|0:0,0:0:0:0:
144,112,12672,6,0,L|32:112,1,110,0|8,0:0|0:0,0:0:0:0:
304,96,12978,2,0,P|394:102|324:193,1,220,8|0,0:0|0:0,0:0:0:0:
139,248,13438,1,8,0:0:0:0:
88,232,13514,1,8,0:0:0:0:
56,192,13591,1,8,0:0:0:0:
32,144,13667,1,8,0:0:0:0:
352,128,13744,2,0,L|160:128,1,165
408,200,14050,1,8,0:0:0:0:
192,144,14356,6,0,L|411:122,1,220,0|8,0:0|0:0,0:0:0:0:
144,112,14968,1,0,0:0:0:0:
32,112,15121,1,0,0:0:0:0:
360,120,15274,2,0,L|208:112,1,110,8|0,0:0|0:0,0:0:0:0:
512,120,15581,2,0,L|384:160,1,110
136,208,15887,2,0,L|282:177,1,110,8|0,0:0|0:0,0:0:0:0:
24,112,16193,5,0,0:0:0:0:
144,88,16346,1,0,0:0:0:0:
400,96,16499,1,8,0:0:0:0:
288,144,16652,1,0,0:0:0:0:
400,192,16806,5,0,0:0:0:0:
144,232,16959,1,0,0:0:0:0:
32,224,17112,1,8,0:0:0:0:
304,192,17265,1,0,0:0:0:0:
496,128,17417,6,0,L|264:152,1,220,0|8,0:0|0:0,0:0:0:0:
496,192,17876,1,0,0:0:0:0:
240,144,18183,1,0,0:0:0:0:
16,160,18336,2,0,P|176:144|234:137,1,220,8|8,0:0|0:0,0:0:0:0:
352,176,18795,5,8,0:0:0:0:
424,160,18871,1,8,0:0:0:0:
496,136,18948,1,8,0:0:0:0:
354,135,19024,1,8,0:0:0:0:
264,128,19101,1,8,0:0:0:0:
208,64,19177,1,8,0:0:0:0:
448,224,19254,1,12,0:0:0:0:
224,224,19560,5,8,0:0:0:0:
448,208,19713,2,0,L|560:208,1,110,8|4,0:0|0:0,0:0:0:0:
144,304,20172,2,0,P|36:266|96:208,1,220,4|12,0:0|0:0,0:0:0:0:
352,272,20785,1,8,0:0:0:0:
128,272,20938,1,4,0:0:0:0:
360,224,21244,1,0,0:0:0:0:
24,56,21397,2,0,P|134:79|70:167,1,220,8|10,0:0|0:0,0:0:0:0:
312,256,22009,5,8,0:0:0:0:
416,256,22162,1,0,0:0:0:0:
192,240,22315,1,4,0:0:0:0:
416,224,22468,1,0,0:0:0:0:
192,144,22621,2,0,L|93:193,1,110,8|0,0:0|0:0,0:0:0:0:
432,176,22927,2,0,P|384:48|312:64,1,220,12|0,0:0|0:0,0:0:0:0:
112,88,23387,2,0,P|8:104|56:160,1,220,12|0,0:0|0:0,0:0:0:0:
256,160,23846,2,0,P|325:200|231:266,1,220,8|4,0:0|0:0,0:0:0:0:
336,288,24458,5,8,0:0:0:0:
512,256,24611,1,0,0:0:0:0:
256,160,24764,2,0,P|336:160|435:270,1,220,4|8,0:0|0:0,0:0:0:0:
0,160,25376,2,4,P|80:200|224:184,1,220,4|12,0:0|0:0,0:0:0:0:
512,112,25836,5,0,0:0:0:0:
400,152,25989,1,2,0:0:0:0:
128,160,26142,1,0,0:0:0:0:
24,96,26295,1,10,0:0:0:0:
472,128,26601,6,0,P|352:120|328:216,2,220,4|8|4,0:0|0:0|0:0,0:0:0:0:
0,192,27519,2,0,P|100:151|224:160,1,220,8|0,0:0|0:0,0:0:0:0:
512,128,28132,2,0,L|400:128,1,110,8|0,0:0|0:0,0:0:0:0:
160,176,28438,1,0,0:0:0:0:
400,128,28591,1,8,0:0:0:0:
448,96,28667,1,8,0:0:0:0:
496,56,28744,1,8,0:0:0:0:
272,96,28897,5,0,0:0:0:0:
120,208,29050,2,0,B|-8:208|-8:208|104:208,1,220,4|8,0:0|0:0,0:0:0:0:
256,152,29509,1,0,0:0:0:0:
432,160,29662,2,8,L|528:96,1,110,0|8,0:0|0:0,0:0:0:0:
340,89,29968,2,0,L|256:160,1,110,8|0,0:0|0:0,0:0:0:0:
32,112,30274,2,0,P|152:160|184:80,1,220,10|8,0:0|0:0,0:0:0:0:
400,56,30734,2,0,B|328:96|281:71|281:71|240:40|168:48,1,220,0|0,0:0|0:0,0:0:0:0:
400,128,31193,1,8,0:0:0:0:
176,216,31499,5,4,0:0:0:0:
384,232,31805,1,8,0:0:0:0:
72,176,32111,1,4,0:0:0:0:
345,146,32417,2,0,L|224:144,1,110,8|0,0:0|0:0,0:0:0:0:
448,224,32723,2,8,B|537:153|537:153|416:112,1,220,8|8,0:0|0:0,0:0:0:0:
224,48,33183,5,12,0:0:0:0:
191,121,33259,1,8,0:0:0:0:
105,121,33336,1,8,0:0:0:0:
320,176,33489,1,8,0:0:0:0:
400,128,33565,1,8,0:0:0:0:
245,131,33642,2,0,L|304:32,1,110,8|0,0:0|0:0,0:0:0:0:
80,64,33948,6,0,P|49:108|160:208,1,220,8|4,0:0|0:0,0:0:0:0:
352,144,34407,1,0,0:0:0:0:
192,96,34560,2,0,L|86:65,1,110,12|0,0:0|0:0,0:0:0:0:
352,224,34866,2,0,L|224:192,1,110,8|4,0:0|0:0,0:0:0:0:
0,224,35172,2,0,L|256:208,1,220,0|12,0:0|0:0,0:0:0:0:
496,80,35632,2,0,P|416:128|336:272,1,220,4|8,0:0|0:0,0:0:0:0:
112,208,36091,5,0,0:0:0:0:
224,272,36244,1,0,0:0:0:0:
448,208,36397,1,8,0:0:0:0:
176,176,36703,1,0,0:0:0:0:
448,176,37009,1,8,0:0:0:0:
176,224,37315,1,0,0:0:0:0:
480,224,37621,1,0,0:0:0:0:
288,144,37927,5,8,0:0:0:0:
160,112,38081,1,0,0:0:0:0:
288,112,38234,1,0,0:0:0:0:
0,144,38540,1,0,0:0:0:0:
360,232,38846,2,0,P|424:144|344:120,1,220,8|0,0:0|0:0,0:0:0:0:
128,200,39305,2,0,P|48:88|112:64,1,220,8|0,0:0|0:0,0:0:0:0:
216,48,39764,1,0,0:0:0:0:
384,80,39917,6,0,L|312:144,1,55,8|0,0:0|0:0,0:0:0:0:
144,144,40070,2,0,P|112:208|192:336,1,220,8|0,0:0|0:0,0:0:0:0:
400,239,40529,2,0,L|136:207,1,220,8|0,0:0|0:0,0:0:0:0:
416,136,40989,1,8,0:0:0:0:
320,144,41142,1,0,0:0:0:0:
80,192,41295,2,8,L|192:136,1,110,12|8,0:0|0:0,0:0:0:0:
64,136,41601,1,0,0:0:0:0:
376,168,41754,6,0,L|264:112,1,110,0|0,0:0|0:0,0:0:0:0:
32,184,42060,2,8,P|122:149|35:119,1,220,8|12,0:0|0:0,0:0:0:0:
512,192,42672,2,0,P|416:160|480:96,1,220,0|4,0:0|0:0,0:0:0:0:
16,152,43285,1,0,0:0:0:0:
288,192,43438,1,12,0:0:0:0:
72,248,43744,2,0,P|16:168|112:120,1,220,8|0,0:0|0:0,0:0:0:0:
320,240,44203,6,0,P|360:136|280:112,1,220,12|0,0:0|0:0,0:0:0:0:
32,144,44662,1,8,0:0:0:0:
144,152,44815,1,4,0:0:0:0:
352,64,44968,1,0,0:0:0:0:
82,239,45121,6,0,L|192:160,1,110,12|0,0:0|0:0,0:0:0:0:
424,261,45427,2,0,P|327:210|409:113,1,270.600004129028,0|12,0:0|0:0,0:0:0:0:
144,112,45887,1,0,0:0:0:0:
32,112,46040,1,0,0:0:0:0:
256,80,46193,6,0,L|431:215,1,220,12|0,0:0|0:0,0:0:0:0:
264,264,46652,2,0,L|89:129,1,220,4|8,0:0|0:0,0:0:0:0:
336,128,47111,1,12,0:0:0:0:
0,112,47264,1,12,0:0:0:0:
144,144,47570,1,12,0:0:0:0:
384,144,47723,1,12,0:0:0:0:
16,128,48029,5,0,0:0:0:0:
256,144,48183,1,0,0:0:0:0:
144,176,48336,1,0,0:0:0:0:
16,128,48489,1,0,0:0:0:0:
432,256,48642,2,8,L|232:128,1,220,12|8,0:0|0:0,0:0:0:0:
432,128,49101,1,0,0:0:0:0:
80,256,49254,2,0,L|280:128,1,220,12|0,0:0|0:0,0:0:0:0:
416,64,49713,5,0,0:0:0:0:
304,64,49866,1,0,0:0:0:0:
80,256,50019,2,0,L|-16:48,1,220,12|0,0:0|0:0,0:0:0:0:
304,176,50478,2,0,L|104:48,1,220,8|4,0:0|0:0,0:0:0:0:
312,80,50938,1,0,0:0:0:0:
64,248,51090,2,0,L|-48:192,1,110,12|0,0:0|0:0,0:0:0:0:
248,192,51397,2,0,B|248:144|248:144|216:80,1,110,8|0,0:0|0:0,0:0:0:0:
432,368,51703,6,0,L|512:256,1,110,12|0,0:0|0:0,0:0:0:0:
248,192,52009,2,0,B|144:80|144:80,1,126.500002412796,12|0,0:0|0:0,0:0:0:0:
274,192,52315,2,0,B|132:117|132:117,1,126.500002412796,12|0,0:0|0:0,0:0:0:0:
394,224,52621,2,0,B|523:179|523:179|448:88|355:107,1,330.000012588501,12|4,0:0|0:0,0:0:0:0:
12,174,53081,1,8,0:0:0:0:
55,141,53157,1,8,0:0:0:0:
101,110,53234,1,8,0:0:0:0:
416,192,53387,5,8,0:0:0:0:
360,216,53463,1,8,0:0:0:0:
144,264,53540,2,8,B|-16:176|0:64|144:32,1,330,12|8,0:0|0:0,0:0:0:0:
352,64,54152,2,0,B|192:24|192:24|88:40,1,220,0|8,0:0|0:0,0:0:0:0:
246,109,54611,1,0,0:0:0:0:
16,264,54764,6,0,L|232:168,1,220,4|8,0:0|0:0,0:0:0:0:
424,112,55223,1,0,0:0:0:0:
104,56,55376,2,0,L|240:56,1,110,4|8,0:0|0:0,0:0:0:0:
104,120,55683,1,0,0:0:0:0:
0,128,55836,1,0,0:0:0:0:
361,57,55989,2,0,L|176:176,1,220,4|8,0:0|0:0,0:0:0:0:
392,224,56448,6,0,P|464:136|392:72,1,220,4|8,0:0|0:0,0:0:0:0:
256,96,56831,1,8,0:0:0:0:
240,144,56907,1,12,0:0:0:0:
224,192,56984,1,12,0:0:0:0:
50,144,57060,2,0,L|162:143,1,110,12|0,0:0|0:0,0:0:0:0:
56,272,57366,2,0,L|192:200,1,110,4|8,0:0|0:0,0:0:0:0:
392,224,57672,6,0,L|192:240,1,165,4|8,0:0|0:0,0:0:0:0:
80,176,57978,1,8,0:0:0:0:
32,240,58055,1,8,0:0:0:0:
88,304,58132,1,8,0:0:0:0:
360,304,58285,1,0,0:0:0:0:
80,224,58438,6,0,L|272:80,1,220,12|0,0:0|0:0,0:0:0:0:
488,184,58897,1,8,0:0:0:0:
256,152,59050,2,0,L|64:8,1,220,4|8,0:0|0:0,0:0:0:0:
336,136,59509,1,0,0:0:0:0:
112,120,59662,1,0,0:0:0:0:
9,169,59815,2,0,L|112:208,1,110,12|0,0:0|0:0,0:0:0:0:
377,254,60121,6,0,L|192:136,1,220,12|0,0:0|0:0,0:0:0:0:
400,104,60581,1,4,0:0:0:0:
192,192,60734,1,0,0:0:0:0:
400,192,60887,2,0,L|240:176,1,110,12|0,0:0|0:0,0:0:0:0:
400,176,61193,2,0,L|288:176,1,110,8|0,0:0|0:0,0:0:0:0:
48,192,61499,2,0,L|136:312,1,110,12|0,0:0|0:0,0:0:0:0:
320,208,61805,2,0,L|216:112,1,110,12|0,0:0|0:0,0:0:0:0:
496,160,62111,6,0,L|386:160,1,110,12|0,0:0|0:0,0:0:0:0:
126,168,62417,2,0,P|27:100|86:49,1,220,0|12,0:0|0:0,0:0:0:0:
480,96,63029,2,0,L|272:96,1,197.99999395752,4|8,0:0|0:0,0:0:0:0:
128,96,63336,1,12,0:0:0:0:
48,240,63642,1,0,0:0:0:0:
256,240,63795,2,0,L|368:240,1,110,12|0,0:0|0:0,0:0:0:0:
144,192,64101,5,0,0:0:0:0:
0,192,64254,1,0,0:0:0:0:
368,112,64407,1,12,0:0:0:0:
128,288,64713,1,0,0:0:0:0:
384,184,64866,1,0,0:0:0:0:
512,112,65019,1,12,0:0:0:0:
400,24,65172,1,0,0:0:0:0:
128,96,65325,1,0,0:0:0:0:
256,160,65632,5,8,0:0:0:0:
16,176,65785,1,4,0:0:0:0:
242,262,66091,2,0,L|288:192,1,55,8|0,0:0|0:0,0:0:0:0:
456,256,66244,2,0,L|408:136,1,110,4|8,0:0|0:0,0:0:0:0:
112,56,66550,1,0,0:0:0:0:
321,88,66703,1,0,0:0:0:0:
112,136,66856,1,12,0:0:0:0:
320,192,67162,5,0,0:0:0:0:
432,240,67315,1,8,0:0:0:0:
320,288,67468,1,4,0:0:0:0:
112,144,67621,1,4,0:0:0:0:
0,144,67773,1,0,0:0:0:0:
304,96,67927,1,0,0:0:0:0:
192,96,68080,1,0,0:0:0:0:
416,224,68234,2,8,L|272:272,1,110,12|0,0:0|0:0,0:0:0:0:
96,256,68540,5,0,0:0:0:0:
337,134,68693,2,0,L|256:208,1,110,0|8,0:0|0:0,0:0:0:0:
496,144,68999,2,0,L|416:240,1,110
0,256,69305,1,0,0:0:0:0:
96,208,69458,1,12,0:0:0:0:
320,224,69611,1,0,0:0:0:0:
224,160,69764,1,0,0:0:0:0:
432,192,69917,2,0,L|550:95,1,110,4|8,0:0|0:0,0:0:0:0:
80,192,70376,5,0,0:0:0:0:
0,128,70529,1,4,0:0:0:0:
400,272,70683,2,0,L|544:272,1,110,12|0,0:0|0:0,0:0:0:0:
189,323,70989,2,0,L|52:307,1,110,8|0,0:0|0:0,0:0:0:0:
400,336,71295,2,0,L|536:304,1,110,12|0,0:0|0:0,0:0:0:0:
264,176,71601,2,0,L|280:288,1,110,12|0,0:0|0:0,0:0:0:0:
32,272,71907,2,0,L|128:144,1,110,12|0,0:0|0:0,0:0:0:0:
320,272,72213,2,0,L|461:272,1,115.49999647522,12|0,0:0|0:0,0:0:0:0:
229,26,72519,6,0,B|169:53|98:119,1,115.49999647522,12|4,0:0|0:0,0:0:0:0:
298,110,72749,1,0,0:0:0:0:
342,156,72825,1,0,0:0:0:0:
196,181,72902,1,8,0:0:0:0:
201,235,72979,1,8,0:0:0:0:
251,264,73055,1,8,0:0:0:0:
428,136,73132,6,8,P|376:104|224:48,1,220,12|8,0:0|0:0,0:0:0:0:
400,112,73591,1,0,0:0:0:0:
192,35,73744,2,0,P|112:80|72:240,1,220,4|12,0:0|0:0,0:0:0:0:
304,128,74203,1,0,0:0:0:0:
96,208,74356,2,0,L|296:80,1,220,4|8,0:0|0:0,0:0:0:0:
416,128,74815,1,0,0:0:0:0:
136,248,74968,5,4,0:0:0:0:
32,240,75121,1,0,0:0:0:0:
352,280,75274,1,8,0:0:0:0:
464,288,75427,1,4,0:0:0:0:
245,51,75581,6,0,B|344:40|344:40|400:48,1,131.99999597168,4|0,0:0|0:0,0:0:0:0:
341,64,75810,1,2,0:0:0:0:
200,120,75887,2,4,P|96:152|136:240,1,220,8|0,0:0|0:0,0:0:0:0:
368,240,76346,2,0,L|496:208,1,110,12|0,0:0|0:0,0:0:0:0:
266,51,76652,2,0,L|240:232,1,165,12|0,0:0|0:0,0:0:0:0:
96,200,76958,2,0,L|140:300,1,110,4|8,0:0|0:0,0:0:0:0:
496,288,77264,2,0,P|432:256|384:176,1,165,4|0,0:0|0:0,0:0:0:0:
208,176,77570,5,8,0:0:0:0:
152,160,77646,1,8,0:0:0:0:
104,128,77723,1,8,0:0:0:0:
248,112,77799,1,8,0:0:0:0:
304,96,77876,1,8,0:0:0:0:
96,152,78029,6,0,L|30:240,1,110,12|0,0:0|0:0,0:0:0:0:
384,288,78336,2,0,L|256:288,1,110,8|0,0:0|0:0,0:0:0:0:
24,216,78642,2,0,L|176:208,1,110,8|0,0:0|0:0,0:0:0:0:
440,231,78948,2,0,P|379:200|336:192,1,110,8|4,0:0|0:0,0:0:0:0:
128,96,79254,2,0,L|22:127,1,110,8|2,0:0|0:0,0:0:0:0:
280,112,79560,6,0,L|120:96,1,110,8|4,0:0|0:0,0:0:0:0:
384,112,79866,2,0,B|511:224|511:224|516:299,1,242.000007385254,0|12,0:0|0:0,0:0:0:0:
390,298,80325,1,2,0:0:0:0:
144,176,80478,2,0,P|237:139|384:160,1,220,4|8,0:0|0:0,0:0:0:0:
64,232,81091,5,12,0:0:0:0:
0,192,81167,1,0,0:0:0:0:
16,128,81244,1,0,0:0:0:0:
80,160,81320,1,0,0:0:0:0:
272,272,81397,1,12,0:0:0:0:
272,216,81473,1,0,0:0:0:0:
230,175,81550,1,0,0:0:0:0:
464,304,81703,2,0,P|368:272|336:192,1,165,10|0,0:0|0:0,0:0:0:0:
488,152,82009,2,0,L|360:160,1,110,12|0,0:0|0:0,0:0:0:0:
168,224,82315,6,0,L|280:224,1,110,0|8,0:0|0:0,0:0:0:0:
488,128,82621,2,8,L|392:64,1,110,4|0,0:0|0:0,0:0:0:0:
188,8,82927,2,0,P|122:75|4:145,1,220,4|8,0:0|0:0,0:0:0:0:
256,176,83387,2,0,L|384:176,1,110,4|0,0:0|0:0,0:0:0:0:
128,176,83693,1,8,0:0:0:0:
16,176,83846,1,0,0:0:0:0:
400,176,83999,1,12,0:0:0:0:
304,112,84152,1,0,0:0:0:0:
408,40,84305,5,0,0:0:0:0:
120,104,84458,1,4,0:0:0:0:
400,24,84611,1,8,0:0:0:0:
512,16,84764,1,0,0:0:0:0:
40,80,84917,1,4,0:0:0:0:
312,248,85376,6,0,L|496:128,1,220,8|0,0:0|0:0,0:0:0:0:
272,152,85836,2,0,L|384:144,1,110,12|0,0:0|0:0,0:0:0:0:
112,192,86142,1,8,0:0:0:0:
0,184,86295,1,0,0:0:0:0:
222,192,86448,2,0,L|112:192,1,110,12|0,0:0|0:0,0:0:0:0:
424,192,86753,5,8,0:0:0:0:
328,120,86907,1,8,0:0:0:0:
72,184,87060,1,8,0:0:0:0:
328,208,87213,1,8,0:0:0:0:
