osu file format v14

[General]
AudioFilename: real world.mp3
AudioLeadIn: 0
PreviewTime: 47876
Countdown: 0
SampleSet: Soft
StackLeniency: 0.7
Mode: 0
LetterboxInBreaks: 0
WidescreenStoryboard: 0

[Editor]
Bookmarks: 1805,38845
DistanceSpacing: 1
BeatDivisor: 4
GridSize: 4
TimelineZoom: 1

[Metadata]
Title:Real World (TV Size)
TitleUnicode:リアルワールド (TV Size)
Artist:nano.RIPE
ArtistUnicode:nano.RIPE
Creator:cookie_CoMa
Version:Easy
Source:Jinrui wa Suitai Shimashita
Tags:cookie_CoMa,opening,jinrui wa suitai shimashita,anime,japanese,TV size
BeatmapID:793252
BeatmapSetID:344199

[Difficulty]
HPDrainRate:2
CircleSize:2
OverallDifficulty:2
ApproachRate:2
SliderMultiplier:0.7
SliderTickRate:1

[Events]
//Background and Video events
0,0,"c0109099_5207177a58d14.jpg",0,0
Video,0,"jinrui_op.avi"
//Break Periods
//Storyboard Layer 0 (Background)
//Storyboard Layer 1 (Fail)
//Storyboard Layer 2 (Pass)
//Storyboard Layer 3 (Foreground)
//Storyboard Sound Samples

[TimingPoints]
581,306.122448979592,7,1,0,50,1,0
657,-100,7,2,1,50,0,0
2647,-100,7,1,0,50,0,0
2800,-100,7,2,1,50,0,0
4790,-100,7,1,0,50,0,0
4943,-100,7,2,1,50,0,0
6933,-100,7,1,0,55,0,0
7086,-100,7,2,1,50,0,0
8081,-100,7,1,0,50,0,0
9458,306.122448979592,4,2,1,60,1,0
9534,-100,4,2,1,60,0,0
9687,-100,4,2,2,50,0,0
9840,-100,4,2,1,60,0,0
10529,-100,4,2,1,50,0,0
10605,-100,4,2,1,60,0,0
12136,-100,4,2,2,50,0,0
12289,-100,4,2,1,60,0,0
12978,-100,4,2,1,50,0,0
13054,-100,4,2,1,60,0,0
14355,-100,4,2,1,50,0,0
14432,-100,4,2,1,60,0,0
14585,-100,4,2,2,50,0,0
14738,-100,4,2,1,60,0,0
15427,-100,4,2,1,50,0,0
15503,-100,4,2,1,60,0,0
19253,-100,4,2,1,50,0,0
20708,-100,4,2,2,40,0,0
20861,-100,4,2,1,50,0,0
21932,-100,4,2,2,40,0,0
22085,-100,4,2,1,50,0,0
24381,-100,4,2,2,40,0,0
24534,-100,4,2,1,50,0,0
25605,-100,4,2,2,40,0,0
25759,-100,4,2,1,50,0,0
26830,-100,4,2,2,40,0,0
26983,-100,4,2,1,50,0,0
27442,-100,4,2,2,40,0,0
27595,-100,4,2,1,50,0,0
29049,-100,4,2,1,50,0,0
29279,-100,4,2,2,40,0,0
29432,-100,4,2,1,50,0,0
30503,-100,4,2,2,40,0,0
30656,-100,4,2,1,50,0,0
32952,-100,4,2,2,40,0,0
33105,-100,4,2,1,50,0,0
34177,-100,4,2,2,40,0,0
34330,-100,4,2,1,50,0,0
34789,-100,4,2,2,40,0,0
35019,-100,4,2,1,50,0,0
36014,-100,4,2,2,40,0,0
36167,-100,4,2,1,50,0,0
37468,-100,4,2,1,40,0,0
37927,-100,4,2,1,50,0,0
43973,-100,4,2,2,40,0,0
44126,-100,4,2,1,50,0,0
45197,-100,4,2,2,40,0,0
45350,-100,4,2,1,40,0,0
46192,-100,4,2,1,40,0,0
47034,-100,4,2,2,30,0,0
47187,-100,4,2,1,40,0,0
47570,-100,4,2,1,50,0,0
48641,-100,4,2,1,60,0,1
48871,-100,4,2,2,50,0,1
49024,-100,4,2,1,60,0,1
50095,-100,4,2,2,50,0,1
50248,-100,4,2,1,60,0,1
51320,-100,4,2,2,50,0,1
51473,-100,4,2,1,60,0,1
51932,-100,4,2,2,50,0,1
52085,-100,4,2,1,60,0,1
53539,-100,4,2,1,50,0,1
53616,-100,4,2,1,50,0,1
53769,-100,4,2,2,40,0,1
53922,-100,4,2,1,50,0,1
54993,-100,4,2,2,40,0,1
55146,-100,4,2,1,50,0,1
55988,-100,4,2,1,50,0,1
58437,-100,4,2,1,60,0,1
58667,-100,4,2,2,50,0,1
58820,-100,4,2,1,60,0,1
59891,-100,4,2,2,50,0,1
60044,-100,4,2,1,60,0,1
61116,-100,4,2,2,50,0,1
61269,-100,4,2,1,60,0,1
66014,-100,4,2,2,50,0,1
66167,-100,4,2,1,60,0,1
67468,-100,4,2,1,50,0,0
68233,-100,4,2,1,60,0,1
68463,-100,4,2,2,50,0,1
68616,-100,4,2,1,60,0,1
69687,-100,4,2,2,50,0,1
69840,-100,4,2,1,60,0,1
70912,-100,4,2,2,50,0,1
71065,-100,4,2,1,60,0,1
73131,-100,4,2,1,50,0,1
73208,-100,4,2,1,60,0,1
73361,-100,4,2,2,50,0,1
73514,-100,4,2,1,60,0,1
74585,-100,4,2,2,50,0,1
74738,-100,4,2,1,60,0,1
75580,-100,4,2,1,50,0,1
75810,-100,4,2,2,40,0,1
75963,-100,4,2,1,50,0,1
76651,-100,4,2,1,60,0,1
76958,-100,4,2,1,60,0,1
77264,-100,4,2,1,50,0,1
78029,-100,4,2,1,60,0,1
78259,-100,4,2,2,50,0,1
78412,-100,4,2,1,60,0,1
79483,-100,4,2,2,50,0,1
79636,-100,4,2,1,60,0,1
80708,-100,4,2,2,50,0,1
80861,-100,4,2,1,60,0,1
87213,-100,4,2,1,60,0,0

[Colours]
Combo1 : 121,214,116
Combo2 : 255,184,149
Combo3 : 171,201,245

[HitObjects]
372,256,581,6,0,P|308:284|248:252,1,140,4|8,0:0|0:0,0:0:0:0:
304,124,1805,2,0,P|243:93|180:124,1,140,4|8,0:0|0:0,0:0:0:0:
128,192,2723,5,4,0:0:0:0:
156,328,3336,1,2,0:0:0:0:
312,332,3948,1,2,0:0:0:0:
352,196,4560,1,2,0:0:0:0:
328,112,4866,6,0,P|276:80|204:112,1,140,4|8,0:0|0:0,0:0:0:0:
260,236,6091,2,0,P|192:264|132:224,1,140,8|8,0:0|0:0,0:0:0:0:
200,172,7009,5,4,0:0:0:0:
76,104,7621,2,0,P|104:56|156:36,1,105,8|4,0:0|0:0,0:0:0:0:
320,132,9458,6,0,B|260:80|188:128,1,140,4|0,0:0|0:0,0:0:0:0:
152,204,10529,2,0,P|176:308|304:332,1,245,4|8,0:0|0:0,0:0:0:0:
380,308,11906,6,0,B|396:280|380:224|380:224|368:172|380:160,1,140,2|0,0:0|0:0,0:0:0:0:
452,100,12978,2,0,P|376:60|296:100,1,175,4|2,0:0|0:0,0:0:0:0:
260,172,14049,1,4,0:0:0:0:
220,252,14355,6,0,P|156:280|92:240,1,140,6|0,0:0|0:0,0:0:0:0:
80,128,15427,2,0,B|160:64|244:132,1,175,6|0,0:0|0:0,0:0:0:0:
276,208,16498,1,8,0:0:0:0:
320,284,16804,2,0,P|348:320|372:332,1,70,2|8,0:0|0:0,0:0:0:0:
444,288,17417,2,0,L|500:232,1,70,0|8,0:0|0:0,0:0:0:0:
284,28,19253,5,8,0:0:0:0:
364,60,19560,2,0,P|398:74|422:98,1,70,8|0,0:0|0:0,0:0:0:0:
456,176,20172,1,8,0:0:0:0:
448,264,20478,2,0,P|394:311|328:288,1,140,2|0,0:0|0:0,0:0:0:0:
212,224,21702,6,0,P|248:168|328:164,1,140,2|0,0:0|0:0,0:0:0:0:
333,293,22927,1,2,0:0:0:0:
333,293,23539,1,0,0:0:0:0:
333,293,24151,6,0,B|269:297|257:285|193:289,1,140,2|0,0:0|0:0,0:0:0:0:
288,184,25376,2,0,B|220:188|212:176|148:180,1,140,2|0,0:0|0:0,0:0:0:0:
20,236,26600,2,0,P|-4:160|24:108,1,140,2|0,0:0|0:0,0:0:0:0:
148,179,27825,1,0,0:0:0:0:
272,244,28437,1,0,0:0:0:0:
392,316,29049,2,0,P|420:240|396:176,1,140,4|0,0:0|0:0,0:0:0:0:
272,244,30274,2,0,P|252:176|284:112,1,140,4|0,0:0|0:0,0:0:0:0:
408,60,31498,5,2,0:0:0:0:
452,192,32111,1,0,0:0:0:0:
328,260,32723,2,0,P|350:298|400:336,2,105,2|2|8,0:0|0:0|0:0,0:0:0:0:
372,184,33947,6,0,P|400:116|376:56,1,140,2|0,0:0|0:0,0:0:0:0:
252,116,35172,1,0,0:0:0:0:
252,116,35784,2,0,P|183:127|113:120,1,140,2|0,0:0|0:0,0:0:0:0:
64,252,37009,6,0,P|88:280|116:304,1,70,0|8,0:0|0:0,0:0:0:0:
192,340,37621,2,0,L|268:340,1,70,2|8,0:0|0:0,0:0:0:0:
340,304,38233,2,0,P|356:272|344:228,1,70
304,168,38845,6,0,P|256:144|200:168,2,105,2|2|2,0:0|0:0|0:0,0:0:0:0:
358,235,40070,2,0,P|406:255|462:235,2,105,2|2|2,0:0|0:0|0:0,0:0:0:0:
304,168,41294,6,0,P|308:124|348:72,2,105,2|2|2,0:0|0:0|0:0,0:0:0:0:
358,235,42519,2,0,P|358:291|322:339,2,105,2|2|8,0:0|0:0|0:0,0:0:0:0:
400,156,43743,6,0,P|448:140|496:160,2,105,4|4|8,0:0|0:0|0:0,0:0:0:0:
312,156,44968,2,0,P|288:76|312:28,1,140,4|0,0:0|0:0,0:0:0:0:
432,96,46192,5,2,0:0:0:0:
384,228,46804,2,0,P|436:248|484:228,2,105,0|4|0,0:0|0:0|0:0,0:0:0:0:
152,160,48641,6,0,B|108:224|152:300,1,140,4|8,0:0|0:0,0:0:0:0:
288,300,49866,2,0,B|328:232|288:162,1,140,8|8,0:0|0:0,0:0:0:0:
164,108,51090,6,0,P|200:40|272:32,1,140,8|8,0:0|0:0,0:0:0:0:
344,40,52009,2,0,P|380:56|408:84,2,70,0|2|0,0:0|0:0|0:0,0:0:0:0:
288,108,52927,2,0,P|293:139|328:174,1,70,8|8,0:0|0:0,0:0:0:0:
372,240,53539,6,0,B|360:320|272:332,1,140,4|2,0:0|0:0,0:0:0:0:
144,292,54764,6,0,B|156:212|244:200,1,140,4|2,2:0|2:0,2:0:0:0:
376,188,55988,5,2,0:0:0:0:
336,52,56600,1,10,0:0:0:0:
196,56,57213,1,2,0:0:0:0:
128,176,57825,1,10,0:0:0:0:
268,176,58437,6,0,P|264:244|200:292,1,140,4|8,0:0|0:0,0:0:0:0:
128,176,59662,2,0,P|132:104|192:56,1,140,10|8,0:0|0:0,0:0:0:0:
320,60,60886,2,0,P|369:107|371:175,1,140,10|8,0:0|0:0,0:0:0:0:
348,260,61804,1,8,0:0:0:0:
292,328,62111,2,0,P|252:312|232:284,1,70,10|8,0:0|0:0,0:0:0:0:
232,204,62723,1,8,0:0:0:0:
236,116,63029,1,8,0:0:0:0:
296,52,63335,6,0,B|358:79|370:121,2,105,4|4|0,0:0|0:0|0:0,0:0:0:0:
208,52,64560,6,0,B|145:79|131:128,1,105,4|4,0:0|0:0,0:0:0:0:
104,204,65325,1,8,0:0:0:0:
40,288,65784,6,0,B|104:344|172:292,1,140,2|0,0:0|0:0,0:0:0:0:
272,296,66855,2,0,B|352:372|436:288,1,175,4|8,0:0|0:0,0:0:0:0:
464,216,67927,1,8,0:0:0:0:
436,132,68233,6,0,L|296:132,1,140,4|8,0:0|0:0,0:0:0:0:
232,256,69458,2,0,L|372:256,1,140,8|8,0:0|0:0,0:0:0:0:
508,280,70682,6,0,P|484:340|416:356,1,140,8|8,0:0|0:0,0:0:0:0:
276,352,71906,2,0,L|204:352,2,70,8|8|8,0:0|0:0|0:0,0:0:0:0:
364,352,72825,1,8,0:0:0:0:
324,272,73131,6,0,B|344:200|344:200|324:132,1,140,4|2,0:0|0:0,0:0:0:0:
204,140,74355,2,0,B|180:208|180:208|204:280,1,140,4|2,0:0|0:0,0:0:0:0:
72,220,75580,6,0,P|48:152|76:92,1,140,2|0,0:0|0:0,0:0:0:0:
160,156,76651,2,0,B|336:156,1,175,4|0,0:0|0:0,0:0:0:0:
456,228,78029,6,0,P|420:284|356:316,1,140,4|8,0:0|0:0,0:0:0:0:
216,316,79253,2,0,P|152:284|116:228,1,140,8|8,0:0|0:0,0:0:0:0:
252,192,80478,6,0,P|316:224|352:280,1,140,8|8,0:0|0:0,0:0:0:0:
216,316,81702,1,2,0:0:0:0:
124,208,82315,1,0,0:0:0:0:
84,76,82927,6,0,P|136:64|192:88,1,105,4|4,0:0|0:0,0:0:0:0:
124,208,83998,2,0,P|132:284|220:316,1,175,4|8,0:0|0:0,0:0:0:0:
356,300,85376,6,0,P|424:288|460:272,2,105,4|4|8,0:0|0:0|0:0,0:0:0:0:
288,244,86600,2,0,B|288:104,1,140,2|8,0:0|0:0,0:0:0:0:
