osu file format v14

[General]
AudioFilename: audio.mp3
AudioLeadIn: 0
PreviewTime: 62358
Countdown: 0
SampleSet: Soft
StackLeniency: 0.7
Mode: 3
LetterboxInBreaks: 0
SpecialStyle: 0
WidescreenStoryboard: 1

[Editor]
DistanceSpacing: 1.5
BeatDivisor: 4
GridSize: 4
TimelineZoom: 2.5

[Metadata]
Title:Nanairo Biyori (TV Size)
TitleUnicode:なないろびより (TV Size)
Artist:nano.RIPE
ArtistUnicode:nano.RIPE
Creator:ERA Bengeut
Version:Normal
Source:のんのんびより
Tags:non non biyori jrock j-rock jpop j-pop japanese pop opening anime LACM-14146 nano ripe nanoripe 1st first season 宮内れんげ miyauchi renge 一条蛍 ichijō hotaru ichijou ichijo 越谷夏海 koshigaya natsumi 越谷小鞠 koshigaya komari きみコ kimiko ササキジュン sasaki jun アベノブユキ nobuyuki abe 青山友樹 aoyama tomoki revv-
BeatmapID:4243461
BeatmapSetID:2035249

[Difficulty]
HPDrainRate:7
CircleSize:4
OverallDifficulty:7
ApproachRate:5
SliderMultiplier:1.4
SliderTickRate:1

[Events]
//Background and Video events
0,0,"siuuuu.jpg",0,0
//Break Periods
//Storyboard Layer 0 (Background)
//Storyboard Layer 1 (Fail)
//Storyboard Layer 2 (Pass)
//Storyboard Layer 3 (Foreground)
//Storyboard Layer 4 (Overlay)
//Storyboard Sound Samples
Sample,19597,0,"Tom3.wav",50
Sample,48254,0,"Tom3.wav",50
Sample,60791,0,"Tom3.wav",50
Sample,76910,0,"Tom3.wav",50

[TimingPoints]
5269,447.761199951172,4,2,1,50,1,0
62582,-100,4,2,1,50,0,1
75567,-100,4,2,1,50,0,0
76910,-100,4,2,1,50,0,1
87433,-100,4,2,1,50,0,0

[HitObjects]
320,192,5269,5,2,0:0:0:0:
448,192,5269,1,0,0:0:0:50:Crash 2.wav
192,192,5492,1,2,0:0:0:0:
64,192,5716,1,8,0:0:0:0:
320,192,5716,1,0,0:0:0:0:
64,192,6052,1,8,0:0:0:0:
192,192,6052,1,0,0:0:0:0:
448,192,6276,1,8,0:0:0:20:soft-hitclap.wav
320,192,6388,1,2,0:0:0:0:
64,192,6612,1,8,0:0:0:0:
448,192,6612,1,0,0:0:0:0:
320,192,7060,1,2,0:0:0:0:
64,192,7283,1,2,0:0:0:0:
192,192,7507,1,8,0:0:0:0:
448,192,7507,1,0,0:0:0:0:
64,192,7843,1,8,0:0:0:0:
320,192,7843,1,0,0:0:0:0:
192,192,8067,1,8,0:0:0:20:soft-hitclap.wav
320,192,8179,1,2,0:0:0:0:
192,192,8403,1,8,0:0:0:0:
448,192,8403,1,0,0:0:0:0:
448,192,8851,1,2,0:0:0:0:
64,192,9074,1,2,0:0:0:0:
192,192,9298,1,8,0:0:0:0:
320,192,9298,1,0,0:0:0:0:
320,192,9634,1,8,0:0:0:0:
448,192,9634,1,0,0:0:0:0:
192,192,9858,1,8,0:0:0:20:soft-hitclap.wav
320,192,9970,1,2,0:0:0:0:
64,192,10194,1,8,0:0:0:0:
192,192,10194,1,0,0:0:0:0:
320,192,10642,1,2,0:0:0:0:
192,192,10866,1,2,0:0:0:0:
64,192,11089,1,8,0:0:0:0:
320,192,11089,1,0,0:0:0:0:
320,192,11425,1,8,0:0:0:0:
448,192,11425,1,0,0:0:0:0:
192,192,11649,1,8,0:0:0:20:soft-hitclap.wav
64,192,11761,1,2,0:0:0:0:
192,192,11985,1,8,0:0:0:0:
448,192,11985,1,0,0:0:0:0:
192,192,12433,1,2,0:0:0:0:
320,192,12657,1,2,0:0:0:0:
64,192,12880,1,8,0:0:0:0:
448,192,12880,1,0,0:0:0:0:
192,192,13216,1,8,0:0:0:0:
320,192,13216,1,0,0:0:0:0:
64,192,13440,1,8,0:0:0:20:soft-hitclap.wav
192,192,13552,1,2,0:0:0:0:
64,192,13776,1,8,0:0:0:0:
448,192,13776,1,0,0:0:0:0:
320,192,14224,1,2,0:0:0:0:
448,192,14448,1,2,0:0:0:0:
64,192,14671,1,8,0:0:0:0:
192,192,14671,1,0,0:0:0:0:
192,192,15007,1,8,0:0:0:0:
448,192,15007,1,0,0:0:0:0:
320,192,15231,1,8,0:0:0:20:soft-hitclap.wav
192,192,15343,1,2,0:0:0:0:
64,192,15567,1,8,0:0:0:0:
448,192,15567,1,0,0:0:0:0:
320,192,16015,1,2,0:0:0:0:
192,192,16239,1,2,0:0:0:0:
64,192,16463,1,8,0:0:0:0:
320,192,16463,1,0,0:0:0:0:
192,192,16798,1,8,0:0:0:0:
320,192,16798,1,0,0:0:0:0:
448,192,17022,1,8,0:0:0:20:soft-hitclap.wav
320,192,17134,1,2,0:0:0:0:
64,192,17358,1,8,0:0:0:0:
192,192,17358,1,0,0:0:0:0:
448,192,17806,1,2,0:0:0:0:
64,192,18030,1,2,0:0:0:0:
192,192,18030,1,4,0:0:0:0:
320,192,18254,1,8,0:0:0:0:
448,192,18254,1,0,0:0:0:0:
320,192,18589,1,2,0:0:0:0:
64,192,18701,1,8,0:0:0:0:
192,192,18701,1,0,0:0:0:50:Crash 2.wav
448,192,18925,1,2,0:0:0:0:
64,192,19149,1,8,0:0:0:0:
192,192,19261,1,8,0:0:0:0:
320,192,19373,1,0,0:0:0:50:Tom1.wav
192,192,19485,1,0,0:0:0:50:Tom2.wav
64,192,19597,1,2,0:0:0:0:
448,192,19597,1,0,0:0:0:50:Crash 2.wav
320,192,19821,1,2,0:0:0:0:
192,192,20045,1,8,0:0:0:0:
448,192,20045,1,0,0:0:0:0:
192,192,20380,1,8,0:0:0:0:
320,192,20380,1,0,0:0:0:0:
448,192,20716,1,2,0:0:0:0:
64,192,20940,1,8,0:0:0:0:
192,192,20940,1,0,0:0:0:0:
320,192,21164,1,0,0:0:0:0:
192,192,21388,1,2,0:0:0:0:
64,192,21612,1,2,0:0:0:0:
320,192,21836,1,8,0:0:0:0:
448,192,21836,1,0,0:0:0:0:
64,192,22171,1,8,0:0:0:0:
448,192,22171,1,0,0:0:0:0:
320,192,22507,1,2,0:0:0:0:
192,192,22731,1,8,0:0:0:0:
448,192,22731,1,0,0:0:0:0:
320,192,23179,1,2,0:0:0:0:
192,192,23403,1,2,0:0:0:0:
64,192,23627,1,8,0:0:0:0:
448,192,23627,1,0,0:0:0:0:
320,192,23963,1,8,0:0:0:0:
448,192,23963,1,0,0:0:0:0:
64,192,24298,1,2,0:0:0:0:
192,192,24522,1,8,0:0:0:0:
448,192,24522,1,0,0:0:0:0:
320,192,24746,1,0,0:0:0:0:
64,192,24970,1,2,0:0:0:0:
192,192,25194,1,2,0:0:0:0:
64,192,25418,1,8,0:0:0:0:
448,192,25418,1,0,0:0:0:0:
320,192,25642,128,0,26089:0:0:0:0:
192,192,25754,1,8,0:0:0:0:
64,192,26089,1,2,0:0:0:0:
192,192,26313,1,8,0:0:0:0:
320,192,26313,1,0,0:0:0:0:
448,192,26761,1,2,0:0:0:0:
320,192,26985,1,2,0:0:0:0:
64,192,27209,1,8,0:0:0:0:
192,192,27209,1,0,0:0:0:0:
64,192,27545,1,8,0:0:0:0:
320,192,27545,1,0,0:0:0:0:
192,192,27880,1,2,0:0:0:0:
320,192,28104,1,8,0:0:0:0:
448,192,28104,1,0,0:0:0:0:
64,192,28328,1,0,0:0:0:0:
320,192,28552,1,2,0:0:0:0:
192,192,28776,1,2,0:0:0:0:
320,192,29000,1,8,0:0:0:0:
448,192,29000,1,0,0:0:0:0:
64,192,29224,1,0,0:0:0:0:
320,192,29336,1,8,0:0:0:0:
192,192,29448,1,0,0:0:0:0:
448,192,29671,1,2,0:0:0:0:
64,192,29895,1,8,0:0:0:0:
320,192,29895,1,0,0:0:0:0:
192,192,30119,128,0,30567:0:0:0:0:
448,192,30343,1,2,0:0:0:0:
64,192,30567,1,2,0:0:0:0:
320,192,30791,128,8,31239:0:0:0:0:
448,192,30791,1,0,0:0:0:0:
64,192,31239,1,0,0:0:0:0:
192,192,31463,1,2,0:0:0:0:
64,192,31686,1,8,0:0:0:0:
448,192,31686,1,0,0:0:0:0:
320,192,32134,1,2,0:0:0:0:
192,192,32358,1,6,0:0:0:0:
320,192,32582,1,8,0:0:0:0:
448,192,32582,1,0,0:0:0:0:
64,192,32806,1,0,0:0:0:0:
448,192,32918,1,2,0:0:0:0:
192,192,33030,1,8,0:0:0:0:
320,192,33030,1,0,0:0:0:50:Crash 2.wav
448,192,33254,1,2,0:0:0:0:
64,192,33477,1,8,0:0:0:0:
320,192,33589,1,8,0:0:0:0:
192,192,33701,1,0,0:0:0:0:
320,192,33925,1,2,0:0:0:0:
448,192,33925,1,0,0:0:0:50:Crash 2.wav
192,192,34149,1,2,0:0:0:0:
64,192,34373,1,8,0:0:0:0:
448,192,34373,1,0,0:0:0:0:
320,192,34597,1,0,0:0:0:0:
64,192,34709,1,8,0:0:0:0:
192,192,34821,1,0,0:0:0:0:
320,192,35045,1,2,0:0:0:0:
64,192,35269,1,8,0:0:0:0:
448,192,35269,1,0,0:0:0:0:
192,192,35492,1,0,0:0:0:0:
320,192,35716,1,2,0:0:0:0:
192,192,35940,1,2,0:0:0:0:
320,192,36164,1,8,0:0:0:0:
448,192,36164,1,0,0:0:0:0:
64,192,36388,128,0,36836:0:0:0:0:
320,192,36500,1,8,0:0:0:0:
448,192,36836,1,2,0:0:0:0:
64,192,37060,1,8,0:0:0:0:
192,192,37060,1,0,0:0:0:0:
320,192,37283,1,0,0:0:0:0:
448,192,37507,1,2,0:0:0:0:
192,192,37731,1,2,0:0:0:0:
64,192,37955,1,8,0:0:0:0:
448,192,37955,1,0,0:0:0:0:
320,192,38179,128,0,38627:0:0:0:0:
192,192,38291,1,8,0:0:0:0:
64,192,38627,1,2,0:0:0:0:
320,192,38851,1,8,0:0:0:0:
448,192,38851,1,0,0:0:0:0:
192,192,39074,1,0,0:0:0:0:
64,192,39298,1,2,0:0:0:0:
448,192,39522,1,2,0:0:0:0:
192,192,39746,1,8,0:0:0:0:
320,192,39746,1,0,0:0:0:0:
64,192,39970,128,0,40418:0:0:0:0:
448,192,40082,1,8,0:0:0:0:
320,192,40418,1,2,0:0:0:0:
192,192,40642,1,8,0:0:0:0:
448,192,40642,1,0,0:0:0:0:
64,192,40866,1,0,0:0:0:0:
320,192,41089,1,2,0:0:0:0:
64,192,41313,1,2,0:0:0:0:
192,192,41537,1,8,0:0:0:0:
448,192,41537,1,0,0:0:0:0:
320,192,41761,1,0,0:0:0:0:
192,192,41873,1,8,0:0:0:0:
448,192,41985,1,0,0:0:0:0:
64,192,42209,1,2,0:0:0:0:
320,192,42433,1,8,0:0:0:0:
448,192,42433,1,0,0:0:0:0:
192,192,42657,1,0,0:0:0:0:
64,192,42880,1,2,0:0:0:0:
320,192,43104,1,2,0:0:0:0:
64,192,43328,1,8,0:0:0:0:
448,192,43328,1,0,0:0:0:0:
192,192,43552,1,0,0:0:0:0:
448,192,43664,1,8,0:0:0:0:
320,192,43776,1,0,0:0:0:0:
192,192,44000,1,2,0:0:0:0:
64,192,44224,1,8,0:0:0:0:
448,192,44224,1,0,0:0:0:0:
320,192,44448,1,0,0:0:0:0:
448,192,44671,1,2,0:0:0:0:
192,192,44895,1,2,0:0:0:0:
64,192,45119,1,8,0:0:0:0:
448,192,45119,1,0,0:0:0:0:
320,192,45343,1,0,0:0:0:0:
192,192,45455,1,8,0:0:0:0:
64,192,45567,1,0,0:0:0:0:
320,192,45791,1,2,0:0:0:0:
64,192,46015,1,8,0:0:0:0:
448,192,46015,1,0,0:0:0:0:
192,192,46463,1,2,0:0:0:0:
320,192,46686,1,2,0:0:0:0:
448,192,46686,1,4,0:0:0:0:
64,192,46910,1,8,0:0:0:0:
192,192,47134,1,2,0:0:0:0:
320,192,47134,1,0,0:0:0:50:Crash 2.wav
448,192,47358,1,8,0:0:0:0:
192,192,47582,1,2,0:0:0:0:
320,192,47806,1,8,0:0:0:0:
192,192,47918,1,8,0:0:0:0:
64,192,48030,1,0,0:0:0:50:Tom1.wav
320,192,48142,1,0,0:0:0:50:Tom2.wav
192,192,48254,1,2,0:0:0:0:
448,192,48254,1,0,0:0:0:50:Crash 2.wav
64,192,48589,1,8,0:0:0:0:
320,192,48589,1,0,0:0:0:0:
64,192,48925,1,2,0:0:0:0:
192,192,49373,1,2,0:0:0:0:
64,192,49597,1,8,0:0:0:0:
448,192,49597,1,0,0:0:0:0:
320,192,50045,1,2,0:0:0:0:
64,192,50380,1,8,0:0:0:0:
192,192,50380,1,0,0:0:0:0:
192,192,50716,1,2,0:0:0:0:
320,192,51164,1,2,0:0:0:0:
192,192,51388,1,8,0:0:0:0:
448,192,51388,1,0,0:0:0:0:
64,192,51836,1,2,0:0:0:0:
192,192,52171,1,8,0:0:0:0:
320,192,52171,1,0,0:0:0:0:
320,192,52507,1,2,0:0:0:0:
448,192,52955,1,2,0:0:0:0:
64,192,53179,1,8,0:0:0:0:
320,192,53179,1,0,0:0:0:0:
192,192,53627,1,2,0:0:0:0:
320,192,53963,1,8,0:0:0:0:
448,192,53963,1,0,0:0:0:0:
320,192,54298,1,2,0:0:0:0:
192,192,54746,1,2,0:0:0:0:
64,192,54970,1,8,0:0:0:0:
320,192,55194,1,0,0:0:0:0:
64,192,55418,1,4,0:0:0:0:
448,192,55418,1,2,0:0:0:0:
192,192,55754,1,8,0:0:0:0:
320,192,55754,1,0,0:0:0:0:
320,192,56089,1,2,0:0:0:0:
448,192,56537,1,2,0:0:0:0:
64,192,56761,1,8,0:0:0:0:
320,192,56761,1,0,0:0:0:0:
192,192,57209,1,2,0:0:0:0:
64,192,57545,1,8,0:0:0:0:
448,192,57545,1,0,0:0:0:0:
448,192,57880,1,2,0:0:0:0:
320,192,58328,1,2,0:0:0:0:
64,192,58552,1,8,0:0:0:0:
192,192,58552,1,0,0:0:0:0:
320,192,58776,1,0,0:0:0:0:
448,192,59000,1,2,0:0:0:0:
192,192,59336,1,8,0:0:0:0:
320,192,59336,1,0,0:0:0:0:
192,192,59671,1,2,0:0:0:0:
64,192,60119,1,2,0:0:0:0:
448,192,60119,1,0,0:0:0:0:
320,192,60343,1,8,0:0:0:0:
192,192,60455,1,0,0:0:0:50:Tom1.wav
320,192,60567,1,0,0:0:0:50:Tom2.wav
448,192,60679,1,0,0:0:0:50:Tom3.wav
64,192,60791,1,2,0:0:0:0:
192,192,60791,1,4,0:0:0:50:Crash 2.wav
192,192,61239,1,0,0:0:0:0:
320,192,61686,1,0,0:0:0:0:
448,192,62134,1,0,0:0:0:0:
64,192,62582,1,4,0:0:0:0:
320,192,62582,1,2,0:0:0:0:
192,192,62806,1,0,0:0:0:0:
320,192,63030,1,8,0:0:0:0:
448,192,63030,1,0,0:0:0:0:
64,192,63254,1,0,0:0:0:0:
320,192,63477,1,2,0:0:0:0:
192,192,63589,1,8,0:0:0:0:
64,192,63701,1,0,0:0:0:0:
320,192,63925,1,8,0:0:0:0:
448,192,63925,1,0,0:0:0:0:
192,192,64149,1,0,0:0:0:0:
320,192,64373,1,2,0:0:0:0:
448,192,64597,1,0,0:0:0:0:
64,192,64821,1,8,0:0:0:0:
192,192,64821,1,0,0:0:0:0:
320,192,65045,1,0,0:0:0:0:
64,192,65269,1,2,0:0:0:0:
192,192,65380,1,8,0:0:0:0:
320,192,65492,1,0,0:0:0:0:
64,192,65716,1,8,0:0:0:0:
448,192,65716,1,0,0:0:0:0:
192,192,65940,1,0,0:0:0:0:
448,192,66164,1,2,0:0:0:0:
320,192,66388,1,0,0:0:0:0:
64,192,66612,1,8,0:0:0:0:
192,192,66612,1,0,0:0:0:0:
448,192,66836,1,0,0:0:0:0:
192,192,67060,1,2,0:0:0:0:
320,192,67171,1,8,0:0:0:0:
448,192,67283,1,0,0:0:0:0:
64,192,67507,1,8,0:0:0:0:
192,192,67507,1,0,0:0:0:0:
320,192,67731,1,0,0:0:0:0:
64,192,67955,1,2,0:0:0:0:
448,192,68179,1,0,0:0:0:0:
192,192,68403,1,8,0:0:0:0:
320,192,68403,1,0,0:0:0:0:
64,192,68627,1,0,0:0:0:0:
448,192,68851,1,2,0:0:0:0:
192,192,68963,1,8,0:0:0:0:
320,192,69074,1,0,0:0:0:0:
192,192,69298,1,8,0:0:0:0:
448,192,69298,1,0,0:0:0:0:
64,192,69522,1,0,0:0:0:0:
320,192,69746,1,2,0:0:0:0:
448,192,69970,1,0,0:0:0:0:
64,192,70194,1,8,0:0:0:0:
192,192,70194,1,0,0:0:0:0:
448,192,70418,1,0,0:0:0:0:
192,192,70642,1,2,0:0:0:0:
320,192,70754,1,8,0:0:0:0:
448,192,70866,1,0,0:0:0:0:
64,192,71089,1,8,0:0:0:0:
192,192,71089,1,0,0:0:0:0:
320,192,71313,1,0,0:0:0:0:
448,192,71537,1,2,0:0:0:0:
64,192,71761,1,0,0:0:0:0:
192,192,71985,1,8,0:0:0:0:
448,192,71985,1,0,0:0:0:0:
320,192,72209,1,0,0:0:0:0:
64,192,72433,1,2,0:0:0:0:
192,192,72545,1,8,0:0:0:0:
320,192,72657,1,0,0:0:0:0:
64,192,72880,1,8,0:0:0:0:
448,192,72880,1,0,0:0:0:0:
320,192,73104,1,0,0:0:0:0:
64,192,73328,1,2,0:0:0:0:
192,192,73552,1,0,0:0:0:0:
320,192,73776,1,8,0:0:0:0:
448,192,73776,1,0,0:0:0:0:
64,192,74000,1,0,0:0:0:0:
448,192,74224,1,2,0:0:0:0:
192,192,74336,1,8,0:0:0:0:
320,192,74448,1,0,0:0:0:0:
192,192,74671,1,8,0:0:0:0:
64,192,74895,1,8,0:0:0:0:
448,192,74895,1,0,0:0:0:50:Crash 2.wav
192,192,75343,1,8,0:0:0:0:
448,192,75343,1,0,0:0:0:0:
64,192,75567,1,2,0:0:0:0:
320,192,75567,1,0,0:0:0:0:
448,192,75679,1,8,0:0:0:0:
192,192,75791,1,8,0:0:0:0:
320,192,76015,1,2,0:0:0:0:
448,192,76015,1,0,0:0:0:0:
64,192,76239,1,2,0:0:0:0:
320,192,76463,1,8,0:0:0:0:
448,192,76463,1,0,0:0:0:0:
192,192,76574,1,0,0:0:0:50:Tom1.wav
64,192,76686,1,0,0:0:0:50:Tom2.wav
320,192,76798,1,0,0:0:0:50:Tom3.wav
192,192,76910,1,2,0:0:0:0:
448,192,76910,1,0,0:0:0:50:Crash 2.wav
64,192,77358,1,8,0:0:0:0:
192,192,77358,1,0,0:0:0:0:
320,192,77582,1,0,0:0:0:0:
448,192,77806,1,2,0:0:0:0:
192,192,77918,1,8,0:0:0:0:
320,192,78030,1,0,0:0:0:0:
64,192,78254,1,8,0:0:0:0:
448,192,78254,1,0,0:0:0:0:
192,192,78477,1,0,0:0:0:0:
320,192,78701,1,2,0:0:0:0:
64,192,78925,1,0,0:0:0:0:
192,192,79149,1,8,0:0:0:0:
320,192,79149,1,0,0:0:0:0:
448,192,79373,1,0,0:0:0:0:
64,192,79597,1,2,0:0:0:0:
320,192,79709,1,8,0:0:0:0:
192,192,79821,1,0,0:0:0:0:
320,192,80045,1,8,0:0:0:0:
448,192,80045,1,0,0:0:0:0:
64,192,80269,1,0,0:0:0:0:
192,192,80492,1,2,0:0:0:0:
448,192,80716,1,0,0:0:0:0:
64,192,80940,1,8,0:0:0:0:
320,192,80940,1,0,0:0:0:0:
192,192,81164,1,0,0:0:0:0:
448,192,81388,1,2,0:0:0:0:
320,192,81500,1,8,0:0:0:0:
192,192,81612,1,0,0:0:0:0:
64,192,81836,1,8,0:0:0:0:
448,192,81836,1,0,0:0:0:0:
320,192,82060,1,0,0:0:0:0:
448,192,82283,1,2,0:0:0:0:
192,192,82507,1,0,0:0:0:0:
320,192,82731,1,8,0:0:0:0:
448,192,82731,1,0,0:0:0:0:
64,192,82955,1,0,0:0:0:0:
192,192,83179,1,2,0:0:0:0:
448,192,83291,1,8,0:0:0:0:
320,192,83403,1,0,0:0:0:0:
64,192,83627,1,8,0:0:0:0:
448,192,83627,1,0,0:0:0:0:
192,192,83851,1,0,0:0:0:0:
64,192,84074,1,2,0:0:0:0:
320,192,84074,1,4,0:0:0:0:
448,192,84298,1,0,0:0:0:0:
192,192,84522,1,8,0:0:0:0:
320,192,84522,1,0,0:0:0:0:
64,192,84746,1,0,0:0:0:0:
448,192,84970,1,2,0:0:0:0:
320,192,85082,1,8,0:0:0:0:
192,192,85194,1,0,0:0:0:0:
64,192,85418,1,8,0:0:0:0:
320,192,85418,1,0,0:0:0:0:
448,192,85642,1,0,0:0:0:0:
192,192,85866,1,2,0:0:0:0:
320,192,86089,1,0,0:0:0:0:
64,192,86313,1,8,0:0:0:0:
448,192,86313,1,0,0:0:0:0:
192,192,86537,1,0,0:0:0:0:
320,192,86761,1,2,0:0:0:0:
448,192,86761,1,4,0:0:0:0:
192,192,86985,1,8,0:0:0:0:
64,192,87097,1,8,0:0:0:0:
448,192,87209,1,8,0:0:0:0:
320,192,87321,1,0,0:0:0:50:Tom3.wav
64,192,87433,1,2,0:0:0:0:
192,192,87433,128,0,89671:0:0:0:50:Crash 2.wav
