osu file format v14

[General]
AudioFilename: audio.mp3
AudioLeadIn: 0
PreviewTime: 62358
Countdown: 0
SampleSet: Soft
StackLeniency: 0.7
Mode: 3
LetterboxInBreaks: 0
SpecialStyle: 0
WidescreenStoryboard: 1

[Editor]
DistanceSpacing: 1.5
BeatDivisor: 4
GridSize: 4
TimelineZoom: 2.5

[Metadata]
Title:Nanairo Biyori (TV Size)
TitleUnicode:なないろびより (TV Size)
Artist:nano.RIPE
ArtistUnicode:nano.RIPE
Creator:ERA Bengeut
Version:Easy
Source:のんのんびより
Tags:non non biyori jrock j-rock jpop j-pop japanese pop opening anime LACM-14146 nano ripe nanoripe 1st first season 宮内れんげ miyauchi renge 一条蛍 ichijō hotaru ichijou ichijo 越谷夏海 koshigaya natsumi 越谷小鞠 koshigaya komari きみコ kimiko ササキジュン sasaki jun アベノブユキ nobuyuki abe 青山友樹 aoyama tomoki revv-
BeatmapID:4243459
BeatmapSetID:2035249

[Difficulty]
HPDrainRate:6.5
CircleSize:4
OverallDifficulty:6.5
ApproachRate:5
SliderMultiplier:1.4
SliderTickRate:1

[Events]
//Background and Video events
0,0,"siuuuu.jpg",0,0
//Break Periods
//Storyboard Layer 0 (Background)
//Storyboard Layer 1 (Fail)
//Storyboard Layer 2 (Pass)
//Storyboard Layer 3 (Foreground)
//Storyboard Layer 4 (Overlay)
//Storyboard Sound Samples
Sample,19597,0,"Tom3.wav",50
Sample,47134,0,"Crash 2.wav",50
Sample,48254,0,"Tom3.wav",50
Sample,60791,0,"Tom3.wav",50
Sample,76910,0,"Tom3.wav",50

[TimingPoints]
5269,447.761199951172,4,2,1,50,1,0
62582,-100,4,2,1,50,0,1
75567,-100,4,2,1,50,0,0
76910,-100,4,2,1,50,0,1
87433,-100,4,2,1,50,0,0

[HitObjects]
64,192,5269,5,2,0:0:0:0:
448,192,5269,1,0,0:0:0:50:Crash 2.wav
192,192,5716,1,8,0:0:0:0:
320,192,5716,1,0,0:0:0:0:
64,192,6164,1,0,0:0:0:0:
448,192,6388,1,2,0:0:0:0:
192,192,6612,1,8,0:0:0:0:
320,192,6612,1,0,0:0:0:0:
64,192,7060,1,2,0:0:0:0:
192,192,7507,1,8,0:0:0:0:
448,192,7507,1,0,0:0:0:0:
320,192,7955,1,0,0:0:0:0:
64,192,8179,1,2,0:0:0:0:
192,192,8403,1,8,0:0:0:0:
320,192,8403,1,0,0:0:0:0:
448,192,8851,1,2,0:0:0:0:
192,192,9298,1,8,0:0:0:0:
320,192,9298,1,0,0:0:0:0:
64,192,9746,1,0,0:0:0:0:
448,192,9970,1,2,0:0:0:0:
192,192,10194,1,8,0:0:0:0:
320,192,10194,1,0,0:0:0:0:
448,192,10642,1,2,0:0:0:0:
64,192,11089,1,8,0:0:0:0:
320,192,11089,1,0,0:0:0:0:
192,192,11537,1,0,0:0:0:0:
448,192,11761,1,2,0:0:0:0:
64,192,11985,1,8,0:0:0:0:
320,192,11985,1,0,0:0:0:0:
192,192,12433,1,2,0:0:0:0:
320,192,12880,1,8,0:0:0:0:
448,192,12880,1,0,0:0:0:0:
192,192,13328,1,0,0:0:0:0:
320,192,13552,1,2,0:0:0:0:
64,192,13776,1,8,0:0:0:0:
448,192,13776,1,0,0:0:0:0:
320,192,14224,1,2,0:0:0:0:
64,192,14671,1,8,0:0:0:0:
192,192,14671,1,0,0:0:0:0:
320,192,15119,1,0,0:0:0:0:
64,192,15343,1,2,0:0:0:0:
192,192,15567,1,8,0:0:0:0:
448,192,15567,1,0,0:0:0:0:
320,192,16015,1,2,0:0:0:0:
64,192,16463,1,8,0:0:0:0:
192,192,16463,1,0,0:0:0:0:
448,192,16910,1,0,0:0:0:0:
320,192,17134,1,2,0:0:0:0:
64,192,17358,1,8,0:0:0:0:
192,192,17358,1,0,0:0:0:0:
448,192,17806,1,2,0:0:0:0:
192,192,18254,1,8,0:0:0:0:
320,192,18254,1,0,0:0:0:0:
64,192,18701,1,8,0:0:0:0:
448,192,18701,1,0,0:0:0:50:Crash 2.wav
192,192,18925,1,2,0:0:0:0:
64,192,19149,128,8,19597:0:0:0:0:
320,192,19597,1,2,0:0:0:0:
448,192,19597,1,0,0:0:0:50:Crash 2.wav
64,192,20045,1,8,0:0:0:0:
192,192,20045,1,0,0:0:0:0:
448,192,20492,1,0,0:0:0:0:
64,192,20940,1,8,0:0:0:0:
320,192,20940,1,0,0:0:0:0:
192,192,21388,1,2,0:0:0:0:
320,192,21836,128,8,22283:0:0:0:0:
448,192,21836,1,0,0:0:0:0:
64,192,22283,128,0,22731:0:0:0:0:
192,192,22731,1,8,0:0:0:0:
448,192,22731,128,0,23179:0:0:0:0:
64,192,23179,1,2,0:0:0:0:
320,192,23627,1,8,0:0:0:0:
448,192,23627,1,0,0:0:0:0:
192,192,24074,1,0,0:0:0:0:
64,192,24522,1,8,0:0:0:0:
320,192,24522,1,0,0:0:0:0:
448,192,24970,1,2,0:0:0:0:
64,192,25418,128,8,25866:0:0:0:0:
192,192,25418,1,0,0:0:0:0:
448,192,25866,128,0,26313:0:0:0:0:
192,192,26313,128,8,26761:0:0:0:0:
320,192,26313,1,0,0:0:0:0:
448,192,26761,1,2,0:0:0:0:
64,192,27209,1,8,0:0:0:0:
192,192,27209,1,0,0:0:0:0:
448,192,27657,1,0,0:0:0:0:
64,192,28104,1,8,0:0:0:0:
320,192,28104,1,0,0:0:0:0:
192,192,28552,1,2,0:0:0:0:
320,192,29000,1,8,0:0:0:0:
448,192,29000,1,0,0:0:0:0:
64,192,29448,1,0,0:0:0:0:
192,192,29895,1,8,0:0:0:0:
448,192,29895,1,0,0:0:0:0:
64,192,30343,1,2,0:0:0:0:
320,192,30791,1,8,0:0:0:0:
448,192,30791,1,0,0:0:0:0:
192,192,31239,1,0,0:0:0:0:
64,192,31686,1,8,0:0:0:0:
448,192,31686,1,0,0:0:0:0:
192,192,32134,1,2,0:0:0:0:
320,192,32358,1,6,0:0:0:0:
64,192,32582,1,8,0:0:0:0:
448,192,32582,1,0,0:0:0:0:
64,192,33030,1,8,0:0:0:0:
320,192,33030,1,0,0:0:0:50:Crash 2.wav
448,192,33254,1,2,0:0:0:0:
192,192,33477,128,8,33925:0:0:0:0:
320,192,33925,1,2,0:0:0:0:
448,192,33925,1,0,0:0:0:50:Crash 2.wav
64,192,34373,1,8,0:0:0:0:
192,192,34373,1,0,0:0:0:0:
320,192,34821,1,0,0:0:0:0:
64,192,35269,1,8,0:0:0:0:
448,192,35269,1,0,0:0:0:0:
192,192,35716,1,2,0:0:0:0:
320,192,36164,128,8,36612:0:0:0:0:
448,192,36164,1,0,0:0:0:0:
192,192,36612,128,0,37060:0:0:0:0:
64,192,37060,1,8,0:0:0:0:
448,192,37060,128,0,37507:0:0:0:0:
320,192,37507,1,2,0:0:0:0:
64,192,37955,1,8,0:0:0:0:
448,192,37955,1,0,0:0:0:0:
192,192,38403,1,0,0:0:0:0:
320,192,38851,1,8,0:0:0:0:
448,192,38851,1,0,0:0:0:0:
192,192,39298,1,2,0:0:0:0:
64,192,39746,128,8,40194:0:0:0:0:
448,192,39746,1,0,0:0:0:0:
320,192,40194,128,0,40642:0:0:0:0:
64,192,40642,1,8,0:0:0:0:
192,192,40642,128,0,41089:0:0:0:0:
448,192,41089,1,2,0:0:0:0:
64,192,41537,1,8,0:0:0:0:
320,192,41537,1,0,0:0:0:0:
192,192,41985,1,0,0:0:0:0:
320,192,42433,1,8,0:0:0:0:
448,192,42433,1,0,0:0:0:0:
64,192,42880,1,2,0:0:0:0:
192,192,43328,1,8,0:0:0:0:
448,192,43328,1,0,0:0:0:0:
64,192,43776,1,0,0:0:0:0:
320,192,44224,1,8,0:0:0:0:
448,192,44224,1,0,0:0:0:0:
192,192,44671,1,2,0:0:0:0:
64,192,45119,1,8,0:0:0:0:
320,192,45119,1,0,0:0:0:0:
448,192,45567,1,0,0:0:0:0:
64,192,46015,1,8,0:0:0:0:
192,192,46015,1,0,0:0:0:0:
192,192,46463,1,2,0:0:0:0:
320,192,46686,1,6,0:0:0:0:
64,192,46910,1,8,0:0:0:0:
448,192,47134,1,2,0:0:0:0:
192,192,47358,1,8,0:0:0:0:
320,192,47806,128,8,48254:0:0:0:0:
64,192,48254,1,2,0:0:0:0:
448,192,48254,1,0,0:0:0:50:Crash 2.wav
192,192,48589,1,8,0:0:0:0:
320,192,48925,1,2,0:0:0:0:
64,192,49373,1,2,0:0:0:0:
192,192,49597,1,8,0:0:0:0:
448,192,50045,1,2,0:0:0:0:
320,192,50380,1,8,0:0:0:0:
192,192,50716,1,2,0:0:0:0:
320,192,51164,1,2,0:0:0:0:
192,192,51388,1,8,0:0:0:0:
448,192,51836,1,2,0:0:0:0:
192,192,52171,1,8,0:0:0:0:
320,192,52507,1,2,0:0:0:0:
64,192,52955,1,2,0:0:0:0:
192,192,53179,1,8,0:0:0:0:
448,192,53627,1,2,0:0:0:0:
320,192,53963,1,8,0:0:0:0:
192,192,54298,1,2,0:0:0:0:
320,192,54746,1,2,0:0:0:0:
192,192,54970,1,8,0:0:0:0:
64,192,55418,1,4,0:0:0:0:
448,192,55418,1,2,0:0:0:0:
192,192,55754,1,8,0:0:0:0:
320,192,56089,1,2,0:0:0:0:
448,192,56537,1,2,0:0:0:0:
320,192,56761,1,8,0:0:0:0:
192,192,57209,1,2,0:0:0:0:
64,192,57545,1,8,0:0:0:0:
320,192,57880,1,2,0:0:0:0:
192,192,58328,1,2,0:0:0:0:
320,192,58552,1,8,0:0:0:0:
448,192,59000,1,2,0:0:0:0:
320,192,59336,1,8,0:0:0:0:
192,192,59671,1,2,0:0:0:0:
64,192,60119,1,2,0:0:0:0:
320,192,60343,1,8,0:0:0:0:
192,192,60567,1,0,0:0:0:50:Tom2.wav
64,192,60791,1,2,0:0:0:0:
448,192,60791,1,4,0:0:0:50:Crash 2.wav
192,192,62582,1,4,0:0:0:0:
320,192,62582,1,2,0:0:0:0:
64,192,63030,1,8,0:0:0:0:
448,192,63030,1,0,0:0:0:0:
192,192,63477,1,2,0:0:0:0:
320,192,63701,1,0,0:0:0:0:
64,192,63925,1,8,0:0:0:0:
448,192,63925,1,0,0:0:0:0:
320,192,64373,1,2,0:0:0:0:
64,192,64821,1,8,0:0:0:0:
192,192,64821,1,0,0:0:0:0:
448,192,65269,1,2,0:0:0:0:
192,192,65492,1,0,0:0:0:0:
64,192,65716,1,8,0:0:0:0:
320,192,65716,1,0,0:0:0:0:
448,192,66164,1,2,0:0:0:0:
64,192,66612,1,8,0:0:0:0:
192,192,66612,1,0,0:0:0:0:
448,192,67060,1,2,0:0:0:0:
64,192,67283,1,0,0:0:0:0:
192,192,67507,1,8,0:0:0:0:
320,192,67507,1,0,0:0:0:0:
64,192,67955,1,2,0:0:0:0:
320,192,68403,1,8,0:0:0:0:
448,192,68403,1,0,0:0:0:0:
192,192,68851,1,2,0:0:0:0:
64,192,69074,1,0,0:0:0:0:
192,192,69298,1,8,0:0:0:0:
448,192,69298,1,0,0:0:0:0:
320,192,69746,1,2,0:0:0:0:
64,192,70194,1,8,0:0:0:0:
192,192,70194,1,0,0:0:0:0:
320,192,70642,1,2,0:0:0:0:
192,192,70866,1,0,0:0:0:0:
64,192,71089,1,8,0:0:0:0:
448,192,71089,1,0,0:0:0:0:
192,192,71537,1,2,0:0:0:0:
320,192,71985,1,8,0:0:0:0:
448,192,71985,1,0,0:0:0:0:
64,192,72433,1,2,0:0:0:0:
448,192,72657,1,0,0:0:0:0:
64,192,72880,1,8,0:0:0:0:
320,192,72880,1,0,0:0:0:0:
192,192,73328,1,2,0:0:0:0:
320,192,73776,1,8,0:0:0:0:
448,192,73776,1,0,0:0:0:0:
64,192,74224,1,2,0:0:0:0:
320,192,74448,1,0,0:0:0:0:
192,192,74671,1,8,0:0:0:0:
64,192,74895,1,8,0:0:0:0:
448,192,74895,1,0,0:0:0:50:Crash 2.wav
192,192,75343,1,8,0:0:0:0:
320,192,75567,128,2,76015:0:0:0:0:
192,192,76015,128,2,76463:0:0:0:0:
64,192,76463,128,8,76910:0:0:0:0:
320,192,76910,1,2,0:0:0:0:
448,192,76910,1,0,0:0:0:50:Crash 2.wav
64,192,77358,1,8,0:0:0:0:
192,192,77358,1,0,0:0:0:0:
448,192,77806,1,2,0:0:0:0:
320,192,78030,1,0,0:0:0:0:
64,192,78254,1,8,0:0:0:0:
448,192,78254,1,0,0:0:0:0:
192,192,78701,1,2,0:0:0:0:
64,192,79149,1,8,0:0:0:0:
320,192,79149,1,0,0:0:0:0:
448,192,79597,1,2,0:0:0:0:
192,192,79821,1,0,0:0:0:0:
320,192,80045,1,8,0:0:0:0:
448,192,80045,1,0,0:0:0:0:
192,192,80492,1,2,0:0:0:0:
64,192,80940,1,8,0:0:0:0:
320,192,80940,1,0,0:0:0:0:
192,192,81388,1,2,0:0:0:0:
320,192,81612,1,0,0:0:0:0:
192,192,81836,1,8,0:0:0:0:
448,192,81836,1,0,0:0:0:0:
64,192,82283,1,2,0:0:0:0:
320,192,82731,1,8,0:0:0:0:
448,192,82731,1,0,0:0:0:0:
192,192,83179,1,2,0:0:0:0:
320,192,83403,1,0,0:0:0:0:
64,192,83627,1,8,0:0:0:0:
448,192,83627,1,0,0:0:0:0:
64,192,84074,1,2,0:0:0:0:
192,192,84074,1,4,0:0:0:0:
320,192,84522,1,8,0:0:0:0:
448,192,84522,1,0,0:0:0:0:
192,192,84970,1,2,0:0:0:0:
448,192,85194,1,0,0:0:0:0:
64,192,85418,1,8,0:0:0:0:
320,192,85418,1,0,0:0:0:0:
192,192,85866,1,2,0:0:0:0:
64,192,86313,1,8,0:0:0:0:
448,192,86313,1,0,0:0:0:0:
192,192,86761,1,2,0:0:0:0:
320,192,86761,1,4,0:0:0:0:
448,192,86985,1,8,0:0:0:0:
64,192,87209,1,8,0:0:0:0:
320,192,87433,128,2,89671:0:0:0:0:
448,192,87433,1,0,0:0:0:50:Crash 2.wav
