osu file format v14

[General]
AudioFilename: audio.mp3
AudioLeadIn: 0
PreviewTime:61303
Countdown: 0
SampleSet: Soft
StackLeniency: 0.7
Mode: 0
LetterboxInBreaks: 0
WidescreenStoryboard: 1

[Editor]
DistanceSpacing: 0.9
BeatDivisor: 2
GridSize: 8
TimelineZoom: 1

[Metadata]
Title:Last Chapter (TV Size)
TitleUnicode:ラストチャプター (TV Size)
Artist:nano.RIPE
ArtistUnicode:nano.RIPE
Creator:Sotarks
Version:Sytho's Normal
Source:食戟のソーマ 豪ノ皿
Tags:pop jpop j-pop j Shokugeki no Soma 5th Season Food Wars! The Fifth Plate japanese anime op opening pepekcz kowari sytho female vocals vocalist
BeatmapID:3314329
BeatmapSetID:1623255

[Difficulty]
HPDrainRate:3
CircleSize:3.5
OverallDifficulty:4
ApproachRate:5.4
SliderMultiplier:0.999999999999999
SliderTickRate:1

[Events]
//Background and Video events
0,0,"bg.jpg",0,0
Video,1409,"video.mp4"
//Break Periods
//Storyboard Layer 0 (Background)
//Storyboard Layer 1 (Fail)
//Storyboard Layer 2 (Pass)
//Storyboard Layer 3 (Foreground)
//Storyboard Layer 4 (Overlay)
//Storyboard Sound Samples

[TimingPoints]
1386,331.491712707182,4,2,22,52,1,0
11993,-117.647058823529,4,2,22,52,0,0
13982,-100,4,2,22,52,0,0
14645,-100,4,2,22,72,0,0
22435,-100,4,2,22,62,0,0
57076,-100,4,2,22,72,0,0
59562,-100,4,2,22,52,0,0
59728,-100,4,2,22,42,0,0
61551,-100,4,2,22,72,0,0
62380,-90.9090909090909,4,2,22,82,0,1
83595,-117.647058823529,4,2,22,72,0,0
84839,-117.647058823529,4,2,22,5,0,0
84921,-117.647058823529,4,2,22,72,0,0
86247,-117.647058823529,4,2,22,42,0,0
88899,-117.647058823529,4,2,22,22,0,0

[Colours]
Combo1 : 209,181,240
Combo2 : 226,150,252
Combo3 : 237,165,203

[HitObjects]
53,19,1386,6,0,B|34:50|34:50|57:178,1,150,10|10,0:2|0:2,0:0:0:0:
78,294,2380,2,0,P|131:343|216:317,1,150,10|10,0:2|0:2,0:0:0:0:
274,212,3374,1,10,0:2:0:0:
353,168,3706,1,10,0:2:0:0:
435,203,4037,6,0,B|454:234|454:234|431:362,1,150,10|10,0:2|0:2,0:0:0:0:
299,359,5032,2,0,B|200:370|200:370|109:349,1,150,10|8,0:2|0:2,0:0:0:0:
68,251,6026,1,10,0:2:0:0:
107,170,6358,1,10,0:2:0:0:
196,178,6689,6,0,P|274:186|309:137,1,99.9999999999999,10|2,0:2|0:2,0:0:0:0:
308,136,7187,2,0,L|301:32,1,99.9999999999999,10|2,0:2|0:2,0:0:0:0:
390,23,7850,2,0,L|396:122,1,99.9999999999999,2|10,0:2|0:2,0:0:0:0:
370,209,8513,1,2,0:2:0:0:
370,209,8678,2,0,B|349:242|349:242|363:334,1,99.9999999999999,8|8,0:2|0:2,0:0:0:0:
424,363,9341,6,0,P|478:345|491:273,1,99.9999999999999,10|2,0:2|0:2,0:0:0:0:
494,263,9839,2,0,L|487:157,1,99.9999999999999,10|2,0:2|0:2,0:0:0:0:
472,74,10502,2,0,B|425:54|425:54|369:83,1,99.9999999999999,2|8,0:2|0:2,0:0:0:0:
301,113,11165,1,2,0:2:0:0:
301,113,11330,2,0,L|210:108,1,50,10|2,0:2|0:2,0:0:0:0:
212,86,11662,2,0,L|121:81,1,50,10|2,0:2|3:2,0:0:0:0:
117,85,11993,6,0,B|82:122|99:163|99:163|120:199|93:253,1,170.000003242493,4|2,1:2|0:2,0:0:0:0:
211,354,13319,1,4,1:2:0:0:
211,354,13485,2,0,L|311:359,1,85.0000016212463,8|8,0:2|0:3,0:0:0:0:
409,285,14314,1,8,0:2:0:0:
422,196,14645,6,0,P|357:173|304:204,1,99.9999999999999,6|8,1:2|0:2,0:0:0:0:
244,209,15308,1,2,1:2:0:0:
180,153,15640,1,8,0:2:0:0:
180,153,15805,2,0,L|167:34,1,99.9999999999999,6|0,1:2|1:2,0:0:0:0:
157,9,16303,1,10,0:2:0:0:
67,7,16634,2,0,P|14:38|8:97,1,99.9999999999999,2|10,1:2|0:2,0:0:0:0:
26,159,17297,6,0,L|36:258,1,99.9999999999999,2|8,1:2|0:2,0:0:0:0:
52,347,17960,1,2,1:2:0:0:
145,347,18292,1,8,0:2:0:0:
145,347,18457,2,0,B|211:337|211:337|260:351,1,99.9999999999999,6|0,1:2|1:2,0:0:0:0:
282,367,18955,1,10,0:2:0:0:
322,287,19286,2,0,P|310:229|264:212,1,99.9999999999999,2|10,1:2|0:2,0:0:0:0:
188,194,19949,6,0,B|175:150|175:150|170:78,1,99.9999999999999,6|10,1:2|0:2,0:0:0:0:
215,17,20612,1,2,1:2:0:0:
306,43,20944,1,10,0:2:0:0:
306,43,21109,2,0,P|365:70|435:47,1,99.9999999999999,6|2,1:2|1:2,0:0:0:0:
443,63,21606,1,10,0:2:0:0:
443,63,21772,2,0,B|457:97|457:97|451:186,1,99.9999999999999,6|6,1:3|1:3,0:0:0:0:
431,247,22435,6,0,B|392:264|358:248|358:248|340:288|280:275,1,150,6|0,1:2|1:2,0:0:0:0:
153,166,23595,1,0,1:2:0:0:
80,219,23927,2,0,P|67:274|106:333,1,99.9999999999999,2|0,0:2|1:2,0:0:0:0:
151,370,24590,2,0,L|284:377,1,99.9999999999999,2|10,0:2|0:2,0:0:0:0:
295,380,25087,1,2,0:2:0:0:
295,380,25253,6,0,B|307:347|307:347|300:275,1,99.9999999999999,6|2,1:2|1:2,0:0:0:0:
290,238,25750,2,0,L|293:126,1,99.9999999999999,2|2,0:2|0:2,0:0:0:0:
309,49,26413,2,0,P|354:7|419:27,1,99.9999999999999,2|0,0:2|0:2,0:0:0:0:
431,24,26910,1,2,1:2:0:0:
431,24,27076,2,0,L|449:131,1,99.9999999999999,2|2,0:2|0:2,0:0:0:0:
440,167,27573,1,0,1:2:0:0:
464,253,27905,6,0,B|466:283|466:283|446:368,1,99.9999999999999,0|2,1:2|1:2,0:0:0:0:
409,370,28402,1,2,0:2:0:0:
409,370,28568,2,0,L|286:378,1,99.9999999999999,0|2,1:2|0:2,0:0:0:0:
242,316,29231,2,0,P|172:298|131:323,1,99.9999999999999,0|0,0:0|1:2,0:0:0:0:
114,335,29728,1,2,0:2:0:0:
114,335,29894,2,0,B|61:322|61:322|27:263,1,99.9999999999999,0|2,1:2|1:2,0:0:0:0:
27,193,30557,6,0,L|19:78,1,99.9999999999999,2|2,1:2|1:2,0:0:0:0:
39,52,31054,2,0,P|86:28|145:60,1,99.9999999999999,2|2,0:2|0:2,0:0:0:0:
153,78,31551,1,0,1:2:0:0:
218,139,31883,2,0,B|284:136|284:136|323:110,1,99.9999999999999,0|2,1:2|1:2,0:0:0:0:
354,100,32380,1,2,0:2:0:0:
354,100,32546,2,0,L|461:107,1,99.9999999999999,0|2,1:2|1:2,0:0:0:0:
471,194,33209,6,0,B|444:224|444:224|364:248,1,99.9999999999999,2|2,1:2|1:2,0:0:0:0:
302,271,33872,2,0,P|242:254|213:193,1,99.9999999999999,2|0,1:2|1:2,0:0:0:0:
216,180,34369,2,0,L|222:77,1,99.9999999999999,2|2,0:2|0:2,0:0:0:0:
154,28,35032,1,2,0:2:0:0:
154,28,35198,2,0,L|72:37,1,50,2|4,1:2|0:3,0:0:0:0:
60,41,35529,1,10,0:2:0:0:
20,122,35861,6,0,B|13:147|13:147|31:248,1,99.9999999999999,6|10,1:2|0:2,0:0:0:0:
60,308,36524,1,0,1:2:0:0:
60,308,36689,2,0,P|119:348|184:331,1,99.9999999999999,2|10,1:2|0:2,0:0:0:0:
227,309,37352,1,0,1:2:0:0:
227,309,37518,2,0,L|341:318,1,99.9999999999999,10|0,0:2|1:2,0:0:0:0:
402,365,38181,1,8,0:2:0:0:
469,305,38513,6,0,B|486:272|486:272|474:196,1,99.9999999999999,0|10,1:2|0:2,0:0:0:0:
401,159,39176,1,0,0:0:0:0:
401,159,39341,2,0,L|284:172,1,99.9999999999999,0|10,1:2|0:2,0:0:0:0:
236,232,40004,1,0,1:2:0:0:
236,232,40170,2,0,P|178:223|152:146,1,99.9999999999999,8|0,0:2|1:2,0:0:0:0:
144,103,40833,1,8,0:2:0:0:
190,25,41165,6,0,B|236:9|236:9|307:28,1,99.9999999999999,2|10,1:2|0:2,0:0:0:0:
370,65,41827,1,0,1:2:0:0:
370,65,41993,2,0,L|383:196,1,99.9999999999999,2|10,1:2|0:2,0:0:0:0:
431,238,42656,1,0,1:2:0:0:
431,238,42822,2,0,P|430:305|377:348,1,99.9999999999999,10|0,0:2|1:2,0:0:0:0:
331,370,43485,1,10,0:2:0:0:
256,319,43816,6,0,B|226:308|226:308|136:319,1,99.9999999999999,4|8,1:2|0:2,0:0:0:0:
69,327,44479,2,0,L|60:268,1,50,2|2,1:2|1:2,0:0:0:0:
29,245,44811,1,10,0:2:0:0:
29,245,44977,2,0,P|33:173|29:109,1,99.9999999999999,6|0,1:2|1:2,0:0:0:0:
50,56,45640,2,0,P|111:-2|146:14,1,99.9999999999999,2|2,1:2|1:2,0:0:0:0:
159,11,46137,1,10,0:3:0:0:
213,82,46468,6,0,B|221:105|221:105|214:208,1,99.9999999999999,6|0,1:2|3:2,0:0:0:0:
157,249,47131,2,0,P|161:312|220:349,1,99.9999999999999,2|2,3:2|3:2,0:0:0:0:
231,355,47629,1,2,1:2:0:0:
231,355,47794,2,0,L|352:361,1,99.9999999999999,0|2,0:0|3:2,0:0:0:0:
419,372,48457,2,0,L|447:314,1,50,2|2,3:2|1:2,0:0:0:0:
466,289,48789,1,2,3:2:0:0:
468,199,49120,6,0,P|431:143|358:137,1,99.9999999999999,2|0,1:2|3:2,0:0:0:0:
323,176,49783,2,0,P|236:190|189:189,1,99.9999999999999,2|2,3:2|3:2,0:0:0:0:
182,193,50281,1,2,1:2:0:0:
182,193,50446,2,0,P|104:178|48:181,1,99.9999999999999,0|0,3:2|3:2,0:0:0:0:
34,102,51109,2,0,L|44:45,1,50,2|6,1:2|0:3,0:0:0:0:
75,21,51441,1,10,0:2:0:0:
161,48,51772,6,0,B|211:57|211:57|274:41,1,99.9999999999999,6|0,1:2|1:2,0:0:0:0:
301,29,52269,1,2,0:2:0:0:
301,29,52435,2,0,L|431:32,1,99.9999999999999,2|8,1:2|0:2,0:0:0:0:
479,75,53098,2,0,B|488:103|488:103|476:174,1,99.9999999999999,2|0,1:2|1:2,0:0:0:0:
445,205,53595,1,2,0:2:0:0:
445,205,53761,2,0,P|431:284|454:315,1,99.9999999999999,2|8,1:2|0:2,0:0:0:0:
367,354,54424,6,0,L|259:347,1,99.9999999999999,2|2,1:2|1:2,0:0:0:0:
223,334,54921,1,2,0:2:0:0:
223,334,55087,2,0,L|120:343,1,99.9999999999999,0|0,1:2|1:2,0:0:0:0:
78,336,55584,2,0,B|48:300|48:300|61:171,1,150,14|10,0:2|0:2,0:0:0:0:
71,108,56413,1,10,0:2:0:0:
135,45,56745,1,6,0:3:0:0:
224,64,57076,6,0,B|245:84|245:84|260:185,1,99.9999999999999,14|0,0:2|1:2,0:0:0:0:
244,197,57573,2,0,L|236:306,1,99.9999999999999,14|0,0:2|1:2,0:0:0:0:
257,337,58071,2,0,P|303:366|368:343,1,99.9999999999999,14|14,0:2|0:2,0:0:0:0:
406,293,58734,2,0,B|438:239|409:199|409:199|376:147|425:89,1,200,6|0,1:2|0:0,0:0:0:0:
467,33,59728,5,2,0:2:0:0:
287,15,60391,1,0,0:0:0:0:
109,43,61054,2,0,L|122:127,1,50,2|0,0:2|3:2,0:0:0:0:
96,132,61385,1,0,3:2:0:0:
96,132,61551,2,0,L|95:247,1,99.9999999999999,14|2,0:2|0:2,0:0:0:0:
86,276,62048,1,8,0:2:0:0:
146,342,62380,6,0,P|215:358|265:323,1,110.000003356934,2|10,1:2|0:2,0:0:0:0:
290,316,62877,2,0,B|315:302|315:302|401:311,1,110.000003356934,2|2,1:2|1:2,0:0:0:0:
490,339,63540,2,0,P|515:290|493:225,1,110.000003356934,2|2,1:2|1:2,0:0:0:0:
471,207,64037,1,8,0:2:0:0:
471,207,64203,2,0,L|459:92,1,110.000003356934,2|2,1:2|1:2,0:0:0:0:
436,54,64700,1,8,0:2:0:0:
348,7,65032,6,0,B|318:0|318:0|237:10,1,110.000003356934,2|10,1:2|0:2,0:0:0:0:
220,55,65529,2,0,L|218:171,1,110.000003356934,2|2,1:2|1:2,0:0:0:0:
209,263,66192,2,0,B|190:286|190:286|42:275,1,165.0000050354,6|8,1:2|0:2,0:0:0:0:
35,178,67021,2,0,L|29:112,1,55.0000016784668,0|0,1:2|1:2,0:0:0:0:
29,73,67352,1,8,0:2:0:0:
89,4,67684,6,0,P|153:-4|198:35,1,110.000003356934,4|10,1:2|0:2,0:0:0:0:
207,65,68181,2,0,B|236:82|236:82|322:69,1,110.000003356934,2|2,1:2|1:2,0:0:0:0:
393,14,68844,2,0,P|457:28|471:91,1,110.000003356934,2|0,0:2|1:2,0:0:0:0:
461,114,69341,1,10,0:2:0:0:
461,114,69507,2,0,L|471:247,1,110.000003356934,2|2,1:2|1:2,0:0:0:0:
452,324,70170,1,2,0:2:0:0:
452,324,70336,6,0,P|411:379|344:372,1,110.000003356934,2|10,1:2|0:2,0:0:0:0:
332,357,70833,2,0,B|318:339|318:339|298:242,1,110.000003356934,2|2,1:2|1:2,0:0:0:0:
295,154,71496,2,0,P|240:139|202:182,1,110.000003356934,6|0,1:2|1:2,0:0:0:0:
193,220,71993,1,10,0:2:0:0:
168,320,72325,2,0,L|128:365,1,55.0000016784668,2|8,1:2|0:2,0:0:0:0:
80,360,72656,2,0,L|12:354,1,55.0000016784668,10|8,0:2|0:2,0:0:0:0:
15,306,72988,6,0,B|4:281|4:281|16:193,1,110.000003356934,6|10,1:2|0:2,0:0:0:0:
45,159,73485,2,0,L|37:44,1,110.000003356934,2|2,1:2|1:2,0:0:0:0:
114,0,74148,2,0,P|155:-10|219:25,1,110.000003356934,2|0,0:2|0:2,0:0:0:0:
227,65,74645,1,10,0:2:0:0:
321,35,74977,2,0,L|406:18,1,55.0000016784668,2|0,1:2|1:2,0:0:0:0:
421,8,75308,1,10,0:2:0:0:
483,85,75640,6,0,P|486:132|439:178,1,110.000003356934,2|10,1:2|0:2,0:0:0:0:
397,190,76137,2,0,B|381:222|381:222|405:317,1,110.000003356934,2|2,1:2|1:2,0:0:0:0:
338,372,76800,2,0,P|264:376|212:291,1,165.0000050354,6|10,1:2|0:2,0:0:0:0:
244,214,77629,2,0,L|248:128,1,55.0000016784668,10|0,0:2|1:2,0:0:0:0:
245,109,77960,1,14,0:2:0:0:
182,31,78292,6,0,P|154:6|71:16,1,110.000003356934,4|8,1:2|0:2,0:0:0:0:
35,92,78955,2,0,L|23:164,1,55.0000016784668,2|2,1:2|1:2,0:0:0:0:
19,198,79286,1,10,0:2:0:0:
19,198,79452,2,0,P|37:261|32:318,1,110.000003356934,2|0,0:2|1:2,0:0:0:0:
24,353,79949,1,8,0:2:0:0:
121,337,80281,2,0,L|188:329,1,55.0000016784668,2|2,1:2|1:2,0:0:0:0:
217,357,80612,1,10,0:2:0:0:
257,266,80944,6,0,P|306:242|368:269,1,110.000003356934,6|8,1:2|0:2,0:0:0:0:
396,287,81441,2,0,P|444:296|505:246,1,110.000003356934,6|0,1:2|1:2,0:0:0:0:
505,167,82104,2,0,L|513:33,1,110.000003356934,6|2,1:2|1:2,0:0:0:0:
480,19,82601,1,10,0:2:0:0:
384,16,82932,2,0,L|296:25,1,55.0000016784668,10|2,0:2|1:2,0:0:0:0:
306,65,83264,2,0,L|218:74,1,55.0000016784668,10|2,0:2|1:2,0:0:0:0:
216,34,83595,6,0,B|160:19|136:48|141:54|119:92|44:66,1,170.000003242493,6|0,1:2|0:0,0:0:0:0:
28,220,84921,2,0,B|62:256|62:256|185:235,1,170.000003242493,6|0,1:2|0:0,0:0:0:0:
255,102,86247,1,6,0:2:0:0:
256,192,86413,12,0,88899,0:0:0:0:
