osu file format v14

[General]
AudioFilename: audio.mp3
AudioLeadIn: 0
PreviewTime:61303
Countdown: 0
SampleSet: Soft
StackLeniency: 0.7
Mode: 0
LetterboxInBreaks: 0
WidescreenStoryboard: 1

[Editor]
Bookmarks: 6689,11993,15805,18457,35861,41165,44977,45640,51772,55584,57573,58071,58402,66192,67684,71496,76800,77960,78292,80944,81441,82104,82601,83595,84921
DistanceSpacing: 1.4
BeatDivisor: 4
GridSize: 32
TimelineZoom: 1.9

[Metadata]
Title:Last Chapter (TV Size)
TitleUnicode:ラストチャプター (TV Size)
Artist:nano.RIPE
ArtistUnicode:nano.RIPE
Creator:Sotarks
Version:Pepekcz's Hard
Source:食戟のソーマ 豪ノ皿
Tags:pop jpop j-pop j Shokugeki no Soma 5th Season Food Wars! The Fifth Plate japanese anime op opening pepekcz kowari sytho female vocals vocalist
BeatmapID:3321764
BeatmapSetID:1623255

[Difficulty]
HPDrainRate:4
CircleSize:3.6
OverallDifficulty:6.5
ApproachRate:8
SliderMultiplier:1.4
SliderTickRate:1

[Events]
//Background and Video events
0,0,"bg.jpg",0,0
Video,1409,"video.mp4"
//Break Periods
//Storyboard Layer 0 (Background)
//Storyboard Layer 1 (Fail)
//Storyboard Layer 2 (Pass)
//Storyboard Layer 3 (Foreground)
//Storyboard Layer 4 (Overlay)
//Storyboard Sound Samples

[TimingPoints]
1386,331.491712707182,4,2,22,52,1,0
1386,-125,4,2,22,52,0,0
11993,-200,4,2,22,52,0,0
13319,-125,4,2,22,52,0,0
14645,-100,4,2,22,72,0,0
22435,-111.111111111111,4,2,22,62,0,0
25253,-125,4,2,22,62,0,0
35861,-111.111111111111,4,2,22,62,0,0
46468,-125,4,2,22,62,0,0
51772,-111.111111111111,4,2,22,62,0,0
57076,-111.111111111111,4,2,22,72,0,0
58734,-200,4,2,22,72,0,0
59562,-200,4,2,22,52,0,0
59728,-200,4,2,22,42,0,0
61220,-111.111111111111,4,2,69,52,0,0
61551,-111.111111111111,4,2,22,72,0,0
62380,-100,4,2,22,82,0,0
83595,-200,4,2,22,72,0,0
84839,-100,4,2,22,5,0,0
84921,-200,4,2,22,72,0,0
86247,-200,4,2,22,42,0,0
88899,-200,4,2,22,22,0,0

[Colours]
Combo1 : 209,181,240
Combo2 : 226,150,252
Combo3 : 237,165,203

[HitObjects]
48,212,1386,6,0,P|69:292|92:380,2,168,10|10|10,0:2|0:2|0:2,0:0:0:0:
204,36,2877,2,0,P|256:32|296:84,1,112,10|0,0:2|0:2,0:0:0:0:
312,148,3374,2,0,P|303:177|296:208,1,56,10|0,0:2|0:2,0:0:0:0:
248,264,3706,2,0,P|256:293|264:324,1,56,10|0,0:2|0:2,0:0:0:0:
328,364,4037,6,0,B|372:380|412:348|388:328|428:296|480:316,2,168,10|10|10,0:2|0:2|0:2,0:0:0:0:
262,318,5198,2,0,P|216:288|152:304,1,112,2|8,0:2|0:2,0:0:0:0:
96,340,5695,1,2,0:2:0:0:
44,192,6026,2,0,P|70:182|100:172,1,56,10|0,0:2|0:2,0:0:0:0:
164,136,6358,2,0,P|190:145|216:154,1,56,10|2,0:2|0:2,0:0:0:0:
288,224,6689,6,0,P|341:206|394:190,1,112,10|2,0:2|0:2,0:0:0:0:
468,164,7187,2,0,P|480:132|476:108,1,56,10|0,0:2|0:2,0:0:0:0:
432,44,7518,1,2,0:2:0:0:
296,124,7850,2,0,B|240:132|252:80|196:88,1,112,2|10,0:2|0:2,0:0:0:0:
52,152,8513,2,0,P|44:176|52:208,1,56,2|8,0:2|0:2,0:0:0:0:
108,260,8844,2,0,P|116:284|108:316,1,56,2|8,0:2|0:2,0:0:0:0:
64,376,9176,5,2,0:2:0:0:
64,376,9341,2,0,P|118:363|173:351,1,112,10|2,0:2|0:2,0:0:0:0:
240,312,9839,2,0,P|266:319|296:328,1,56,10|0,0:2|0:2,0:0:0:0:
368,356,10170,1,2,0:2:0:0:
500,268,10502,6,0,P|486:214|472:160,1,112,2|8,0:2|0:2,0:0:0:0:
416,104,10999,2,0,P|389:110|360:120,1,56,0|2,0:2|0:2,0:0:0:0:
300,168,11330,1,10,0:2:0:0:
300,168,11496,1,2,0:2:0:0:
244,112,11662,2,0,P|208:112|188:124,1,56,10|2,0:2|3:2,0:0:0:0:
88,188,11993,6,0,P|201:219|328:264,1,245,4|2,1:2|3:2,0:0:0:0:
384,316,13319,1,4,1:2:0:0:
384,316,13485,1,8,0:2:0:0:
492,200,13816,1,8,0:3:0:0:
380,88,14148,1,4,0:3:0:0:
368,92,14231,1,4,0:3:0:0:
356,96,14314,2,0,P|323:86|296:80,1,56,8|0,0:2|1:2,0:0:0:0:
192,28,14645,6,0,B|156:64|156:64|192:160,1,140,6|8,1:2|0:2,0:0:0:0:
264,212,15142,1,0,1:2:0:0:
264,212,15308,2,0,P|296:264|260:336,1,140,2|8,1:2|0:2,0:0:0:0:
152,376,15805,6,0,P|84:376|44:320,1,140,6|0,1:2|1:2,0:0:0:0:
24,224,16303,2,0,P|36:192|68:172,1,70,10|0,0:2|0:2,0:0:0:0:
28,80,16634,2,0,P|59:65|95:74,1,70,2|0,1:2|1:2,0:0:0:0:
176,20,16966,2,0,P|208:32|228:64,1,70,10|0,0:2|0:2,0:0:0:0:
248,156,17297,6,0,B|316:168|304:92|372:104,1,140,2|8,1:2|0:2,0:0:0:0:
460,152,17794,1,0,0:0:0:0:
460,152,17960,2,0,P|443:219|426:288,1,140,2|8,1:2|0:2,0:0:0:0:
332,364,18457,6,0,B|264:376|276:300|208:312,1,140,6|0,1:2|1:2,0:0:0:0:
112,328,18955,2,0,P|119:294|128:260,1,70,10|0,0:2|0:2,0:0:0:0:
184,180,19286,2,0,P|217:187|252:196,1,70,2|0,1:2|1:2,0:0:0:0:
328,256,19618,2,0,P|362:247|396:239,1,70,10|0,0:2|1:2,0:0:0:0:
488,204,19949,6,0,P|496:168|484:136,1,70,6|0,1:2|0:2,0:0:0:0:
424,60,20281,2,0,P|388:52|356:64,1,70,10|0,0:2|0:2,0:0:0:0:
276,116,20612,2,0,P|241:107|207:99,1,70,2|0,1:2|1:2,0:0:0:0:
100,44,20944,5,10,0:2:0:0:
100,44,21109,2,0,B|68:76|68:76|100:168,1,140,6|2,1:2|1:2,0:0:0:0:
144,260,21606,1,10,0:2:0:0:
144,260,21772,1,6,1:3:0:0:
276,116,22104,1,6,1:3:0:0:
356,272,22435,6,0,P|420:276|460:224,1,125.999996154785,6|0,1:2|0:2,0:0:0:0:
444,144,22932,2,0,B|380:104|312:164|368:196|288:260|220:212,1,251.999992309571,0|0,1:2|1:2,0:0:0:0:
164,164,23761,5,2,0:2:0:0:
152,156,23844,1,2,0:2:0:0:
140,148,23927,2,0,B|108:184|108:184|140:276,1,125.999996154785,2|0,0:2|1:2,0:0:0:0:
276,364,24590,2,0,P|304:355|336:348,1,62.9999980773926,2|6,0:2|0:3,0:0:0:0:
424,368,24921,1,10,0:2:0:0:
496,228,25253,6,0,P|512:176|480:124,1,112,6|2,1:2|1:2,0:0:0:0:
428,76,25750,2,0,P|399:84|368:96,1,56,2|0,0:2|1:2,0:0:0:0:
300,116,26082,1,2,0:2:0:0:
168,32,26413,6,0,P|112:48|44:68,1,112,2|0,0:2|0:2,0:0:0:0:
20,132,26910,1,2,1:2:0:0:
20,132,27076,2,0,P|35:185|51:239,1,112,2|2,0:2|0:2,0:0:0:0:
164,356,27739,5,2,0:2:0:0:
164,356,27905,2,0,B|216:364|208:304|260:312,1,112,0|2,1:2|1:2,0:0:0:0:
332,348,28402,2,0,P|384:344|420:292,1,112,2|0,0:2|0:2,0:0:0:0:
436,224,28899,5,2,0:2:0:0:
436,224,29065,2,0,P|447:170|460:112,1,112,2|0,0:2|0:2,0:0:0:0:
340,12,29728,2,0,P|327:66|316:121,1,112,2|0,0:2|0:2,0:0:0:0:
296,196,30225,1,2,1:2:0:0:
248,260,30391,5,2,0:2:0:0:
236,264,30474,1,2,0:2:0:0:
224,268,30557,2,0,B|172:276|180:216|128:224,1,112,2|2,1:2|1:2,0:0:0:0:
56,260,31054,2,0,P|48:232|40:200,1,56,2|0,0:2|1:2,0:0:0:0:
20,132,31385,1,2,0:2:0:0:
132,24,31717,6,0,B|184:16|176:76|228:68,1,112,2|0,0:2|0:2,0:0:0:0:
304,48,32214,1,2,1:2:0:0:
304,48,32380,2,0,P|352:20|416:36,1,112,2|0,0:2|0:2,0:0:0:0:
472,80,32877,1,2,1:2:0:0:
472,80,33043,1,2,0:2:0:0:
508,152,33209,6,0,P|495:206|480:272,1,112,2|2,1:2|1:2,0:0:0:0:
384,380,33872,2,0,B|332:388|340:328|288:336,1,112,2|0,1:2|1:2,0:0:0:0:
212,360,34369,2,0,P|156:344|104:332,1,112,2|2,0:2|0:2,0:0:0:0:
24,196,35032,2,0,P|50:187|80:180,1,56,2|2,0:2|1:2,0:0:0:0:
148,144,35363,1,4,0:3:0:0:
148,144,35529,2,0,P|175:151|201:159,1,56,10|2,0:2|0:2,0:0:0:0:
272,244,35861,6,0,B|336:252|316:188|380:196,1,125.999996154785,6|10,1:2|0:2,0:0:0:0:
468,216,36358,2,0,P|476:185|488:152,1,62.9999980773926,2|0,1:2|1:2,0:0:0:0:
484,68,36689,2,0,P|454:58|423:49,1,62.9999980773926,2|0,1:2|0:2,0:0:0:0:
339,20,37021,6,0,P|279:37|218:55,1,125.999996154785,10|0,0:2|1:2,0:0:0:0:
136,44,37518,1,10,0:2:0:0:
136,44,37684,2,0,P|128:76|136:104,1,62.9999980773926,2|0,0:2|1:2,0:0:0:0:
188,176,38015,2,0,P|196:206|187:236,1,62.9999980773926,2|8,1:2|0:2,0:0:0:0:
144,316,38347,5,2,0:2:0:0:
144,316,38513,2,0,P|197:328|266:345,1,125.999996154785,0|10,1:2|0:2,0:0:0:0:
332,288,39010,2,0,B|396:280|376:344|440:336,1,125.999996154785,2|0,0:2|1:2,0:0:0:0:
496,268,39507,5,2,0:2:0:0:
496,268,39673,2,0,P|483:210|468:144,1,125.999996154785,10|0,0:2|1:2,0:0:0:0:
420,76,40170,1,8,0:2:0:0:
420,76,40336,1,0,0:0:0:0:
336,52,40502,2,0,P|304:61|276:72,1,62.9999980773926,0|0,1:2|1:2,0:0:0:0:
208,128,40833,2,0,P|178:117|148:108,1,62.9999980773926,8|2,0:2|0:2,0:0:0:0:
56,48,41165,6,0,B|28:80|28:80|56:168,1,125.999996154785,2|10,1:2|0:2,0:0:0:0:
84,244,41662,2,0,P|114:253|143:263,1,62.9999980773926,2|0,0:2|1:2,0:0:0:0:
212,320,41993,2,0,P|241:309|271:300,1,62.9999980773926,2|0,1:2|0:2,0:0:0:0:
356,268,42325,6,0,P|376:208|332:152,1,125.999996154785,10|0,0:2|1:2,0:0:0:0:
272,108,42822,1,10,0:2:0:0:
272,108,42988,2,0,P|236:112|204:136,1,62.9999980773926,2|0,0:2|1:2,0:0:0:0:
152,192,43319,1,2,1:2:0:0:
152,192,43485,1,10,0:2:0:0:
72,112,43651,5,2,0:2:0:0:
76,96,43734,1,2,0:2:0:0:
80,80,43816,2,0,P|142:60|200:44,1,125.999996154785,4|8,1:2|0:2,0:0:0:0:
376,20,44479,2,0,P|416:20|448:40,1,62.9999980773926,2|2,1:2|1:2,0:0:0:0:
504,116,44811,5,10,0:2:0:0:
504,116,44977,2,0,P|493:147|484:184,1,62.9999980773926,6|0,1:2|0:0,0:0:0:0:
412,220,45308,2,0,P|422:251|432:288,1,62.9999980773926,0|10,1:2|0:2,0:0:0:0:
492,372,45640,2,0,P|436:360|364:348,1,125.999996154785,2|2,1:2|1:2,0:0:0:0:
292,304,46137,1,10,0:3:0:0:
292,304,46303,1,2,0:2:0:0:
204,232,46468,6,0,B|152:224|160:284|108:276,1,112,6|0,1:2|3:2,0:0:0:0:
48,232,46966,1,2,0:2:0:0:
48,232,47131,1,2,3:2:0:0:
16,76,47463,5,2,3:2:0:0:
16,76,47629,2,0,P|71:57|122:40,1,112,2|0,1:2|0:2,0:0:0:0:
200,20,48126,1,2,3:2:0:0:
332,104,48457,2,0,P|324:130|316:160,1,56,2|2,3:2|1:2,0:0:0:0:
268,220,48789,2,0,P|275:246|284:276,1,56,2|2,3:2|0:2,0:0:0:0:
316,344,49120,6,0,P|364:352|416:308,1,112,2|0,1:2|3:2,0:0:0:0:
456,248,49618,1,2,0:2:0:0:
456,248,49783,1,2,3:2:0:0:
500,96,50115,5,2,3:2:0:0:
500,96,50281,2,0,B|448:104|456:44|404:52,1,112,2|0,1:2|1:2,0:0:0:0:
336,88,50778,1,0,3:2:0:0:
184,48,51109,2,0,P|154:39|120:32,1,56,2|6,1:2|0:3,0:0:0:0:
52,20,51441,2,0,P|43:49|36:84,1,56,10|2,0:2|0:2,0:0:0:0:
12,184,51772,6,0,P|27:241|44:308,1,125.999996154785,6|0,1:2|1:2,0:0:0:0:
116,364,52269,1,2,0:2:0:0:
116,364,52435,2,0,B|180:372|160:308|224:316,1,125.999996154785,2|8,1:2|0:2,0:0:0:0:
304,356,52932,5,2,0:2:0:0:
304,356,53098,2,0,P|333:346|368:336,1,62.9999980773926,2|0,1:2|0:0,0:0:0:0:
444,300,53430,2,0,P|434:269|425:239,1,62.9999980773926,0|2,1:2|0:2,0:0:0:0:
372,168,53761,2,0,P|312:185|244:208,1,125.999996154785,2|8,1:2|0:2,0:0:0:0:
172,236,54258,5,2,0:2:0:0:
172,236,54424,2,0,P|112:244|64:192,1,125.999996154785,2|2,1:2|1:2,0:0:0:0:
24,124,54921,2,0,P|16:92|28:60,1,62.9999980773926,2|0,0:2|1:2,0:0:0:0:
104,20,55253,2,0,P|136:12|167:24,1,62.9999980773926,2|0,0:2|1:2,0:0:0:0:
224,112,55584,6,0,B|288:120|268:56|332:64,1,125.999996154785,14|0,0:2|0:2,0:0:0:0:
408,112,56082,1,10,0:2:0:0:
464,180,56247,1,10,0:2:0:0:
468,196,56330,1,8,0:2:0:0:
472,212,56413,2,0,P|464:241|456:276,1,62.9999980773926,10|8,0:2|0:3,0:0:0:0:
428,356,56745,2,0,P|398:348|364:340,1,62.9999980773926,6|6,0:3|0:3,0:0:0:0:
276,280,57076,6,0,P|221:295|152:316,1,125.999996154785,14|0,0:2|1:2,0:0:0:0:
60,368,57573,2,0,B|28:340|28:340|60:256,1,125.999996154785,14|0,0:2|1:2,0:0:0:0:
140,188,58071,2,0,P|132:158|124:128,1,62.9999980773926,14|0,0:2|1:2,0:0:0:0:
48,48,58402,1,14,0:2:0:0:
253,98,58734,6,0,B|305:74|361:114|327:142|381:190|437:154,1,210,6|2,1:2|0:2,0:0:0:0:
344,66,61385,5,0,3:2:0:0:
344,66,61551,2,0,P|358:131|372:196,1,125.999996154785,14|2,0:2|0:2,0:0:0:0:
412,268,62048,2,0,L|400:308,3,31.4999990386963,8|8|10|8,0:2|0:2|0:2|0:2,0:0:0:0:
388,344,62380,6,0,B|320:356|332:280|264:292,1,140,2|10,1:2|0:2,0:0:0:0:
184,344,62877,2,0,P|148:333|112:324,1,70,2|0,1:2|1:2,0:0:0:0:
44,260,63209,1,2,1:2:0:0:
44,260,63374,1,8,0:2:0:0:
8,168,63540,2,0,P|17:134|26:100,1,70,2|0,1:2|0:2,0:0:0:0:
96,32,63872,6,0,P|132:36|160:60,1,70,2|8,1:2|0:2,0:0:0:0:
220,132,64203,2,0,P|256:128|284:104,1,70,2|0,1:2|1:2,0:0:0:0:
348,32,64535,2,0,P|384:36|412:60,1,70,2|8,1:2|0:2,0:0:0:0:
468,136,64866,1,2,0:2:0:0:
440,232,65032,6,0,P|372:251|305:271,1,140,2|10,1:2|0:2,0:0:0:0:
228,332,65529,2,0,P|195:321|160:312,1,70,2|0,1:2|1:2,0:0:0:0:
72,280,65861,1,2,1:2:0:0:
72,280,66026,1,8,0:2:0:0:
8,172,66192,6,0,P|-8:108|56:44,1,140,6|0,1:2|1:2,0:0:0:0:
128,28,66689,2,0,P|161:37|195:47,1,70,8|0,0:2|1:2,0:0:0:0:
276,104,67021,1,0,1:2:0:0:
276,104,67187,1,0,1:2:0:0:
356,48,67352,2,0,P|363:81|372:120,1,70,8|2,0:2|0:2,0:0:0:0:
464,200,67684,6,0,P|445:267|429:335,1,140,4|10,1:2|0:2,0:0:0:0:
340,372,68181,2,0,P|304:372|276:352,1,70,2|0,1:2|1:2,0:0:0:0:
224,268,68513,2,0,P|188:268|160:288,1,70,2|8,1:2|0:2,0:0:0:0:
76,340,68844,6,0,B|40:308|40:308|76:216,1,140,2|0,0:2|1:2,0:0:0:0:
136,148,69341,1,10,0:2:0:0:
228,120,69507,2,0,P|262:130|300:144,1,70,2|0,1:2|1:2,0:0:0:0:
368,204,69839,2,0,P|401:192|434:182,1,70,2|8,1:2|0:2,0:0:0:0:
508,116,70170,5,2,1:2:0:0:
500,100,70253,1,0,1:0:0:0:
492,84,70336,2,0,B|424:96|436:20|368:32,1,140,2|10,1:2|0:2,0:0:0:0:
280,64,70833,2,0,P|246:52|213:42,1,70,2|0,1:2|1:2,0:0:0:0:
120,16,71165,2,0,P|108:49|98:82,1,70,2|8,1:2|0:2,0:0:0:0:
24,180,71496,6,0,P|42:252|60:320,1,140,6|0,1:2|1:2,0:0:0:0:
136,376,71993,2,0,P|176:372|196:352,1,70,10|0,0:2|1:2,0:0:0:0:
252,272,72325,2,0,L|292:284,3,35,2|0|8|8,1:2|1:2|0:2|0:2,0:0:0:0:
324,312,72656,2,0,L|357:301,3,35,10|8|8|8,0:2|0:2|0:2|0:2,0:0:0:0:
404,288,72988,6,0,P|436:224|392:164,1,140,6|10,1:2|0:2,0:0:0:0:
324,112,73485,2,0,P|288:116|260:136,1,70,2|0,1:2|1:2,0:0:0:0:
192,204,73816,2,0,P|156:199|128:180,1,70,2|8,1:2|0:2,0:0:0:0:
76,96,74148,6,0,P|144:69|220:44,1,140,2|0,0:2|0:2,0:0:0:0:
304,24,74645,2,0,P|338:32|376:44,1,70,10|0,0:2|0:2,0:0:0:0:
464,76,74977,2,0,P|453:109|445:143,1,70,2|0,1:2|1:2,0:0:0:0:
376,212,75308,2,0,P|386:245|394:279,1,70,10|0,0:2|0:2,0:0:0:0:
436,368,75640,6,0,P|369:350|300:332,1,140,2|10,1:2|0:2,0:0:0:0:
224,272,76137,2,0,P|184:276|160:300,1,70,2|0,1:2|1:2,0:0:0:0:
100,372,76468,2,0,P|60:368|36:344,1,70,2|8,1:2|0:2,0:0:0:0:
12,232,76800,6,0,P|25:171|44:96,1,140,6|0,1:2|1:2,0:0:0:0:
128,40,77297,1,10,0:2:0:0:
128,40,77463,1,0,1:2:0:0:
180,124,77629,2,0,P|216:124|244:100,1,70,10|0,0:2|1:2,0:0:0:0:
332,24,77960,2,0,P|368:24|396:48,1,70,14|0,0:2|0:2,0:0:0:0:
480,132,78292,6,0,B|516:172|516:172|480:252,1,140,4|8,1:2|0:2,0:0:0:0:
436,340,78789,1,2,0:2:0:0:
420,332,78872,1,2,0:2:0:0:
404,324,78955,2,0,P|370:332|336:344,1,70,2|2,1:2|1:2,0:0:0:0:
244,372,79286,1,10,0:2:0:0:
244,372,79452,1,2,0:2:0:0:
176,304,79618,6,0,P|189:243|208:164,1,140,2|8,1:2|0:2,0:0:0:0:
276,96,80115,1,2,1:2:0:0:
268,80,80198,1,2,0:2:0:0:
260,64,80281,2,0,P|226:54|192:46,1,70,2|2,1:2|1:2,0:0:0:0:
96,24,80612,1,10,0:2:0:0:
96,24,80778,1,2,0:2:0:0:
32,128,80944,6,0,B|4:164|4:164|32:256,1,140,6|8,1:2|0:2,0:0:0:0:
68,372,81441,2,0,B|136:384|124:308|192:320,1,140,6|0,1:2|1:2,0:0:0:0:
280,352,81938,1,8,0:2:0:0:
368,264,82104,6,0,P|375:230|384:196,1,70,6|0,1:2|0:0,0:0:0:0:
444,116,82435,1,2,1:2:0:0:
352,36,82601,2,0,P|317:44|280:56,1,70,10|2,0:2|1:2,0:0:0:0:
220,128,82932,2,0,P|184:128|160:104,1,70,10|2,0:2|1:2,0:0:0:0:
100,28,83264,2,0,P|64:28|40:52,1,70,10|2,0:2|1:2,0:0:0:0:
8,144,83595,6,0,P|35:253|60:356,1,210,6|0,1:2|0:0,0:0:0:0:
156,368,84756,5,0,0:0:0:0:
156,368,84921,2,0,B|208:392|264:352|230:324|284:276|340:312,1,210,6|0,1:2|0:0,0:0:0:0:
164,186,86247,5,6,0:2:0:0:
256,192,86413,12,0,88899,0:2:0:0:
