osu file format v14

[General]
AudioFilename: audio.mp3
AudioLeadIn: 0
PreviewTime:61303
Countdown: 0
SampleSet: Soft
StackLeniency: 0.7
Mode: 0
LetterboxInBreaks: 0
WidescreenStoryboard: 1

[Editor]
DistanceSpacing: 1
BeatDivisor: 4
GridSize: 8
TimelineZoom: 1

[Metadata]
Title:Last Chapter (TV Size)
TitleUnicode:ラストチャプター (TV Size)
Artist:nano.RIPE
ArtistUnicode:nano.RIPE
Creator:Sotarks
Version:Kowari's Insane
Source:食戟のソーマ 豪ノ皿
Tags:pop jpop j-pop j Shokugeki no Soma 5th Season Food Wars! The Fifth Plate japanese anime op opening pepekcz kowari sytho female vocals vocalist
BeatmapID:3321763
BeatmapSetID:1623255

[Difficulty]
HPDrainRate:5
CircleSize:4
OverallDifficulty:8
ApproachRate:9
SliderMultiplier:1.7
SliderTickRate:1

[Events]
//Background and Video events
0,0,"bg.jpg",0,0
Video,1409,"video.mp4"
//Break Periods
//Storyboard Layer 0 (Background)
//Storyboard Layer 1 (Fail)
//Storyboard Layer 2 (Pass)
//Storyboard Layer 3 (Foreground)
//Storyboard Layer 4 (Overlay)
//Storyboard Sound Samples

[TimingPoints]
1386,331.491712707182,4,2,22,52,1,0
1386,-125,4,2,22,52,0,0
14645,-100,4,2,22,72,0,0
22435,-100,4,2,22,62,0,0
25253,-111.111111111111,4,2,22,62,0,0
35861,-100,4,2,22,62,0,0
46468,-125,4,2,22,62,0,0
51772,-111.111111111111,4,2,22,62,0,0
57076,-100,4,2,22,72,0,0
58734,-142.857142857143,4,2,22,72,0,0
59562,-100,4,2,22,52,0,0
59728,-100,4,2,22,42,0,0
61220,-100,4,2,69,52,0,0
61551,-100,4,2,22,72,0,0
62380,-100,4,2,22,82,0,0
83595,-100,4,2,22,72,0,0
84839,-100,4,2,22,5,0,0
84921,-100,4,2,22,72,0,0
86247,-100,4,2,22,42,0,0
88899,-100,4,2,22,22,0,0

[Colours]
Combo1 : 209,181,240
Combo2 : 226,150,252
Combo3 : 237,165,203

[HitObjects]
466,295,1386,5,10,0:2:0:0:
379,339,1551,2,0,P|340:328|288:315,1,68,0|0,0:2|0:2,0:0:0:0:
188,242,1883,2,0,B|265:226|325:215,1,136,10|0,0:2|0:2,0:0:0:0:
443,136,2380,6,0,P|425:192|416:220,2,68,10|2|0,0:2|0:2|0:2,0:0:0:0:
322,61,2877,2,0,P|333:105|339:133,2,68,10|0|0,0:2|0:2|0:2,0:0:0:0:
423,38,3374,2,0,P|477:29|506:26,1,68,10|0,0:2|0:2,0:0:0:0:
337,127,3706,2,0,P|303:122|269:116,1,68,10|0,0:2|0:2,0:0:0:0:
269,116,3955,1,0,0:2:0:0:
269,116,4037,5,10,0:2:0:0:
170,169,4203,2,0,P|183:109|191:80,1,68,0|0,0:0|0:2,0:0:0:0:
124,0,4535,2,0,P|92:46|93:135,1,136,10|0,0:2|0:2,0:0:0:0:
154,208,5032,1,10,0:2:0:0:
63,258,5198,2,0,P|13:268|-15:274,1,68,2|0,0:2|0:0,0:0:0:0:
116,342,5529,6,0,B|167:350|167:350|199:371|199:371|267:373,1,136,8|0,0:2|0:2,0:0:0:0:
333,311,6026,2,0,P|343:258|347:226,1,68,10|0,0:2|0:2,0:0:0:0:
242,177,6358,2,0,P|247:210|253:243,1,68,10|2,0:2|0:2,0:0:0:0:
253,243,6606,1,0,0:2:0:0:
253,243,6689,6,0,P|369:222|410:213,1,136,10|2,0:2|0:2,0:0:0:0:
481,91,7187,2,0,P|428:59|352:76,1,136,10|2,0:2|0:2,0:0:0:0:
282,192,7684,1,8,0:2:0:0:
165,132,7850,6,0,P|147:67|134:-16,2,136,2|10|2,0:2|0:2|0:2,0:0:0:0:
66,117,8678,2,0,L|-14:101,1,68,8|2,0:2|0:2,0:0:0:0:
157,227,9011,2,0,L|237:211,1,68,8|2,0:2|0:2,0:0:0:0:
65,367,9341,6,0,P|42:305|60:223,1,136,10|2,0:2|0:2,0:0:0:0:
144,160,9839,2,0,P|155:218|162:253,1,68,10|0,0:2|0:2,0:0:0:0:
243,320,10170,2,0,P|249:286|255:253,1,68,2|8,0:2|0:2,0:0:0:0:
311,174,10502,1,2,0:2:0:0:
311,174,10667,1,0,0:2:0:0:
373,278,10833,6,0,P|415:286|456:295,1,68,8|0,0:2|0:2,0:0:0:0:
508,217,11165,1,2,0:2:0:0:
467,132,11330,1,10,0:2:0:0:
345,195,11496,1,2,0:2:0:0:
455,313,11662,1,10,0:2:0:0:
512,200,11827,1,2,3:2:0:0:
355,350,11994,5,4,1:2:0:0:
157,34,13319,5,4,1:2:0:0:
54,131,13485,2,0,B|108:120|108:120|145:128|145:128|201:117,2,136,8|8|4,0:2|0:3|0:3,0:0:0:0:
18,144,14231,1,4,0:3:0:0:
18,144,14314,2,0,P|4:193|-3:235,1,68,8|0,0:2|1:2,0:0:0:0:
122,378,14645,6,0,P|108:274|95:202,2,170,6|8|2,1:2|0:2|1:2,0:0:0:0:
20,320,15474,1,0,1:2:0:0:
184,183,15640,1,8,0:2:0:0:
230,355,15805,6,0,P|311:363|395:307,1,170,6|0,1:2|1:2,0:0:0:0:
474,231,16303,2,0,P|408:211|370:201,1,85,10|0,0:2|0:2,0:0:0:0:
243,107,16634,1,2,1:2:0:0:
296,255,16800,1,0,1:2:0:0:
369,109,16966,2,0,L|393:1,1,85,10|0,0:2|0:2,0:0:0:0:
158,136,17298,6,0,L|176:218,1,85,2|0,1:2|0:0,0:0:0:0:
229,50,17629,2,0,P|163:32|64:80,1,170,8|2,0:2|1:2,0:0:0:0:
10,227,18126,1,0,1:2:0:0:
158,136,18292,1,8,0:2:0:0:
196,334,18457,6,0,B|257:321|257:321|306:327|306:327|381:312,1,170,6|0,1:2|1:2,0:0:0:0:
490,243,18955,2,0,P|480:304|469:349,1,85,10|0,0:2|0:2,0:0:0:0:
326,176,19286,1,2,1:2:0:0:
471,220,19452,1,0,1:2:0:0:
363,315,19618,1,10,0:2:0:0:
414,108,19783,5,0,1:2:0:0:
414,108,19866,1,0,1:2:0:0:
414,108,19949,2,0,P|354:78|242:107,2,170,6|10|2,1:2|0:2|1:2,0:0:0:0:
174,161,20778,2,0,L|157:70,1,85,0|10,1:2|0:2,0:0:0:0:
327,185,21109,6,0,P|310:305|294:373,1,170,6|2,1:2|1:2,0:0:0:0:
150,384,21606,1,10,0:2:0:0:
219,270,21772,2,0,P|169:260|124:253,1,85,6|0,1:3|0:0,0:0:0:0:
15,169,22104,2,0,P|65:159|110:152,1,85,6|0,1:3|0:0,0:0:0:0:
169,19,22435,5,6,1:2:0:0:
256,192,22518,12,10,24921,0:2:0:0:
431,1,25253,6,0,P|448:53|396:156,1,152.999995330811,6|2,1:2|1:2,0:0:0:0:
275,76,25750,2,0,L|361:57,1,76.4999976654053,2|0,0:2|1:2,0:0:0:0:
488,158,26082,2,0,L|402:139,1,76.4999976654053,2|0,0:2|1:2,0:0:0:0:
326,203,26413,1,2,0:2:0:0:
348,354,26579,6,0,P|336:277|324:192,1,152.999995330811,0|2,0:0|1:2,0:0:0:0:
426,275,27076,2,0,P|463:281|501:287,1,76.4999976654053,2|0,0:2|1:2,0:0:0:0:
348,354,27408,2,0,P|310:360|272:366,1,76.4999976654053,2|0,0:2|1:2,0:0:0:0:
193,207,27739,1,2,0:2:0:0:
81,292,27905,6,0,B|169:264|156:316|247:281,1,152.999995330811,0|2,1:2|1:2,0:0:0:0:
58,378,28402,2,0,P|42:278|31:219,1,152.999995330811,2|0,0:2|0:2,0:0:0:0:
140,119,28899,2,0,L|123:219,1,76.4999976654053,2|2,0:2|0:2,0:0:0:0:
35,124,29231,5,0,0:0:0:0:
125,25,29397,2,0,P|172:35|208:47,1,76.4999976654053,0|0,0:2|1:2,0:0:0:0:
261,129,29728,1,2,0:2:0:0:
261,129,29894,2,0,P|331:117|361:108,1,76.4999976654053,0|0,1:2|0:2,0:0:0:0:
385,26,30225,1,2,1:2:0:0:
496,210,30391,5,2,0:2:0:0:
496,210,30474,1,2,0:2:0:0:
496,210,30557,2,0,B|394:196|394:196|340:227,1,152.999995330811,2|2,1:2|1:2,0:0:0:0:
427,294,31054,2,0,P|437:358|441:396,1,76.4999976654053,2|0,0:2|1:2,0:0:0:0:
257,244,31386,2,0,P|261:206|268:168,1,76.4999976654053,2|0,0:2|1:2,0:0:0:0:
333,323,31717,1,2,0:2:0:0:
222,369,31884,6,0,P|145:374|73:310,1,152.999995330811,0|2,1:2|1:2,0:0:0:0:
150,205,32380,1,2,0:2:0:0:
0,234,32546,2,0,L|153:205,1,152.999995330811,0|2,1:2|1:2,0:0:0:0:
269,190,33043,5,2,0:2:0:0:
269,190,33126,1,0,0:0:0:0:
269,190,33209,2,0,P|280:141|287:98,1,76.4999976654053,2|0,1:2|0:0,0:0:0:0:
121,0,33540,2,0,P|131:66|146:169,1,152.999995330811,2|2,1:2|1:2,0:0:0:0:
223,30,34037,2,0,P|276:21|313:14,1,76.4999976654053,0|0,0:2|1:2,0:0:0:0:
434,131,34369,6,0,B|383:120|383:120|336:126|336:126|267:111,2,152.999995330811,2|2|2,0:2|0:2|0:2,0:0:0:0:
320,233,35198,2,0,P|326:298|334:337,1,76.4999976654053,2|4,1:2|0:3,0:0:0:0:
430,374,35529,2,0,P|437:335|442:296,1,76.4999976654053,10|2,0:2|0:2,0:0:0:0:
379,149,35861,6,0,P|329:140|226:208,1,170,6|10,1:2|0:2,0:0:0:0:
190,335,36358,2,0,P|117:319|93:313,1,85,2|0,1:2|1:2,0:0:0:0:
16,226,36689,2,0,P|57:216|98:207,1,85,2|0,1:2|0:2,0:0:0:0:
246,66,37021,6,0,L|203:240,1,170,10|0,0:2|1:2,0:0:0:0:
125,117,37518,2,0,P|71:101|27:90,1,85,10|2,0:2|0:2,0:0:0:0:
246,66,37850,1,0,1:2:0:0:
246,66,38015,1,2,1:2:0:0:
316,199,38181,2,0,P|398:202|445:160,1,127.5,8|0,0:2|0:0,0:0:0:0:
474,177,38513,6,0,L|444:-6,2,170,0|10|0,1:2|0:2|0:0,0:0:0:0:
374,322,39341,1,0,1:2:0:0:
498,366,39508,1,2,0:2:0:0:
391,224,39673,2,0,B|317:214|286:281|286:281|225:273,1,170,10|0,0:2|1:2,0:0:0:0:
161,347,40170,6,0,P|148:277|146:234,1,85,8|0,0:2|0:0,0:0:0:0:
146,263,40419,1,0,0:0:0:0:
146,263,40502,1,0,1:2:0:0:
241,183,40667,1,0,1:2:0:0:
139,87,40833,2,0,P|82:75|45:69,1,85,8|2,0:2|0:2,0:0:0:0:
25,207,41165,6,0,B|90:196|90:196|132:206|132:206|210:191,1,170,2|10,1:2|0:2,0:0:0:0:
314,147,41662,2,0,P|324:101|331:50,1,85,2|0,0:2|1:2,0:0:0:0:
174,25,41993,1,2,1:2:0:0:
174,25,42325,6,0,L|194:216,1,170,10|0,0:2|1:2,0:0:0:0:
284,313,42822,1,10,0:2:0:0:
118,328,42988,2,0,B|211:297|196:349|291:311,1,170,2|2,0:2|1:2,0:0:0:0:
388,210,43485,2,0,P|320:198|269:191,1,85,10|2,0:2|0:2,0:0:0:0:
455,308,43816,6,0,P|496:254|479:152,2,170,4|8|2,1:2|0:2|1:2,0:0:0:0:
322,143,44645,1,0,1:0:0:0:
471,68,44811,1,8,0:0:0:0:
388,210,44977,6,0,B|332:193|332:193|278:198|278:198|211:181,1,170,6|0,1:2|1:2,0:0:0:0:
45,118,45474,1,10,0:2:0:0:
215,24,45640,2,0,P|243:90|200:209,1,170,6|2,1:2|1:2,0:0:0:0:
107,354,46137,1,10,0:3:0:0:
107,354,46303,1,2,0:2:0:0:
16,287,46468,6,0,P|109:266|172:256,1,136,6|0,1:2|3:2,0:0:0:0:
246,306,46966,1,2,0:2:0:0:
328,378,47131,2,0,P|346:321|314:225,1,136,2|2,3:2|3:2,0:0:0:0:
242,189,47629,6,0,P|246:154|252:117,1,68,2|0,1:2|0:0,0:0:0:0:
344,59,47960,1,0,0:2:0:0:
344,59,48126,2,0,P|355:115|363:156,1,68,2|0,3:2|0:2,0:0:0:0:
374,231,48457,1,2,3:2:0:0:
453,170,48623,1,2,1:2:0:0:
357,125,48789,1,2,3:2:0:0:
351,266,48955,1,2,0:2:0:0:
242,189,49120,6,0,B|182:164|167:208|86:171,1,136,2|0,1:2|3:2,0:0:0:0:
24,120,49618,1,2,0:2:0:0:
140,47,49783,2,0,P|121:135|101:200,1,136,2|2,3:2|3:2,0:0:0:0:
21,277,50280,6,0,P|28:327|34:358,1,68,2|0,1:2|3:2,0:0:0:0:
137,376,50612,1,0,1:2:0:0:
191,279,50778,2,0,P|138:287|106:292,1,68,0|2,3:2|0:2,0:0:0:0:
48,213,51109,1,2,1:2:0:0:
150,127,51275,1,6,0:3:0:0:
269,226,51441,2,0,P|275:275|254:334,1,102,10|0,0:2|0:0,0:0:0:0:
227,359,51772,6,0,B|280:349|280:349|325:355|325:355|405:342,1,152.999995330811,6|0,1:2|1:2,0:0:0:0:
485,245,52269,1,2,0:2:0:0:
330,260,52435,2,0,P|319:212|313:172,1,76.4999976654053,2|0,1:2|0:2,0:0:0:0:
453,85,52768,2,0,P|447:118|436:169,1,76.4999976654053,8|2,0:2|0:2,0:0:0:0:
218,126,53098,6,0,P|261:88|363:92,1,152.999995330811,2|0,1:2|1:2,0:0:0:0:
316,193,53595,1,2,0:2:0:0:
218,126,53761,2,0,P|167:112|137:105,1,76.4999976654053,2|0,1:2|0:2,0:0:0:0:
40,227,54093,1,8,0:2:0:0:
48,68,54258,1,2,0:2:0:0:
161,208,54424,6,0,B|165:316|165:316|103:359,1,152.999995330811,2|2,1:2|1:2,0:0:0:0:
0,287,54921,2,0,P|42:275|90:265,1,76.4999976654053,2|0,0:2|1:2,0:0:0:0:
235,227,55254,2,0,P|197:218|160:207,1,76.4999976654053,2|0,0:2|1:2,0:0:0:0:
48,68,55584,6,0,P|99:27|206:39,1,152.999995330811,14|0,0:2|0:2,0:0:0:0:
282,165,56082,1,10,0:2:0:0:
354,52,56247,1,10,0:2:0:0:
354,52,56330,1,8,0:2:0:0:
354,52,56413,1,10,0:2:0:0:
297,253,56579,1,8,0:3:0:0:
207,118,56745,2,0,P|157:110|114:106,1,76.4999976654053,6|6,0:3|0:3,0:0:0:0:
0,311,57076,5,14,0:2:0:0:
195,229,57242,1,0,1:2:0:0:
84,160,57408,1,0,1:2:0:0:
139,335,57573,1,14,0:2:0:0:
163,110,57739,1,0,1:2:0:0:
0,225,57906,1,0,1:2:0:0:
244,300,58071,2,0,P|238:356|230:395,1,85,14|0,0:2|1:2,0:0:0:0:
0,225,58402,1,14,0:2:0:0:
0,225,58734,6,0,B|81:209|81:209|156:227|156:227|253:212,1,237.999992736817,6|0,1:2|0:0,0:0:0:0:
233,215,59728,1,2,0:2:0:0:
233,215,60723,6,0,P|245:263|257:317,2,85,2|2|2,0:2|0:2|0:2,0:0:0:0:
148,155,61220,1,0,3:2:0:0:
331,84,61385,1,0,3:2:0:0:
225,12,61551,2,0,P|247:147|254:190,1,170,14|2,0:2|0:2,0:0:0:0:
434,338,62048,1,8,0:2:0:0:
434,338,62131,1,8,0:2:0:0:
434,338,62214,1,10,0:2:0:0:
434,338,62297,1,8,0:2:0:0:
434,338,62380,6,0,B|344:313|354:369|240:336,1,170,2|10,1:2|0:2,0:0:0:0:
112,237,62877,2,0,L|102:183,2,42.5,2|8|0,1:2|0:2|1:2,0:0:0:0:
171,384,63209,2,0,P|188:319|197:278,1,85,2|8,1:2|0:2,0:0:0:0:
81,345,63540,6,0,P|19:363|-29:375,1,85,2|0,1:2|0:2,0:0:0:0:
185,250,63872,1,2,1:2:0:0:
76,119,64037,2,0,P|19:178|26:260,1,170,8|0,0:2|1:2,0:0:0:0:
107,206,64535,1,2,1:2:0:0:
133,37,64700,2,0,P|74:21|34:14,1,85,8|2,0:2|0:2,0:0:0:0:
216,143,65032,6,0,B|276:131|276:131|330:139|330:139|397:127,1,170,2|10,1:2|0:2,0:0:0:0:
488,11,65529,1,2,1:2:0:0:
488,11,65612,1,8,0:2:0:0:
488,11,65695,1,0,1:2:0:0:
323,46,65861,2,0,P|272:36|222:22,1,85,2|8,1:2|0:2,0:0:0:0:
354,246,66192,6,0,P|430:212|512:228,1,170,6|0,1:2|1:2,0:0:0:0:
464,384,66689,2,0,P|450:322|444:289,1,85,8|0,0:2|1:2,0:0:0:0:
446,300,66938,1,8,0:2:0:0:
446,300,67021,1,0,1:2:0:0:
415,160,67187,1,0,1:2:0:0:
326,293,67352,1,8,0:2:0:0:
213,179,67518,2,0,L|265:191,1,42.5,2|0,0:2|0:2,0:0:0:0:
346,209,67683,6,0,P|240:234|163:250,1,170,4|10,1:2|0:2,0:0:0:0:
17,288,68181,1,2,1:2:0:0:
17,288,68264,1,8,0:2:0:0:
17,288,68347,1,0,1:2:0:0:
137,355,68513,1,2,1:2:0:0:
39,185,68678,1,8,0:2:0:0:
176,87,68844,5,2,0:2:0:0:
176,87,68927,1,0,0:0:0:0:
176,87,69010,2,0,P|204:170|167:261,1,170,0|10,1:2|0:2,0:0:0:0:
26,184,69507,1,2,1:2:0:0:
26,184,69590,1,8,0:2:0:0:
26,184,69673,2,0,P|96:166|127:158,1,85,0|2,1:2|1:2,0:0:0:0:
258,362,70004,2,0,P|188:344|157:336,1,85,8|2,0:2|0:2,0:0:0:0:
14,270,70336,6,0,B|76:254|76:254|127:261|127:261|202:239,1,170,2|10,1:2|0:2,0:0:0:0:
334,173,70833,1,2,1:2:0:0:
334,173,70916,1,8,0:2:0:0:
334,173,70999,1,0,1:2:0:0:
162,137,71165,1,2,1:2:0:0:
277,12,71330,1,8,0:2:0:0:
202,222,71496,6,0,P|188:300|232:403,1,170,6|0,1:2|1:2,0:0:0:0:
352,244,71993,2,0,P|340:173|329:134,1,85,10|0,0:2|1:2,0:0:0:0:
258,47,72325,1,2,1:2:0:0:
258,47,72408,1,0,1:2:0:0:
258,47,72490,1,8,0:2:0:0:
258,47,72573,1,8,0:2:0:0:
258,47,72656,2,0,L|194:62,1,42.5,10|8,0:2|0:2,0:0:0:0:
97,120,72823,2,0,L|161:135,1,42.5,8|8,0:2|0:2,0:0:0:0:
192,200,72988,6,0,P|173:78|163:20,1,170,6|10,1:2|0:2,0:0:0:0:
282,126,73485,1,2,1:2:0:0:
282,126,73568,1,8,0:2:0:0:
282,126,73651,1,0,1:2:0:0:
97,204,73816,2,0,P|80:260|69:300,1,85,2|8,1:2|0:2,0:0:0:0:
225,216,74148,1,2,0:2:0:0:
270,357,74314,6,0,P|199:340|164:330,1,85,0|0,1:2|0:2,0:0:0:0:
10,187,74645,2,0,P|92:153|147:179,1,127.5,10|0,0:2|0:0,0:0:0:0:
152,189,74977,2,0,L|141:93,1,85,2|0,1:2|1:2,0:0:0:0:
31,0,75308,2,0,L|21:84,1,85,10|0,0:2|0:2,0:0:0:0:
241,134,75640,6,0,B|296:121|296:121|355:170|414:142,1,170,2|10,1:2|0:2,0:0:0:0:
495,28,76137,1,2,1:2:0:0:
495,28,76220,1,8,0:2:0:0:
495,28,76303,1,0,1:2:0:0:
442,222,76468,1,2,1:2:0:0:
374,67,76634,1,8,0:2:0:0:
510,287,76800,6,0,P|451:307|346:256,1,170,6|0,1:2|1:2,0:0:0:0:
262,130,77297,2,0,P|251:195|245:231,1,85,10|0,0:2|1:2,0:0:0:0:
113,380,77629,2,0,P|105:338|98:296,1,85,10|0,0:2|1:2,0:0:0:0:
157,58,77960,2,0,P|164:99|171:141,1,85,14|0,0:2|0:2,0:0:0:0:
7,353,78292,6,0,P|27:219|36:169,1,170,4|8,1:2|0:2,0:0:0:0:
157,58,78789,1,2,0:2:0:0:
157,58,78872,1,2,0:2:0:0:
157,58,78955,1,2,1:2:0:0:
208,193,79120,1,2,1:2:0:0:
45,77,79286,1,10,0:2:0:0:
138,268,79452,5,2,0:2:0:0:
138,268,79535,1,0,0:2:0:0:
138,268,79618,2,0,P|231:281|301:228,1,170,2|8,1:2|0:2,0:0:0:0:
390,103,80115,2,0,L|402:165,1,42.5,2|2,1:2|0:2,0:0:0:0:
426,234,80281,1,2,1:2:0:0:
485,68,80446,1,2,1:2:0:0:
311,166,80612,1,10,0:2:0:0:
512,242,80778,1,2,0:2:0:0:
353,25,80944,6,0,B|292:9|292:9|246:20|246:20|187:8,1,170,6|8,1:2|0:2,0:0:0:0:
0,180,81441,2,0,P|83:162|163:135,1,170,6|0,1:2|1:2,0:0:0:0:
83,58,81938,1,8,0:2:0:0:
252,206,82104,6,0,P|271:145|278:108,1,85,6|0,1:2|0:0,0:0:0:0:
149,237,82435,1,2,1:2:0:0:
261,368,82601,2,0,L|368:354,1,85,10|2,0:2|1:2,0:0:0:0:
475,258,82932,1,10,0:2:0:0:
301,192,83098,1,2,1:2:0:0:
409,93,83264,2,0,P|403:50|392:10,1,85,10|2,0:2|1:2,0:0:0:0:
382,242,83595,5,6,1:2:0:0:
256,192,83678,12,0,84839,0:2:0:0:
181,124,84921,5,6,1:2:0:0:
256,192,85004,12,0,86165,0:0:0:0:
256,192,86248,5,6,0:2:0:0:
256,192,86330,12,0,88899,0:2:0:0:
