osu file format v14

[General]
AudioFilename: audio.mp3
AudioLeadIn: 0
PreviewTime: 61303
Countdown: 0
SampleSet: Soft
StackLeniency: 0.7
Mode: 0
LetterboxInBreaks: 0
WidescreenStoryboard: 0

[Editor]
DistanceSpacing: 1
BeatDivisor: 4
GridSize: 8
TimelineZoom: 1

[Metadata]
Title:Last Chapter (TV Size)
TitleUnicode:ラストチャプター (TV Size)
Artist:nano.RIPE
ArtistUnicode:nano.RIPE
Creator:Sotarks
Version:Expert
Source:食戟のソーマ 豪ノ皿
Tags:pop jpop j-pop j Shokugeki no Soma 5th Season Food Wars! The Fifth Plate japanese anime op opening pepekcz kowari sytho female vocals vocalist
BeatmapID:3314328
BeatmapSetID:1623255

[Difficulty]
HPDrainRate:5.2
CircleSize:4
OverallDifficulty:8.8
ApproachRate:9.1
SliderMultiplier:1.82
SliderTickRate:1

[Events]
//Background and Video events
0,0,"bg.jpg",0,0
Video,1409,"video.mp4"
//Break Periods
//Storyboard Layer 0 (Background)
//Storyboard Layer 1 (Fail)
//Storyboard Layer 2 (Pass)
//Storyboard Layer 3 (Foreground)
//Storyboard Layer 4 (Overlay)
//Storyboard Sound Samples

[TimingPoints]
1386,331.491712707182,4,2,22,52,1,0
1386,-138.888888888889,4,2,22,52,0,0
14645,-98.0392156862746,4,2,22,72,0,0
22435,-138.888888888889,4,2,22,62,0,0
25253,-121.951219512195,4,2,22,62,0,0
35861,-108.695652173913,4,2,22,62,0,0
46468,-121.951219512195,4,2,22,62,0,0
57076,-121.951219512195,4,2,22,72,0,0
58734,-161.290322580645,4,2,22,72,0,0
59562,-161.290322580645,4,2,22,52,0,0
59728,-238.095238095238,4,2,22,42,0,0
61551,-108.695652173913,4,2,22,72,0,0
62380,-98.0392156862745,4,2,22,82,0,0
83595,-192.307692307692,4,2,22,72,0,0
84839,-192.307692307692,4,2,22,5,0,0
84921,-238.095238095238,4,2,22,72,0,0
86247,-238.095238095238,4,2,22,42,0,0
88899,-238.095238095238,4,2,22,22,0,0

[Colours]
Combo1 : 209,181,240
Combo2 : 226,150,252
Combo3 : 237,165,203

[HitObjects]
68,250,1386,6,0,P|109:258|149:266,1,65.5200015996094,10|0,0:2|0:2,0:0:0:0:
282,169,1717,1,0,0:2:0:0:
188,107,1883,2,0,P|201:180|216:261,1,131.040003199219,10|0,0:2|0:2,0:0:0:0:
341,332,2380,1,10,0:2:0:0:
243,381,2546,2,0,P|248:349|256:303,1,65.5200015996094,2|0,0:2|0:2,0:0:0:0:
377,225,2877,6,0,P|336:233|296:241,1,65.5200015996094,10|0,0:2|0:2,0:0:0:0:
396,116,3209,1,0,0:2:0:0:
266,62,3374,2,0,P|277:92|287:123,1,65.5200015996094,10|0,0:2|0:2,0:0:0:0:
162,199,3706,2,0,P|172:168|183:137,1,65.5200015996094,10|0,0:2|0:2,0:0:0:0:
193,112,3955,1,0,0:2:0:0:
193,112,4037,6,0,P|131:87|61:122,1,131.040003199219,10|0,0:2|0:2,0:0:0:0:
16,273,4535,2,0,P|8:241|0:209,1,65.5200015996094,10|0,0:2|0:2,0:0:0:0:
150,308,4866,1,0,0:2:0:0:
55,381,5032,1,10,0:2:0:0:
262,326,5198,6,0,P|332:335|407:344,1,131.040003199219,2|8,0:2|0:2,0:0:0:0:
488,210,5695,2,0,P|447:220|400:232,1,65.5200015996094,2|0,0:2|0:2,0:0:0:0:
262,154,6026,2,0,P|291:184|325:219,1,65.5200015996094,10|0,0:2|0:2,0:0:0:0:
391,128,6358,2,0,P|402:87|415:40,1,65.5200015996094,10|2,0:2|0:2,0:0:0:0:
420,38,6606,1,0,0:2:0:0:
420,38,6689,6,0,P|355:10|276:37,1,131.040003199219,10|2,0:2|0:2,0:0:0:0:
116,50,7187,2,0,P|150:59|190:70,1,65.5200015996094,10|0,0:2|0:2,0:0:0:0:
243,229,7518,1,2,0:2:0:0:
133,166,7684,1,8,0:2:0:0:
290,62,7850,2,0,P|281:102|275:132,1,65.5200015996094,2|0,0:2|0:2,0:0:0:0:
397,237,8181,2,0,P|390:204|383:172,1,65.5200015996094,10|0,0:2|0:2,0:0:0:0:
318,328,8513,2,0,P|280:337|240:345,1,65.5200015996094,2|8,0:2|0:2,0:0:0:0:
69,233,8844,1,2,0:2:0:0:
132,337,9010,1,8,0:2:0:0:
243,229,9176,1,2,0:2:0:0:
143,121,9341,6,0,P|70:133|-9:147,1,131.040003199219,10|2,0:2|0:2,0:0:0:0:
145,16,9839,2,0,P|176:22|218:31,1,65.5200015996094,10|0,0:2|0:2,0:0:0:0:
400,117,10170,1,2,0:2:0:0:
326,12,10336,1,8,0:2:0:0:
247,127,10502,1,2,0:2:0:0:
362,219,10667,5,0,0:2:0:0:
242,286,10833,2,0,P|248:255|256:215,1,65.5200015996094,8|0,0:2|0:2,0:0:0:0:
304,384,11165,1,2,0:2:0:0:
153,317,11330,1,10,0:2:0:0:
53,380,11496,1,2,0:2:0:0:
167,228,11662,1,10,0:2:0:0:
45,151,11827,5,2,3:2:0:0:
45,151,11910,1,0,3:2:0:0:
45,151,11993,2,0,P|84:190|220:158,1,196.560004798828,4|0,1:2|0:2,0:0:0:0:
373,94,12656,1,2,0:2:0:0:
305,155,12822,1,2,0:2:0:0:
464,105,12988,1,2,0:2:0:0:
366,7,13153,1,2,3:2:0:0:
366,7,13236,1,0,3:2:0:0:
366,7,13319,5,4,1:2:0:0:
214,47,13485,2,0,P|250:54|287:61,1,65.5200015996094,8|0,0:2|0:2,0:0:0:0:
112,111,13816,2,0,P|103:76|93:33,1,65.5200015996094,8|0,0:3|0:2,0:0:0:0:
212,168,14148,1,4,0:3:0:0:
206,200,14230,1,4,0:3:0:0:
201,232,14313,1,8,0:2:0:0:
305,155,14479,1,0,1:2:0:0:
243,326,14645,6,0,P|179:348|79:274,1,185.640001133057,6|8,1:2|0:2,0:0:0:0:
212,168,15142,1,0,1:2:0:0:
212,168,15225,1,8,0:2:0:0:
212,168,15308,1,2,1:2:0:0:
112,111,15474,1,0,1:2:0:0:
304,37,15640,1,8,0:2:0:0:
177,238,15805,6,0,P|166:149|152:44,1,185.640001133057,6|0,1:2|1:2,0:0:0:0:
358,124,16303,2,0,P|308:140|264:153,1,92.8200005665283,10|0,0:2|0:2,0:0:0:0:
380,288,16634,1,2,1:2:0:0:
177,238,16800,1,0,1:2:0:0:
251,377,16966,2,0,P|259:334|269:280,1,92.8200005665283,10|0,0:2|0:2,0:0:0:0:
78,169,17297,6,0,P|49:256|122:333,2,185.640001133057,2|8|2,1:2|0:2|1:2,0:0:0:0:
283,88,18126,1,0,1:2:0:0:
140,12,18292,1,8,0:2:0:0:
217,235,18457,6,0,B|245:193|316:180|316:180|346:213|406:203,1,185.640001133057,6|0,1:2|1:2,0:0:0:0:
478,355,18955,2,0,P|430:345|370:331,1,92.8200005665283,10|0,0:2|0:2,0:0:0:0:
485,215,19286,1,2,1:2:0:0:
267,327,19452,1,0,1:2:0:0:
378,205,19618,1,10,0:2:0:0:
339,108,19783,5,0,1:2:0:0:
339,108,19866,1,0,1:2:0:0:
339,108,19949,2,0,P|293:118|248:127,1,92.8200005665283,6|0,1:2|0:2,0:0:0:0:
61,192,20281,2,0,P|75:144|93:87,1,92.8200005665283,10|0,0:2|0:2,0:0:0:0:
255,265,20612,1,2,1:2:0:0:
75,356,20778,1,0,1:2:0:0:
167,196,20944,1,10,0:2:0:0:
0,75,21109,5,6,1:2:0:0:
0,75,21441,1,2,1:2:0:0:
140,277,21606,1,10,0:2:0:0:
322,39,21772,1,6,1:3:0:0:
3,222,22104,1,6,1:3:0:0:
333,384,22435,6,0,P|339:321|347:239,1,131.040003199219,6|0,1:2|0:2,0:0:0:0:
462,332,22932,2,0,P|445:237|427:134,1,196.560004798828,0|0,1:2|0:2,0:0:0:0:
403,23,23595,1,0,1:2:0:0:
307,127,23761,2,0,L|267:120,1,32.7600007998047,2|2,0:2|0:2,0:0:0:0:
215,74,23927,6,0,P|142:86|68:97,2,131.040003199219,2|0|2,0:2|1:2|0:2,0:0:0:0:
95,201,24756,1,6,0:3:0:0:
278,275,24921,1,10,0:2:0:0:
200,155,25087,1,2,0:2:0:0:
102,361,25253,6,0,P|143:351|186:341,1,74.6200011386109,6|0,1:2|0:2,0:0:0:0:
357,384,25584,1,2,1:2:0:0:
278,275,25750,2,0,P|270:324|263:364,1,74.6200011386109,2|0,0:2|1:2,0:0:0:0:
427,277,26082,2,0,P|420:240|414:203,1,74.6200011386109,2|0,0:2|1:2,0:0:0:0:
274,70,26413,6,0,P|322:108|423:82,1,149.240002277222,2|0,0:2|0:2,0:0:0:0:
199,173,26910,1,2,1:2:0:0:
321,271,27076,2,0,P|314:234|308:197,1,74.6200011386109,2|0,0:2|1:2,0:0:0:0:
140,286,27408,1,2,0:2:0:0:
262,384,27573,1,0,1:2:0:0:
37,322,27739,1,2,0:2:0:0:
199,173,27905,6,0,P|226:106|183:25,1,149.240002277222,0|2,1:2|1:2,0:0:0:0:
15,141,28402,1,2,0:2:0:0:
115,216,28568,2,0,P|109:182|100:129,1,74.6200011386109,0|0,1:2|0:2,0:0:0:0:
0,276,28899,1,2,0:2:0:0:
100,351,29065,6,0,P|167:376|250:329,1,149.240002277222,2|0,0:2|0:2,0:0:0:0:
375,286,29562,1,0,1:2:0:0:
228,209,29728,2,0,P|266:200|314:186,1,74.6200011386109,2|0,0:2|1:2,0:0:0:0:
463,120,30060,1,0,0:2:0:0:
377,24,30225,2,0,P|369:73|363:110,1,74.6200011386109,2|2,1:2|0:2,0:0:0:0:
357,130,30474,1,2,0:2:0:0:
357,130,30557,6,0,P|296:154|212:100,1,149.240002277222,2|2,1:2|1:2,0:0:0:0:
26,67,31054,2,0,P|65:59|112:48,1,74.6200011386109,2|0,0:2|1:2,0:0:0:0:
61,205,31385,1,2,0:2:0:0:
224,119,31551,1,0,1:2:0:0:
193,316,31717,6,0,P|185:278|176:233,1,74.6200011386109,2|0,0:2|1:2,0:0:0:0:
399,344,32048,1,0,0:2:0:0:
275,267,32214,1,2,1:2:0:0:
404,153,32380,2,0,P|396:189|388:226,1,74.6200011386109,2|0,0:2|1:2,0:0:0:0:
274,107,32711,1,0,0:2:0:0:
398,38,32877,1,2,1:2:0:0:
183,84,33043,1,2,0:2:0:0:
275,267,33209,6,0,P|221:230|129:244,2,149.240002277222,2|2|2,1:2|1:2|1:2,0:0:0:0:
388,225,34037,1,0,0:2:0:0:
264,351,34203,1,0,1:2:0:0:
459,322,34369,6,0,P|416:312|371:301,1,74.6200011386109,2|0,0:2|1:2,0:0:0:0:
226,187,34700,2,0,P|262:178|298:169,1,74.6200011386109,2|0,0:2|1:2,0:0:0:0:
443,71,35032,1,2,0:2:0:0:
290,0,35198,1,2,1:2:0:0:
470,159,35363,1,4,0:3:0:0:
283,242,35529,2,0,P|290:208|301:157,1,74.6200011386109,10|2,0:2|0:2,0:0:0:0:
305,140,35778,1,2,0:2:0:0:
305,140,35861,6,0,P|230:111|146:151,1,167.439994379151,6|10,1:2|0:2,0:0:0:0:
0,229,36358,1,2,1:2:0:0:
8,187,36440,1,0,1:2:0:0:
16,146,36523,1,0,1:2:0:0:
143,299,36689,2,0,P|99:310|53:322,1,83.7199971895753,2|0,1:2|0:2,0:0:0:0:
226,206,37021,6,0,P|306:219|408:235,1,167.439994379151,10|0,0:2|1:2,0:0:0:0:
490,57,37518,1,10,0:2:0:0:
378,119,37684,2,0,L|362:24,1,83.7199971895753,2|0,0:2|1:2,0:0:0:0:
226,206,38015,1,2,1:2:0:0:
283,90,38181,1,8,0:2:0:0:
107,137,38347,1,2,0:2:0:0:
187,36,38513,6,0,P|143:26|87:14,1,83.7199971895753,0|0,1:2|0:2,0:0:0:0:
226,206,38844,1,10,0:2:0:0:
70,300,39010,2,0,P|88:221|107:135,1,167.439994379151,2|0,0:2|1:2,0:0:0:0:
252,282,39507,1,2,0:2:0:0:
181,374,39673,6,0,P|172:330|159:267,1,83.7199971895753,10|0,0:2|0:2,0:0:0:0:
323,192,40004,1,0,1:2:0:0:
186,98,40170,2,0,P|259:117|330:47,1,167.439994379151,8|0,0:2|1:2,0:0:0:0:
206,210,40667,1,0,1:2:0:0:
339,274,40833,2,0,P|330:232|322:191,1,83.7199971895753,8|2,0:2|0:2,0:0:0:0:
455,5,41165,6,0,P|442:94|427:190,1,167.439994379151,2|10,1:2|0:2,0:0:0:0:
512,366,41662,2,0,P|465:354|408:340,1,83.7199971895753,2|0,0:2|1:2,0:0:0:0:
240,212,41993,2,0,P|280:201|321:191,1,83.7199971895753,2|0,1:2|0:2,0:0:0:0:
268,357,42325,6,0,P|189:379|117:313,1,167.439994379151,10|0,0:2|1:2,0:0:0:0:
240,212,42822,1,10,0:2:0:0:
102,128,42988,2,0,P|110:169|118:210,1,83.7199971895753,2|0,0:2|1:2,0:0:0:0:
262,101,43319,1,2,1:2:0:0:
153,0,43485,1,10,0:2:0:0:
240,212,43651,5,2,0:2:0:0:
240,212,43734,1,2,0:2:0:0:
240,212,43816,2,0,P|311:232|391:166,2,167.439994379151,4|8|2,1:2|0:2|1:2,0:0:0:0:
302,379,44645,1,2,1:2:0:0:
118,211,44811,1,10,0:2:0:0:
0,344,44977,6,0,P|77:329|196:308,1,167.439994379151,6|0,1:2|1:2,0:0:0:0:
0,136,45474,1,10,0:2:0:0:
172,40,45640,1,2,1:2:0:0:
118,211,45805,2,0,P|109:169|101:128,1,83.7199971895753,2|2,0:2|1:2,0:0:0:0:
319,236,46137,1,10,0:3:0:0:
214,150,46303,2,0,L|258:138,1,41.8599985947876,2|2,0:2|0:2,0:0:0:0:
339,88,46468,6,0,P|328:170|316:254,1,149.240002277222,6|0,1:2|3:2,0:0:0:0:
376,362,46966,1,2,0:2:0:0:
270,327,47131,2,0,P|224:337|166:349,1,74.6200011386109,2|0,3:2|0:2,0:0:0:0:
55,255,47463,1,2,3:2:0:0:
136,208,47629,6,0,P|126:281|115:355,1,149.240002277222,2|0,1:2|0:2,0:0:0:0:
233,235,48126,2,0,P|224:198|214:158,1,74.6200011386109,2|0,3:2|0:2,0:0:0:0:
47,70,48457,1,2,3:2:0:0:
138,126,48623,1,2,1:2:0:0:
191,33,48789,1,2,3:2:0:0:
106,0,48955,1,2,0:2:0:0:
215,162,49120,6,0,P|271:177|344:120,1,149.240002277222,2|0,1:2|3:2,0:0:0:0:
487,222,49618,1,2,0:2:0:0:
419,137,49783,2,0,P|409:173|401:209,1,74.6200011386109,2|0,3:2|0:2,0:0:0:0:
479,313,50115,1,2,3:2:0:0:
349,261,50281,6,0,P|306:271|269:280,1,74.6200011386109,2|0,1:2|3:2,0:0:0:0:
206,354,50612,2,0,P|169:345|133:336,1,74.6200011386109,0|0,1:2|3:2,0:0:0:0:
66,244,50944,1,2,0:2:0:0:
66,244,51026,1,2,0:2:0:0:
66,244,51109,1,2,1:2:0:0:
168,196,51275,1,6,0:3:0:0:
42,79,51441,1,10,0:2:0:0:
260,152,51606,1,2,0:2:0:0:
158,316,51772,6,0,P|147:248|133:149,1,149.240002277222,6|0,1:2|1:2,0:0:0:0:
274,39,52269,1,2,0:2:0:0:
159,7,52435,2,0,P|177:51|191:87,1,74.6200011386109,2|0,1:2|0:2,0:0:0:0:
311,217,52767,1,8,0:2:0:0:
135,168,52932,1,2,0:2:0:0:
274,39,53098,6,0,P|356:20|424:68,1,149.240002277222,2|0,1:2|1:2,0:0:0:0:
487,179,53595,1,2,0:2:0:0:
356,132,53761,1,2,1:2:0:0:
512,263,53927,1,0,0:2:0:0:
308,357,54093,1,8,0:2:0:0:
268,199,54258,1,2,0:2:0:0:
131,284,54424,6,0,P|168:292|227:307,1,74.6200011386109,2|0,1:2|0:2,0:0:0:0:
138,140,54756,1,2,1:2:0:0:
259,24,54921,2,0,P|248:68|235:114,1,74.6200011386109,2|0,0:2|1:2,0:0:0:0:
396,191,55253,2,0,P|386:155|377:118,1,74.6200011386109,2|0,0:2|1:2,0:0:0:0:
203,300,55584,6,0,P|255:348|345:325,1,149.240002277222,14|0,0:2|0:2,0:0:0:0:
119,384,56082,1,10,0:2:0:0:
280,249,56247,1,10,0:2:0:0:
272,212,56329,1,8,0:2:0:0:
264,176,56412,1,10,0:2:0:0:
170,39,56579,1,8,0:3:0:0:
325,88,56745,1,6,0:3:0:0:
151,196,56910,1,6,0:3:0:0:
369,340,57076,5,14,0:2:0:0:
264,176,57242,1,0,1:2:0:0:
123,342,57408,1,0,1:2:0:0:
375,182,57573,1,14,0:2:0:0:
170,39,57739,1,0,1:2:0:0:
66,247,57905,1,0,1:2:0:0:
318,87,58070,1,14,0:2:0:0:
66,247,58236,1,0,1:2:0:0:
369,340,58402,1,14,0:2:0:0:
369,340,58734,6,0,B|299:387|217:342|253:316|183:250|95:306,1,282.099988808289,6|0,1:2|0:2,0:0:0:0:
12,344,59728,6,0,P|23:268|40:146,1,191.099994168091,2|0,0:2|0:2,0:0:0:0:
92,26,60723,1,2,0:2:0:0:
4,56,60888,1,2,0:2:0:0:
139,145,61054,1,2,0:2:0:0:
195,47,61220,2,0,L|226:54,1,19.1099994168091,0|0,3:2|0:2,0:0:0:0:
289,88,61385,2,0,L|307:83,1,19.1099994168091,0|0,3:2|0:2,0:0:0:0:
403,17,61551,6,0,P|389:111|372:214,1,167.439994379151,14|2,0:2|0:2,0:0:0:0:
235,367,62048,1,8,0:2:0:0:
201,342,62130,1,8,0:2:0:0:
184,305,62213,1,10,0:2:0:0:
187,263,62296,1,8,0:2:0:0:
210,229,62380,6,0,P|254:234|323:244,1,92.8200005665283,2|0,1:2|0:2,0:0:0:0:
480,118,62711,1,10,0:2:0:0:
325,56,62877,1,2,1:2:0:0:
330,78,62959,1,8,0:2:0:0:
336,100,63042,1,0,1:2:0:0:
448,0,63209,1,2,1:2:0:0:
222,88,63374,1,8,0:2:0:0:
412,228,63540,6,0,P|420:183|429:127,1,92.8200005665283,2|0,1:2|0:2,0:0:0:0:
271,215,63872,1,2,1:2:0:0:
403,338,64037,1,8,0:2:0:0:
211,306,64203,1,2,1:2:0:0:
188,312,64285,1,8,0:2:0:0:
166,319,64368,1,0,1:2:0:0:
271,215,64535,1,2,1:2:0:0:
61,318,64700,1,8,0:2:0:0:
170,182,64866,1,2,0:2:0:0:
30,43,65032,6,0,P|53:137|75:228,1,185.640001133057,2|10,1:2|0:2,0:0:0:0:
192,80,65529,1,2,1:2:0:0:
170,73,65612,1,8,0:2:0:0:
147,67,65694,1,0,1:2:0:0:
281,212,65861,1,2,1:2:0:0:
360,46,66026,1,8,0:2:0:0:
170,182,66192,6,0,P|143:271|188:361,1,185.640001133057,6|0,1:2|1:2,0:0:0:0:
371,232,66689,2,0,P|323:222|271:209,1,92.8200005665283,8|0,0:2|1:2,0:0:0:0:
280,211,66938,1,8,0:2:0:0:
280,211,67021,1,0,1:2:0:0:
441,331,67187,1,0,1:2:0:0:
369,121,67352,1,8,0:2:0:0:
170,182,67518,2,0,L|159:131,1,46.4100002832642,2|0,0:2|0:2,0:0:0:0:
138,29,67684,6,0,P|48:24|11:118,1,185.640001133057,4|10,1:2|0:2,0:0:0:0:
72,264,68181,2,0,L|87:207,2,46.4100002832642,2|8|0,1:2|0:2|1:2,0:0:0:0:
227,109,68513,1,2,1:2:0:0:
0,190,68678,1,8,0:2:0:0:
265,275,68844,1,2,0:2:0:0:
149,353,69010,6,0,P|158:307|169:248,1,92.8200005665283,0|0,1:2|1:2,0:0:0:0:
365,130,69341,1,10,0:2:0:0:
215,64,69507,2,0,L|226:108,2,46.4100002832642,2|8|0,1:2|0:2|1:2,0:0:0:0:
356,217,69839,1,2,1:2:0:0:
142,148,70004,1,8,0:2:0:0:
341,43,70170,1,2,0:2:0:0:
249,0,70336,6,0,P|240:91|229:210,1,185.640001133057,2|10,1:2|0:2,0:0:0:0:
149,371,70833,2,0,L|134:307,1,46.4100002832642,2|8,1:2|0:2,0:0:0:0:
107,201,70999,1,0,1:2:0:0:
36,313,71165,1,2,1:2:0:0:
231,184,71330,1,8,0:2:0:0:
27,93,71496,1,6,1:2:0:0:
27,93,71827,5,0,1:2:0:0:
174,0,71993,2,0,P|163:52|151:108,1,92.8200005665283,10|0,0:2|1:2,0:0:0:0:
144,122,72242,1,8,0:2:0:0:
144,122,72325,2,0,L|199:112,1,46.4100002832642,2|0,1:2|1:2,0:0:0:0:
338,22,72490,2,0,L|319:77,1,46.4100002832642,8|8,0:2|0:2,0:0:0:0:
294,255,72656,1,10,0:2:0:0:
290,232,72738,1,8,0:2:0:0:
287,209,72821,1,8,0:2:0:0:
283,186,72904,1,8,0:2:0:0:
280,163,72988,6,0,P|348:136|466:189,1,185.640001133057,6|10,1:2|0:2,0:0:0:0:
382,348,73485,1,2,1:2:0:0:
359,343,73567,1,8,0:2:0:0:
336,339,73650,1,0,1:2:0:0:
403,233,73816,1,2,1:2:0:0:
208,279,73982,1,8,0:2:0:0:
280,163,74148,1,2,0:2:0:0:
231,384,74314,5,0,1:2:0:0:
63,284,74479,1,0,0:2:0:0:
182,180,74645,2,0,P|174:235|167:281,1,92.8200005665283,10|0,0:2|0:2,0:0:0:0:
18,123,74977,2,0,P|67:108|114:93,1,92.8200005665283,2|0,1:2|1:2,0:0:0:0:
283,27,75308,2,0,P|234:12|187:-3,1,92.8200005665283,10|0,0:2|0:2,0:0:0:0:
304,183,75640,6,0,P|394:202|461:122,1,185.640001133057,2|10,1:2|0:2,0:0:0:0:
338,288,76137,1,2,1:2:0:0:
342,310,76219,1,8,0:2:0:0:
347,333,76302,1,0,1:2:0:0:
426,228,76468,1,2,1:2:0:0:
208,153,76634,1,8,0:2:0:0:
332,0,76800,6,0,P|317:100|301:205,1,185.640001133057,6|0,1:2|1:2,0:0:0:0:
168,345,77297,1,10,0:2:0:0:
426,228,77463,1,0,1:2:0:0:
173,68,77629,1,10,0:2:0:0:
270,213,77794,1,0,1:2:0:0:
419,30,77960,2,0,P|369:13|320:-4,1,92.8200005665283,14|0,0:2|0:2,0:0:0:0:
108,146,78292,6,0,B|154:100|218:93|218:93|249:118|298:126,1,185.640001133057,4|8,1:2|0:2,0:0:0:0:
148,256,78789,1,2,0:2:0:0:
148,256,78872,1,2,0:2:0:0:
148,256,78955,2,0,P|102:246|57:236,1,92.8200005665283,2|2,1:2|1:2,0:0:0:0:
282,220,79286,1,10,0:2:0:0:
144,368,79452,2,0,L|201:359,1,46.4100002832642,2|0,0:2|0:2,0:0:0:0:
292,341,79618,5,2,1:2:0:0:
148,256,79783,1,0,1:2:0:0:
347,137,79949,2,0,P|301:127|251:115,1,92.8200005665283,8|2,0:2|1:2,0:0:0:0:
256,116,80198,1,2,0:2:0:0:
256,116,80281,1,2,1:2:0:0:
429,65,80446,1,2,1:2:0:0:
282,220,80612,1,10,0:2:0:0:
172,77,80778,1,2,0:2:0:0:
286,2,80944,5,6,1:2:0:0:
78,275,81275,1,8,0:2:0:0:
200,366,81441,2,0,P|184:279|162:168,1,185.640001133057,6|0,1:2|1:2,0:0:0:0:
428,281,81938,1,8,0:2:0:0:
335,67,82104,1,6,1:2:0:0:
335,67,82435,5,2,1:2:0:0:
274,274,82601,1,10,0:2:0:0:
441,182,82767,1,2,1:2:0:0:
238,73,82932,1,10,0:2:0:0:
406,287,83098,1,2,1:2:0:0:
428,281,83180,1,2,1:2:0:0:
450,275,83263,1,10,0:2:0:0:
319,168,83430,1,2,1:2:0:0:
319,168,83513,1,0,1:2:0:0:
319,168,83595,6,0,B|235:121|128:171|191:232|72:293|-3:216,1,354.899997833862,6|0,1:2|0:2,0:0:0:0:
3,221,84921,6,0,P|151:240|277:340,1,305.759990668946,6|6,1:2|0:2,0:0:0:0:
256,192,86330,12,0,88899,0:2:0:0:
