osu file format v14

[General]
AudioFilename: audio.mp3
AudioLeadIn: 0
PreviewTime: 64628
Countdown: 0
SampleSet: Soft
StackLeniency: 0.7
Mode: 0
LetterboxInBreaks: 0
WidescreenStoryboard: 1

[Editor]
Bookmarks: 40878
DistanceSpacing: 1
BeatDivisor: 4
GridSize: 16
TimelineZoom: 1.5

[Metadata]
Title:Kodama Kotodama (TV Size)
TitleUnicode:こだまことだま (TV Size)
Artist:nano.RIPE
ArtistUnicode:nano.RIPE
Creator:oxisso
Version:Normal
Source:のんのんびより りぴーと
Tags:opening op Japanese Anime Non Non Biyori Repeat Second 2nd Season 2 J-Pop JPop Pop J-Rock JRock Rock nano RIPE nanoRIPE 宮内れんげ Miyauchi Renge 一条蛍 Ichijō Hotaru Ichijou Ichijo 越谷夏海 Koshigaya Natsumi 越谷小鞠 Koshigaya Komari きみコ Kimiko 福富雅之 Masayuki Fukutomi ササキジュン Sasaki Jun アベノブユキ Nobuyuki Abe 青山友樹 Aoyama Tomoki
BeatmapID:2476764
BeatmapSetID:1188573

[Difficulty]
HPDrainRate:3
CircleSize:3
OverallDifficulty:4
ApproachRate:5.5
SliderMultiplier:1.3
SliderTickRate:1

[Events]
//Background and Video events
0,0,"bg.jpg.jpg",0,0
Video,50,"video.mp4.mp4"
//Break Periods
//Storyboard Layer 0 (Background)
//Storyboard Layer 1 (Fail)
//Storyboard Layer 2 (Pass)
//Storyboard Layer 3 (Foreground)
//Storyboard Layer 4 (Overlay)
//Storyboard Sound Samples

[TimingPoints]
628,500,4,2,1,50,1,0
628,-111.111111111111,4,2,1,50,0,0
12628,-111.111111111111,4,2,1,30,0,0
14628,526.315789473684,4,2,1,50,1,0
15680,474.308300395257,4,2,1,55,1,0
15680,-111.111111111111,4,2,1,55,0,0
16628,500,4,2,1,50,1,0
16628,-111.111111111111,4,2,1,50,0,0
24628,-111.111111111111,4,2,1,65,0,0
32628,-111.111111111111,4,2,1,60,0,0
64128,-100,4,2,1,40,0,0
64503,-100,4,2,1,20,0,0
64628,-100,4,2,1,70,0,1
80628,-111.111111111111,4,2,1,60,0,0
81128,-111.111111111111,4,2,1,50,0,0
82128,-111.111111111111,4,2,1,60,0,0
86628,-100,4,2,1,50,0,0
88628,-100,4,2,1,20,0,0
88878,-100,4,2,1,5,0,0

[Colours]
Combo1 : 255,128,128
Combo2 : 128,255,255
Combo3 : 255,255,128
Combo4 : 0,255,128

[HitObjects]
84,40,628,5,0,3:2:0:0:
75,97,878,1,2,1:2:0:0:
71,155,1128,2,0,L|146:162,1,58.4999982147217,8|2,0:2|1:2,0:0:0:0:
187,166,1628,2,0,L|193:103,2,58.4999982147217,0|0|10,3:2|1:2|0:2,0:0:0:0:
195,282,2628,5,0,3:2:0:0:
245,311,2878,1,2,1:2:0:0:
301,327,3128,2,0,L|366:321,1,58.4999982147217,8|2,0:2|1:2,0:0:0:0:
409,291,3628,2,0,L|471:296,2,58.4999982147217,0|0|10,3:2|1:2|0:2,0:0:0:0:
361,184,4628,6,0,P|417:170|471:190,2,116.999996429443,0|8|0,3:2|0:2|3:2,0:0:0:0:
312,217,5878,1,0,1:2:0:0:
270,258,6128,2,0,L|134:269,1,116.999996429443,10|0,0:2|3:2,0:0:0:0:
50,323,7128,2,0,L|37:187,1,116.999996429443,0|2,1:2|3:2,0:0:0:0:
38,89,8128,1,2,3:2:0:0:
146,46,8628,5,0,3:2:0:0:
202,62,8878,1,2,1:2:0:0:
255,37,9128,2,0,L|320:43,1,58.4999982147217,8|2,0:2|1:2,0:0:0:0:
356,81,9628,2,0,L|427:76,2,58.4999982147217,0|0|10,3:2|1:2|0:2,0:0:0:0:
381,195,10628,5,0,3:2:0:0:
322,197,10878,1,2,1:2:0:0:
263,197,11128,2,0,L|190:190,1,58.4999982147217,8|2,0:2|1:2,0:0:0:0:
146,181,11628,2,0,L|151:109,2,58.4999982147217,0|0|10,3:2|1:2|0:2,0:0:0:0:
256,192,12628,12,2,14628,0:2:0:0:
38,58,15680,6,0,L|108:51,1,58.4999982147217,2|0,0:2|3:2,0:0:0:0:
154,46,16154,1,8,0:2:0:0:
262,36,16628,6,0,P|253:63|256:92,1,58.4999982147217,4|2,0:2|0:2,0:0:0:0:
301,130,17128,1,8,0:2:0:0:
356,148,17378,2,0,L|362:267,1,116.999996429443,2|2,0:2|0:2,0:0:0:0:
279,347,18378,5,2,0:2:0:0:
249,296,18628,2,0,P|221:286|192:287,1,58.4999982147217,0|2,3:2|0:2,0:0:0:0:
145,322,19128,1,8,0:2:0:0:
86,321,19378,2,0,L|73:186,1,116.999996429443,2|2,0:2|0:2,0:0:0:0:
104,91,20378,5,2,0:2:0:0:
145,49,20628,2,0,L|226:57,1,58.4999982147217,2|2,3:2|0:2,0:0:0:0:
261,62,21128,1,8,0:2:0:0:
318,72,21378,2,0,P|338:133|317:188,1,116.999996429443,2|2,0:2|0:2,0:0:0:0:
251,274,22378,6,0,L|126:262,1,116.999996429443,2|2,0:2|0:2,0:0:0:0:
126,146,23378,2,0,L|248:136,1,116.999996429443,2|2,0:2|0:2,0:0:0:0:
301,139,24128,2,0,P|309:166|306:195,1,58.4999982147217,10|2,0:2|0:2,0:0:0:0:
272,243,24628,5,6,3:2:0:0:
218,267,24878,2,0,L|131:255,1,58.4999982147217,2|8,0:2|0:2,0:0:0:0:
102,250,25378,2,0,P|82:311|97:364,2,116.999996429443,2|2|2,0:2|0:2|0:2,0:0:0:0:
174,158,26878,6,0,L|257:147,1,58.4999982147217,2|8,0:2|0:2,0:0:0:0:
290,145,27378,2,0,P|302:201|282:255,2,116.999996429443,2|2|2,0:2|0:2|0:2,0:0:0:0:
312,91,28628,5,2,3:2:0:0:
281,41,28878,1,2,0:2:0:0:
164,38,29378,2,0,L|92:43,1,58.4999982147217,2|8,0:2|0:2,0:0:0:0:
68,86,29877,1,2,3:2:0:0:
50,142,30128,1,0,3:2:0:0:
47,200,30378,1,6,3:2:0:0:
349,343,31628,6,0,P|340:313|342:284,1,58.4999982147217,0|8,3:2|0:2,0:0:0:0:
358,230,32128,1,8,0:2:0:0:
389,117,32628,6,0,P|358:126|327:122,1,58.4999982147217,4|2,3:2|0:2,0:0:0:0:
298,75,33128,2,0,P|251:64|195:69,2,87.7499973220826,8|2|0,0:2|3:2|3:2,0:0:0:0:
332,123,34128,2,0,P|341:153|336:184,1,58.4999982147217,10|2,0:2|0:2,0:0:0:0:
297,222,34628,5,0,3:2:0:0:
177,254,35128,2,0,P|166:301|177:347,2,87.7499973220826,8|2|0,0:2|3:2|3:2,0:0:0:0:
206,202,36128,2,0,L|198:121,1,58.4999982147217,10|2,0:2|0:2,0:0:0:0:
200,85,36628,6,0,P|261:66|315:85,1,116.999996429443,2|8,3:2|0:2,0:0:0:0:
397,159,37628,2,0,P|336:178|274:156,1,116.999996429443,2|10,0:2|0:2,0:0:0:0:
200,85,38628,6,0,P|169:75|139:78,1,58.4999982147217,2|2,3:2|0:2,0:0:0:0:
100,116,39128,2,0,P|52:112|7:123,2,87.7499973220826,8|2|0,0:2|3:2|3:2,0:0:0:0:
143,154,40128,2,0,L|148:220,1,58.4999982147217,10|0,0:2|0:2,0:0:0:0:
155,270,40628,5,0,3:2:0:0:
263,225,41128,2,0,P|274:272|261:315,2,87.7499973220826,8|2|0,0:2|3:2|3:2,0:0:0:0:
228,178,42128,2,0,L|220:111,1,58.4999982147217,10|2,0:2|0:2,0:0:0:0:
217,61,42628,5,0,3:2:0:0:
100,48,43128,2,0,P|53:37|10:48,2,87.7499973220826,8|2|0,0:2|3:2|3:2,0:0:0:0:
141,88,44128,2,0,P|149:115|146:144,1,58.4999982147217,10|2,0:2|0:2,0:0:0:0:
122,197,44628,6,0,L|133:338,1,116.999996429443,2|8,3:2|0:2,0:0:0:0:
176,350,45378,1,2,0:2:0:0:
226,319,45628,2,0,P|287:300|340:317,1,116.999996429443,2|8,0:2|0:2,0:0:0:0:
453,317,46628,5,6,3:2:0:0:
492,274,46878,1,2,3:2:0:0:
501,216,47128,2,0,P|440:196|380:214,1,116.999996429443,2|10,3:2|0:2,0:0:0:0:
289,267,48128,2,0,L|206:261,1,58.4999982147217,10|2,0:2|3:2,0:0:0:0:
176,240,48628,6,0,P|185:210|180:181,1,58.4999982147217,4|2,3:2|0:2,0:0:0:0:
146,136,49128,2,0,P|99:147|55:136,2,87.7499973220826,8|2|0,0:2|0:2|0:2,0:0:0:0:
169,82,50128,2,0,P|199:73|227:75,1,58.4999982147217,10|2,0:2|0:2,0:0:0:0:
282,90,50628,5,2,3:2:0:0:
387,140,51128,1,8,0:2:0:0:
419,188,51378,1,2,0:2:0:0:
436,243,51628,2,0,L|372:249,1,58.4999982147217,2|2,3:2|0:2,0:0:0:0:
323,270,52128,1,10,0:2:0:0:
215,315,52628,6,0,P|224:284|219:251,1,58.4999982147217,0|2,3:2|0:2,0:0:0:0:
190,208,53128,1,8,0:2:0:0:
146,168,53378,2,0,P|115:177|82:175,2,58.4999982147217,2|0|0,0:2|3:2|0:2,0:0:0:0:
163,112,54128,2,0,P|193:102|223:104,1,58.4999982147217,10|2,0:2|0:2,0:0:0:0:
277,113,54628,1,2,3:2:0:0:
385,156,55128,6,0,L|389:216,1,58.4999982147217,8|2,0:2|0:2,0:0:0:0:
393,272,55628,2,0,P|331:291|272:274,1,116.999996429443,2|10,3:2|0:2,0:0:0:0:
238,239,56378,1,2,0:2:0:0:
198,195,56628,6,0,L|133:199,1,58.4999982147217,0|2,3:2|0:2,0:0:0:0:
81,204,57128,2,0,P|62:142|77:84,1,116.999996429443,8|2,0:2|3:2,0:0:0:0:
173,33,58128,2,0,P|170:66|177:92,1,58.4999982147217,10|2,0:2|0:2,0:0:0:0:
219,129,58628,6,0,P|281:110|335:126,1,116.999996429443,2|8,3:2|0:2,0:0:0:0:
376,158,59378,1,2,0:2:0:0:
467,231,59878,2,0,L|474:166,2,58.4999982147217,2|10|2,0:2|0:2|0:2,0:0:0:0:
459,289,60628,2,0,P|398:309|338:292,1,116.999996429443,2|8,3:2|0:2,0:0:0:0:
293,274,61378,2,0,L|288:147,1,116.999996429443,2|2,0:2|0:2,0:0:0:0:
284,98,62128,1,10,0:2:0:0:
173,137,62628,6,0,P|162:90|173:45,2,87.7499973220826,10|2|2,0:2|3:2|3:2,0:0:0:0:
205,185,63628,1,10,0:2:0:0:
391,345,64628,6,0,P|410:284|391:223,1,130,14|8,0:2|0:2,0:0:0:0:
360,165,65378,2,0,P|299:185|238:166,1,130,2|2,3:2|3:2,0:0:0:0:
201,112,66128,1,10,0:2:0:0:
161,60,66378,1,2,3:2:0:0:
99,37,66628,6,0,L|27:44,1,65,10|2,0:2|3:2,0:0:0:0:
5,101,67128,2,0,P|-4:131|0:164,1,65,10|2,0:2|3:2,0:0:0:0:
44,212,67628,1,10,0:2:0:0:
37,341,68128,2,0,P|67:350|100:346,1,65,10|2,0:2|3:2,0:0:0:0:
138,293,68628,6,0,P|199:273|260:293,1,130,8|8,0:2|0:2,0:0:0:0:
310,332,69378,2,0,P|371:351|432:332,1,130,2|2,3:2|3:2,0:0:0:0:
472,280,70128,1,10,0:2:0:0:
500,221,70378,1,2,3:2:0:0:
497,156,70628,6,0,L|423:161,1,65,10|2,0:2|3:2,0:0:0:0:
384,204,71128,2,0,L|310:199,1,65,10|2,0:2|3:2,0:0:0:0:
254,194,71628,1,8,0:2:0:0:
124,182,72128,2,0,L|119:246,1,65,10|0,0:2|3:2,0:0:0:0:
141,307,72628,6,0,P|202:287|263:307,1,130,8|8,0:2|0:2,0:0:0:0:
322,332,73378,2,0,P|383:351|444:332,1,130,2|2,3:2|3:2,0:0:0:0:
486,282,74128,1,10,0:2:0:0:
495,217,74378,1,2,3:2:0:0:
445,174,74628,6,0,P|436:144|440:111,1,65,10|2,0:2|3:2,0:0:0:0:
443,46,75128,2,0,L|369:41,1,65,10|2,0:2|3:2,0:0:0:0:
313,41,75628,1,8,0:2:0:0:
183,43,76128,2,0,P|174:73|178:106,1,65,10|2,0:2|3:2,0:0:0:0:
227,148,76628,6,0,P|246:209|227:270,1,130,8|10,0:2|0:2,0:0:0:0:
184,319,77378,1,2,3:2:0:0:
81,239,77878,2,0,L|7:244,2,65,2|10|2,3:2|0:2|3:2,0:0:0:0:
136,204,78628,6,0,L|257:214,2,97.5,14|10|10,0:2|0:2|0:2,0:0:0:0:
91,157,79628,2,0,L|101:35,2,97.5,12|8|14,0:2|0:2|0:2,0:0:0:0:
48,197,80628,5,2,3:2:0:0:
39,254,80878,1,0,3:2:0:0:
45,312,81128,2,0,P|106:331|163:314,1,116.999996429443,14|2,0:2|3:2,0:0:0:0:
261,270,82128,1,14,0:2:0:0:
369,313,82628,6,0,L|362:175,1,116.999996429443,6|2,3:2|3:2,0:0:0:0:
359,137,83378,2,0,L|287:131,1,58.4999982147217,12|2,0:2|3:2,0:0:0:0:
242,129,83878,1,0,3:2:0:0:
183,129,84128,1,0,3:2:0:0:
81,71,84628,6,0,P|61:132|78:188,1,116.999996429443,6|2,3:2|0:2,0:0:0:0:
143,276,85628,2,0,P|204:256|257:271,1,116.999996429443,6|0,3:2|0:0,0:0:0:0:
366,332,86628,5,4,3:2:0:0:
256,192,86878,12,0,88878,0:0:0:0:
