osu file format v14

[General]
AudioFilename: audio.mp3
AudioLeadIn: 0
PreviewTime: 64628
Countdown: 0
SampleSet: Soft
StackLeniency: 0.7
Mode: 0
LetterboxInBreaks: 0
WidescreenStoryboard: 1

[Editor]
Bookmarks: 2628,16628,20378,30378,62628,68628,81378
DistanceSpacing: 1.1
BeatDivisor: 4
GridSize: 16
TimelineZoom: 1.5

[Metadata]
Title:Kodama Kotodama (TV Size)
TitleUnicode:こだまことだま (TV Size)
Artist:nano.RIPE
ArtistUnicode:nano.RIPE
Creator:oxisso
Version:Hard
Source:のんのんびより りぴーと
Tags:opening op Japanese Anime Non Non Biyori Repeat Second 2nd Season 2 J-Pop JPop Pop J-Rock JRock Rock nano RIPE nanoRIPE 宮内れんげ Miyauchi Renge 一条蛍 Ichijō Hotaru Ichijou Ichijo 越谷夏海 Koshigaya Natsumi 越谷小鞠 Koshigaya Komari きみコ Kimiko 福富雅之 Masayuki Fukutomi ササキジュン Sasaki Jun アベノブユキ Nobuyuki Abe 青山友樹 Aoyama Tomoki
BeatmapID:2479038
BeatmapSetID:1188573

[Difficulty]
HPDrainRate:5
CircleSize:3.5
OverallDifficulty:6
ApproachRate:7
SliderMultiplier:1.6
SliderTickRate:1

[Events]
//Background and Video events
0,0,"bg.jpg.jpg",0,0
Video,50,"video.mp4.mp4"
//Break Periods
//Storyboard Layer 0 (Background)
//Storyboard Layer 1 (Fail)
//Storyboard Layer 2 (Pass)
//Storyboard Layer 3 (Foreground)
//Storyboard Layer 4 (Overlay)
//Storyboard Sound Samples

[TimingPoints]
628,500,4,2,1,50,1,0
12628,-100,4,2,1,30,0,0
14628,526.315789473684,4,2,1,50,1,0
15680,474.308300395257,4,2,1,55,1,0
16628,500,4,2,1,50,1,0
16628,-100,4,2,1,50,0,0
24628,-100,4,2,1,65,0,0
32628,-100,4,2,1,60,0,0
64128,-100,4,2,1,40,0,0
64503,-100,4,2,1,20,0,0
64628,-90.9090909090909,4,2,1,70,0,1
80628,-100,4,2,1,60,0,0
81128,-100,4,2,1,50,0,0
82128,-100,4,2,1,60,0,0
86628,-100,4,2,1,50,0,0
88628,-100,4,2,1,20,0,0
88878,-100,4,2,1,5,0,0

[Colours]
Combo1 : 255,128,128
Combo2 : 128,255,255
Combo3 : 255,255,128
Combo4 : 0,255,128

[HitObjects]
108,38,628,6,0,P|115:77|108:116,1,80,0|2,3:2|1:2,0:0:0:0:
44,177,1128,1,8,0:2:0:0:
75,259,1378,1,2,1:2:0:0:
75,259,1503,1,2,1:2:0:0:
75,259,1628,2,0,P|114:266|153:259,1,80,0|0,3:2|1:2,0:0:0:0:
222,204,2128,1,10,0:2:0:0:
329,343,2628,6,0,P|368:350|407:343,1,80,0|2,3:2|1:2,0:0:0:0:
479,292,3128,1,8,0:2:0:0:
437,214,3378,1,2,1:2:0:0:
437,214,3503,1,2,1:2:0:0:
437,214,3628,2,0,P|398:207|359:214,1,80,0|0,3:2|1:2,0:0:0:0:
281,257,4128,1,10,0:2:0:0:
130,348,4628,6,0,P|100:266|132:192,1,160,0|8,3:2|0:2,0:0:0:0:
185,138,5378,1,2,1:2:0:0:
256,86,5628,2,0,L|416:89,1,160,0|10,3:2|0:2,0:0:0:0:
497,121,6378,1,0,1:2:0:0:
462,201,6628,1,0,3:2:0:0:
415,275,6878,6,0,P|376:282|337:275,1,80,2|0,1:2|1:2,0:0:0:0:
271,215,7378,1,2,3:2:0:0:
271,215,7503,1,2,3:2:0:0:
271,215,7628,2,0,P|278:176|271:137,1,80,2|0,3:2|1:2,0:0:0:0:
254,49,8128,1,2,3:2:0:0:
78,38,8628,6,0,P|71:77|78:116,1,80,0|2,3:2|1:2,0:0:0:0:
115,195,9128,1,8,0:2:0:0:
76,274,9378,1,2,1:2:0:0:
76,274,9503,1,2,1:2:0:0:
76,274,9628,2,0,P|115:281|154:274,1,80,0|0,3:2|1:2,0:0:0:0:
234,236,10128,1,10,0:2:0:0:
374,341,10628,6,0,P|381:302|374:263,1,80,0|2,3:2|1:2,0:0:0:0:
335,182,11128,1,8,0:2:0:0:
374,103,11378,1,2,1:2:0:0:
374,103,11503,1,2,1:2:0:0:
374,103,11628,2,0,P|334:97|295:104,1,80,0|0,3:2|1:2,0:0:0:0:
220,150,12128,1,10,0:2:0:0:
256,192,12628,12,2,14628,0:2:0:0:
378,40,15680,5,2,0:2:0:0:
361,127,15917,1,0,3:2:0:0:
448,143,16154,2,0,P|455:182|448:221,1,80,8|0,0:2|3:2,0:0:0:0:
403,292,16628,6,0,L|323:285,1,80,4|2,0:2|0:2,0:0:0:0:
244,246,17128,1,8,0:2:0:0:
165,285,17378,2,0,P|157:245|164:206,1,80,2|0,0:2|3:2,0:0:0:0:
194,123,17878,2,0,L|273:115,1,80,2|8,0:2|0:2,0:0:0:0:
351,155,18378,2,0,L|431:162,1,80,2|0,0:2|3:2,0:0:0:0:
473,238,18878,5,2,0:2:0:0:
439,319,19128,1,8,0:2:0:0:
360,281,19378,2,0,P|320:274|281:281,1,80,2|0,0:2|3:2,0:0:0:0:
217,341,19878,2,0,P|177:347|138:340,1,80,2|8,0:2|0:2,0:0:0:0:
69,284,20378,5,2,0:2:0:0:
69,284,20503,1,2,0:0:0:0:
69,284,20628,1,2,3:2:0:0:
136,227,20878,2,0,L|216:234,1,80,2|8,0:2|0:2,0:0:0:0:
198,147,21378,2,0,L|118:140,1,80,2|0,0:2|3:2,0:0:0:0:
48,87,21878,5,2,0:2:0:0:
127,49,22128,1,8,0:2:0:0:
214,61,22378,2,0,P|296:31|370:63,1,160,2|2,0:2|0:2,0:0:0:0:
425,114,23128,1,8,0:2:0:0:
462,193,23378,2,0,P|380:223|306:191,1,160,2|2,0:2|0:2,0:0:0:0:
260,130,24128,1,10,0:2:0:0:
174,150,24378,1,2,0:2:0:0:
111,211,24628,5,6,3:2:0:0:
72,290,24878,2,0,P|111:297|150:290,1,80,2|8,0:2|0:2,0:0:0:0:
230,253,25378,2,0,P|312:223|386:255,1,160,2|2,0:2|0:2,0:0:0:0:
432,315,26128,1,8,0:2:0:0:
482,243,26378,6,0,L|476:163,1,80,2|2,0:2|3:2,0:0:0:0:
467,75,26878,2,0,L|387:69,1,80,2|8,0:2|0:2,0:0:0:0:
299,58,27378,2,0,B|241:72|241:72|201:41|201:41|126:63,1,160,2|2,0:2|0:2,0:0:0:0:
74,95,28128,1,8,0:2:0:0:
42,177,28378,1,2,0:2:0:0:
96,246,28628,6,0,P|136:254|175:247,1,80,2|2,3:2|0:2,0:0:0:0:
213,168,29128,1,8,0:2:0:0:
264,96,29378,2,0,P|303:89|342:96,1,80,2|8,0:2|0:2,0:0:0:0:
421,135,29878,1,2,3:2:0:0:
450,217,30128,1,0,3:2:0:0:
363,202,30378,1,6,3:2:0:0:
282,345,31628,5,0,3:2:0:0:
325,338,31753,1,0,1:2:0:0:
367,325,31878,2,0,L|405:327,2,40,8|8|8,0:2|0:2|0:2,0:0:0:0:
363,236,32378,1,0,3:2:0:0:
334,152,32628,6,0,P|294:144|255:151,1,80,4|2,3:2|0:2,0:0:0:0:
190,210,33128,1,8,0:2:0:0:
229,288,33378,1,2,0:2:0:0:
229,288,33503,2,0,P|169:294|114:274,1,120,2|0,3:2|3:2,0:0:0:0:
63,202,34128,1,10,0:2:0:0:
105,125,34378,1,2,0:2:0:0:
169,65,34628,6,0,P|208:58|247:65,1,80,0|2,3:2|0:2,0:0:0:0:
323,110,35128,1,8,0:2:0:0:
401,149,35378,1,2,0:2:0:0:
401,149,35503,2,0,P|407:209|387:264,1,120,2|0,3:2|3:2,0:0:0:0:
311,310,36128,1,10,0:2:0:0:
259,238,36378,1,2,0:2:0:0:
173,219,36628,6,0,B|126:251|94:220|62:188|21:213,2,160,2|8|2,3:2|0:2|0:2,0:0:0:0:
230,152,37878,1,0,3:2:0:0:
143,137,38128,2,0,P|160:101|188:73,1,80,10|0,0:2|0:2,0:0:0:0:
268,36,38628,1,2,3:2:0:0:
317,108,38878,6,0,P|357:115|396:108,1,80,2|8,0:2|0:2,0:0:0:0:
482,95,39378,1,2,0:2:0:0:
482,95,39503,2,0,P|488:155|468:210,1,120,2|0,3:2|3:2,0:0:0:0:
417,282,40128,2,0,P|377:289|338:282,1,80,10|0,0:2|0:2,0:0:0:0:
257,249,40628,6,0,P|217:241|178:248,1,80,0|2,3:2|0:2,0:0:0:0:
213,328,41128,1,8,0:2:0:0:
125,333,41378,1,2,0:2:0:0:
125,333,41503,2,0,P|95:281|91:222,1,120,2|0,3:2|3:2,0:0:0:0:
103,135,42128,1,10,0:2:0:0:
148,59,42378,1,2,0:2:0:0:
235,74,42628,6,0,P|241:113|233:152,1,80,0|2,3:2|0:2,0:0:0:0:
203,235,43128,1,8,0:2:0:0:
238,315,43378,1,2,0:2:0:0:
238,315,43503,2,0,P|298:321|353:301,1,120,2|0,3:2|3:2,0:0:0:0:
422,246,44128,1,10,0:2:0:0:
439,159,44378,1,2,0:2:0:0:
415,74,44628,6,0,P|333:44|259:76,1,160,2|8,3:2|0:2,0:0:0:0:
225,144,45378,1,2,0:2:0:0:
225,144,45503,1,2,3:2:0:0:
225,144,45628,2,0,P|255:226|223:300,1,160,2|8,0:2|0:2,0:0:0:0:
146,316,46378,1,2,0:2:0:0:
66,278,46628,6,0,P|59:318|66:357,2,80,6|2|2,3:2|3:2|3:2,0:0:0:0:
119,208,47378,1,2,1:2:0:0:
119,208,47503,1,8,0:2:0:0:
119,208,47628,1,10,0:2:0:0:
55,146,47878,1,2,3:2:0:0:
108,76,48128,1,10,0:2:0:0:
108,76,48253,1,8,0:2:0:0:
108,76,48378,1,2,3:2:0:0:
190,46,48628,6,0,P|230:38|269:45,1,80,4|2,3:2|0:2,0:0:0:0:
336,100,49128,1,8,0:2:0:0:
368,181,49378,1,2,0:2:0:0:
368,181,49503,2,0,P|308:175|252:195,1,120,2|0,0:2|0:2,0:0:0:0:
219,276,50128,1,10,0:2:0:0:
284,335,50378,1,2,0:2:0:0:
371,326,50628,6,0,B|385:268|385:268|354:228|354:228|376:153,1,160,2|8,3:2|0:2,0:0:0:0:
397,97,51378,1,2,0:2:0:0:
311,76,51628,2,0,L|318:16,2,40,2|2|2,3:2|0:2|0:2,0:0:0:0:
232,115,52128,2,0,L|228:155,2,40,10|2|2,0:2|0:2|0:2,0:0:0:0:
178,44,52628,6,0,P|138:36|99:43,1,80,0|2,3:2|0:2,0:0:0:0:
39,106,53128,1,8,0:2:0:0:
23,192,53378,1,2,0:2:0:0:
23,192,53503,2,0,P|17:252|37:307,1,120,2|0,0:2|0:2,0:0:0:0:
114,348,54128,1,10,0:2:0:0:
164,275,54378,1,2,0:2:0:0:
227,336,54628,6,0,L|328:327,1,80,2|0,3:2|0:2,0:0:0:0:
367,265,55128,1,8,0:2:0:0:
360,177,55378,1,2,0:2:0:0:
439,138,55628,2,0,P|446:176|440:216,1,80,2|2,3:2|0:2,0:0:0:0:
367,265,56128,2,0,L|288:257,1,80,10|2,0:2|0:2,0:0:0:0:
208,296,56628,6,0,P|200:256|207:217,1,80,0|2,3:2|0:2,0:0:0:0:
259,147,57128,1,8,0:2:0:0:
288,63,57378,1,2,0:2:0:0:
288,63,57503,2,0,P|228:57|173:77,1,120,2|2,0:2|0:2,0:0:0:0:
104,132,58128,1,10,0:2:0:0:
19,106,58378,1,2,0:2:0:0:
36,192,58628,6,0,B|49:239|49:239|18:279|18:279|32:337,1,160,2|8,3:2|0:2,0:0:0:0:
120,347,59378,1,2,0:2:0:0:
189,292,59628,1,2,3:2:0:0:
229,213,59878,2,0,P|189:205|150:212,1,80,2|10,0:2|0:2,0:0:0:0:
189,292,60378,1,2,0:2:0:0:
263,338,60628,6,0,P|303:346|342:339,1,80,2|0,3:2|0:0,0:0:0:0:
390,266,61128,1,8,0:2:0:0:
328,202,61378,2,0,P|288:210|249:203,2,80,2|2|2,0:2|3:2|0:2,0:0:0:0:
400,152,62128,1,10,0:2:0:0:
441,74,62378,1,2,0:2:0:0:
321,41,62628,6,0,P|261:35|206:57,1,120,10|2,0:2|3:2,0:0:0:0:
277,159,63378,1,2,3:2:0:0:
189,163,63628,1,10,0:2:0:0:
364,153,64128,2,0,B|397:184|395:247|365:281,1,120,2|0,0:2|0:2,0:0:0:0:
361,315,64628,6,0,P|446:325|485:246,1,176.000005371094,14|8,0:2|0:2,0:0:0:0:
488,157,65378,1,2,3:2:0:0:
443,71,65628,2,0,L|332:64,1,88.000002685547,8|2,0:2|3:2,0:0:0:0:
258,60,66128,1,10,0:2:0:0:
176,112,66378,1,2,3:2:0:0:
241,182,66628,2,0,L|236:269,1,88.000002685547,10|2,0:2|3:2,0:0:0:0:
165,336,67128,2,0,P|122:341|80:330,1,88.000002685547,10|2,0:2|3:2,0:0:0:0:
27,247,67628,1,10,0:2:0:0:
34,150,67878,1,2,3:2:0:0:
89,70,68128,2,0,P|131:60|174:67,1,88.000002685547,10|2,0:2|3:2,0:0:0:0:
177,204,68628,6,0,P|258:231|335:193,1,176.000005371094,8|8,0:2|0:2,0:0:0:0:
382,108,69378,1,2,3:2:0:0:
474,138,69628,2,0,L|467:249,1,88.000002685547,8|2,0:2|3:2,0:0:0:0:
440,318,70128,1,10,0:2:0:0:
346,344,70378,1,2,3:2:0:0:
264,292,70628,2,0,L|177:287,1,88.000002685547,10|2,0:2|3:2,0:0:0:0:
210,196,71128,2,0,L|297:201,1,88.000002685547,10|2,0:2|3:2,0:0:0:0:
394,203,71628,1,8,0:2:0:0:
372,108,71878,1,0,3:2:0:0:
296,47,72128,2,0,P|252:42|210:53,1,88.000002685547,10|0,0:2|3:2,0:0:0:0:
96,127,72628,6,0,B|109:191|109:191|88:249|88:249|105:295,1,176.000005371094,8|8,0:2|0:2,0:0:0:0:
184,352,73378,1,2,3:2:0:0:
265,299,73628,2,0,P|308:287|351:293,1,88.000002685547,10|2,0:2|3:2,0:0:0:0:
438,332,74128,1,10,0:2:0:0:
478,244,74378,1,2,3:2:0:0:
459,148,74628,2,0,P|417:136|374:142,1,88.000002685547,10|2,0:2|3:2,0:0:0:0:
290,193,75128,2,0,P|279:151|284:108,1,88.000002685547,10|2,0:2|3:2,0:0:0:0:
344,31,75628,1,8,0:2:0:0:
247,32,75878,1,2,3:2:0:0:
175,97,76128,2,0,P|180:140|169:182,1,88.000002685547,10|2,0:2|3:2,0:0:0:0:
120,311,76628,6,0,P|184:323|247:307,1,132.00000402832,8|2,0:2|0:2,0:0:0:0:
247,306,77128,2,0,P|242:263|253:221,1,88.000002685547,10|2,0:2|3:2,0:0:0:0:
313,144,77628,1,10,0:2:0:0:
410,147,77878,1,2,3:2:0:0:
472,60,78128,1,10,3:2:0:0:
375,57,78378,1,2,0:2:0:0:
242,88,78628,6,0,P|178:76|115:92,2,132.00000402832,14|10|10,0:2|0:2|0:2,0:0:0:0:
349,173,79628,2,0,P|372:238|346:319,2,132.00000402832,12|8|14,0:2|0:2|0:2,0:0:0:0:
289,237,80628,6,0,P|250:244|211:237,1,80,2|0,3:2|3:2,0:0:0:0:
143,180,81128,1,14,0:2:0:0:
48,328,81628,1,2,3:2:0:0:
99,256,81878,1,0,3:2:0:0:
195,334,82128,2,0,L|275:341,1,80,14|2,0:2|0:2,0:0:0:0:
361,326,82628,6,0,P|381:271|375:211,1,120,6|2,3:2|3:2,0:0:0:0:
374,210,83128,2,0,P|335:217|296:210,1,80,2|12,3:2|0:2,0:0:0:0:
337,132,83628,2,0,P|377:125|416:132,1,80,2|0,3:2|3:2,0:0:0:0:
415,131,84003,1,2,0:2:0:0:
415,131,84128,1,0,3:2:0:0:
374,210,84378,1,2,3:2:0:0:
300,258,84628,6,0,B|248:295|248:295|152:285,1,160,6|2,3:2|0:2,0:0:0:0:
31,157,85628,2,0,P|88:124|154:119,1,133.333333333333,6|2,3:2|0:2,0:0:0:0:
268,150,86378,1,2,0:2:0:0:
346,110,86628,5,4,3:2:0:0:
256,192,86878,12,0,88878,0:0:0:0:
