osu file format v14

[General]
AudioFilename: audio.mp3
AudioLeadIn: 0
PreviewTime: 64628
Countdown: 0
SampleSet: Soft
StackLeniency: 0.7
Mode: 0
LetterboxInBreaks: 0
WidescreenStoryboard: 1

[Editor]
Bookmarks: 16626,20378,30378,61628
DistanceSpacing: 0.8
BeatDivisor: 4
GridSize: 16
TimelineZoom: 1.8

[Metadata]
Title:Kodama Kotodama (TV Size)
TitleUnicode:こだまことだま (TV Size)
Artist:nano.RIPE
ArtistUnicode:nano.RIPE
Creator:oxisso
Version:Everyday Life
Source:のんのんびより りぴーと
Tags:opening op Japanese Anime Non Non Biyori Repeat Second 2nd Season 2 J-Pop JPop Pop J-Rock JRock Rock nano RIPE nanoRIPE 宮内れんげ Miyauchi Renge 一条蛍 Ichijō Hotaru Ichijou Ichijo 越谷夏海 Koshigaya Natsumi 越谷小鞠 Koshigaya Komari きみコ Kimiko 福富雅之 Masayuki Fukutomi ササキジュン Sasaki Jun アベノブユキ Nobuyuki Abe 青山友樹 Aoyama Tomoki
BeatmapID:2479039
BeatmapSetID:1188573

[Difficulty]
HPDrainRate:6
CircleSize:4
OverallDifficulty:7
ApproachRate:8
SliderMultiplier:1.9
SliderTickRate:1

[Events]
//Background and Video events
0,0,"bg.jpg.jpg",0,0
Video,50,"video.mp4.mp4"
//Break Periods
//Storyboard Layer 0 (Background)
//Storyboard Layer 1 (Fail)
//Storyboard Layer 2 (Pass)
//Storyboard Layer 3 (Foreground)
//Storyboard Layer 4 (Overlay)
//Storyboard Sound Samples

[TimingPoints]
628,500,4,2,1,50,1,0
8003,-100,4,2,1,50,0,0
8128,-100,4,2,1,50,0,0
12628,-100,4,2,1,30,0,0
14628,526.315789473684,4,2,1,50,1,0
15680,474.308300395257,4,2,1,55,1,0
16628,500,4,2,1,50,1,0
16628,-90.9090909090909,4,2,1,50,0,0
24503,-90.9090909090909,4,2,1,50,0,0
24628,-90.9090909090909,4,2,1,65,0,0
32628,-100,4,2,1,60,0,0
64128,-125,4,2,1,40,0,0
64503,-100,4,2,1,20,0,0
64628,-83.3333333333333,4,2,1,70,0,1
65003,-83.3333333333333,4,2,1,5,0,1
65128,-83.3333333333333,4,2,1,70,0,1
69003,-83.3333333333333,4,2,1,5,0,1
69128,-83.3333333333333,4,2,1,70,0,1
72253,-83.3333333333333,4,2,1,5,0,1
72378,-83.3333333333333,4,2,1,70,0,1
73003,-83.3333333333333,4,2,1,5,0,1
73128,-83.3333333333333,4,2,1,70,0,1
77503,-83.3333333333333,4,2,1,70,0,1
77628,-83.3333333333333,4,2,1,70,0,1
78878,-83.3333333333333,4,2,1,70,0,1
79003,-83.3333333333333,4,2,1,70,0,1
79128,-83.3333333333333,4,2,1,70,0,1
79378,-83.3333333333333,4,2,1,70,0,1
79503,-83.3333333333333,4,2,1,70,0,1
79628,-83.3333333333333,4,2,1,70,0,1
80503,-83.3333333333333,4,2,1,70,0,1
80628,-100,4,2,1,60,0,0
81128,-100,4,2,1,50,0,0
81503,-100,4,2,1,50,0,0
81628,-100,4,2,1,50,0,0
82128,-100,4,2,1,60,0,0
83503,-100,4,2,1,60,0,0
83628,-100,4,2,1,60,0,0
86503,-100,4,2,1,60,0,0
86628,-100,4,2,1,50,0,0
88628,-100,4,2,1,20,0,0
88878,-100,4,2,1,5,0,0

[Colours]
Combo1 : 255,128,128
Combo2 : 128,255,255
Combo3 : 255,255,128
Combo4 : 0,255,128

[HitObjects]
171,37,628,5,0,3:2:0:0:
26,98,878,1,2,1:2:0:0:
207,109,1128,2,0,P|220:155|214:201,1,95,8|2,0:2|1:2,0:0:0:0:
194,233,1503,1,2,1:2:0:0:
169,261,1628,2,0,L|97:267,1,47.5,0|0,3:2|0:0,0:0:0:0:
46,243,1878,1,0,1:2:0:0:
207,109,2128,2,0,P|253:102|298:116,1,95,10|2,0:2|1:2,0:0:0:0:
474,230,2628,5,0,3:2:0:0:
413,85,2878,1,2,1:2:0:0:
410,266,3128,2,0,P|364:279|318:273,1,95,8|2,0:2|1:2,0:0:0:0:
285,252,3503,1,2,1:2:0:0:
262,221,3628,2,0,L|257:173,1,47.5,0|0,3:2|0:0,0:0:0:0:
283,99,3878,1,0,1:2:0:0:
410,266,4128,2,0,P|417:312|403:357,1,95,10|2,0:2|1:2,0:0:0:0:
193,259,4628,6,0,P|239:245|286:252,2,95,0|0|8,3:2|1:2|0:2,0:0:0:0:
49,345,5378,1,2,1:2:0:0:
49,345,5503,1,2,1:2:0:0:
49,345,5628,2,0,L|1:350,2,47.5,0|0|0,3:2|1:2|1:2,0:0:0:0:
126,182,6128,2,0,L|250:171,1,95,10|0,0:2|1:2,0:0:0:0:
258,171,6503,1,0,1:2:0:0:
258,171,6628,1,0,3:2:0:0:
340,91,6878,5,2,1:2:0:0:
258,171,7128,1,0,1:2:0:0:
399,148,7378,1,2,3:2:0:0:
399,148,7503,1,2,3:2:0:0:
399,148,7628,2,0,L|407:242,1,95,2|0,3:2|1:2,0:0:0:0:
395,320,8003,2,0,L|347:315,1,47.5,0|2,3:0|3:2,0:0:0:0:
222,57,8628,5,0,3:2:0:0:
286,201,8878,1,2,1:2:0:0:
137,304,9128,2,0,P|124:258|130:212,1,95,8|2,0:2|1:2,0:0:0:0:
148,178,9503,1,2,1:2:0:0:
168,145,9628,2,0,L|240:139,1,47.5,0|0,3:2|0:0,0:0:0:0:
289,114,9878,1,0,1:2:0:0:
95,33,10128,2,0,L|86:134,1,95,10|2,0:2|1:2,0:0:0:0:
110,334,10628,5,0,3:2:0:0:
250,261,10878,1,2,1:2:0:0:
414,337,11128,2,0,P|420:290|407:244,1,95,8|2,0:2|1:2,0:0:0:0:
384,214,11503,1,2,1:2:0:0:
354,190,11628,2,0,L|282:184,1,47.5,0|0,3:2|0:0,0:0:0:0:
239,147,11878,1,0,1:2:0:0:
416,36,12128,2,0,L|424:137,1,95,10|2,0:2|1:2,0:0:0:0:
468,192,12503,1,0,1:2:0:0:
468,192,12628,5,2,0:2:0:0:
256,192,12753,12,2,14628,0:2:0:0:
92,194,15680,5,2,0:2:0:0:
16,279,15917,1,0,3:2:0:0:
142,123,16154,2,0,L|240:131,1,95,8|0,0:2|3:2,0:0:0:0:
435,270,16628,5,4,0:2:0:0:
341,346,16878,1,2,0:2:0:0:
499,215,17128,1,8,0:2:0:0:
372,36,17378,2,0,L|362:142,1,104.500003189087,2|0,0:2|3:2,0:0:0:0:
277,289,17878,2,0,L|286:184,1,104.500003189087,2|8,0:2|0:2,0:0:0:0:
146,36,18378,1,2,0:2:0:0:
286,184,18628,5,0,3:2:0:0:
279,63,18878,1,2,0:2:0:0:
131,203,19128,1,8,0:2:0:0:
335,117,19378,2,0,P|382:95|433:98,1,104.500003189087,2|0,0:2|3:2,0:0:0:0:
488,262,19878,2,0,L|478:157,1,104.500003189087,2|8,0:2|0:2,0:0:0:0:
343,33,20378,1,2,0:2:0:0:
339,75,20503,1,2,0:0:0:0:
335,117,20628,5,2,3:2:0:0:
452,88,20878,1,2,0:2:0:0:
254,139,21128,1,8,0:2:0:0:
44,75,21378,2,0,L|147:94,1,104.500003189087,2|0,0:2|3:2,0:0:0:0:
235,241,21878,2,0,L|254:137,1,104.500003189087,2|8,0:2|0:2,0:0:0:0:
446,311,22378,6,0,B|398:346|347:324|283:292|244:319,1,209.000006378174,2|2,0:2|0:2,0:0:0:0:
391,228,23128,1,8,0:2:0:0:
216,138,23378,2,0,L|235:241,1,104.500003189087,2|0,0:2|3:2,0:0:0:0:
324,159,23878,1,2,0:2:0:0:
112,104,24128,2,0,B|97:152|97:152|128:215|115:254,1,156.750004783631,10|0,0:2|0:0,0:0:0:0:
100,294,24628,5,6,3:2:0:0:
0,225,24878,1,2,0:2:0:0:
169,343,25128,1,8,0:2:0:0:
233,144,25378,2,0,L|223:249,1,104.500003189087,2|0,0:2|3:2,0:0:0:0:
321,46,25878,2,0,L|331:151,1,104.500003189087,2|8,0:2|0:2,0:0:0:0:
353,336,26378,6,0,P|394:304|413:257,1,104.500003189087,2|2,0:2|3:2,0:0:0:0:
233,144,26878,1,2,0:2:0:0:
353,336,27128,1,8,0:2:0:0:
330,150,27378,2,0,L|310:253,1,104.500003189087,2|0,0:2|3:2,0:0:0:0:
280,70,27878,1,2,0:2:0:0:
412,200,28128,2,0,P|428:150|416:100,1,104.500003189087,8|2,0:2|0:2,0:0:0:0:
233,144,28628,5,2,3:2:0:0:
258,263,28878,1,2,0:2:0:0:
137,90,29128,1,8,0:2:0:0:
112,209,29378,1,2,0:2:0:0:
233,25,29628,5,8,0:2:0:0:
292,85,29878,1,2,3:2:0:0:
233,144,30128,1,0,3:2:0:0:
377,310,30378,1,6,3:2:0:0:
14,141,31628,6,0,L|68:146,1,52.2500015945435,0|0,3:2|1:2,0:0:0:0:
115,217,31878,1,8,0:2:0:0:
115,217,32003,1,8,0:2:0:0:
115,217,32128,2,0,L|232:227,1,104.500003189087,8|0,0:2|3:2,0:0:0:0:
323,345,32628,6,0,P|335:299|330:252,1,95,4|2,3:2|0:2,0:0:0:0:
262,85,33128,1,8,0:2:0:0:
199,240,33378,1,2,0:2:0:0:
199,240,33503,2,0,P|262:269|329:252,1,142.5,2|0,3:2|3:2,0:0:0:0:
262,85,34128,1,10,0:2:0:0:
346,162,34378,1,2,0:2:0:0:
199,240,34628,6,0,L|181:341,1,95,0|2,3:2|0:2,0:0:0:0:
119,164,35128,1,8,0:2:0:0:
52,316,35378,1,2,0:2:0:0:
52,316,35503,2,0,P|114:348|182:332,1,142.5,2|0,3:2|3:2,0:0:0:0:
119,164,36128,1,10,0:2:0:0:
19,219,36378,1,2,0:2:0:0:
195,125,36628,6,0,P|229:52|279:114,1,190,2|8,3:2|0:2,0:0:0:0:
260,281,37378,1,2,0:2:0:0:
260,281,37503,1,0,3:2:0:0:
260,281,37628,2,0,P|255:234|267:188,1,95,2|0,0:2|3:2,0:0:0:0:
423,282,38128,1,10,0:2:0:0:
480,184,38378,1,0,0:2:0:0:
366,184,38628,5,2,3:2:0:0:
329,347,38878,1,2,0:2:0:0:
161,278,39128,1,8,0:2:0:0:
174,112,39378,1,2,0:2:0:0:
174,112,39503,2,0,P|107:91|42:117,1,142.5,2|0,3:2|3:2,0:0:0:0:
161,278,40128,2,0,P|207:285|253:275,1,95,10|0,0:2|0:2,0:0:0:0:
93,226,40628,6,0,P|81:272|86:319,1,95,0|2,3:2|0:2,0:0:0:0:
205,181,41128,1,8,0:2:0:0:
329,290,41378,1,2,0:2:0:0:
329,290,41503,2,0,B|353:215|301:229|325:151,1,142.5,2|0,3:2|3:2,0:0:0:0:
476,253,42128,1,10,0:2:0:0:
403,341,42378,1,2,0:2:0:0:
434,177,42628,6,0,L|453:69,1,95,0|2,3:2|0:2,0:0:0:0:
391,256,43128,1,8,0:2:0:0:
261,153,43378,1,2,0:2:0:0:
261,153,43503,2,0,P|194:173|129:147,1,142.5,2|0,3:2|3:2,0:0:0:0:
21,293,44128,1,10,0:2:0:0:
55,185,44378,1,2,0:2:0:0:
197,325,44628,6,0,P|149:328|103:317,2,95,2|0|8,3:2|0:0|0:2,0:0:0:0:
314,244,45378,1,2,0:2:0:0:
314,244,45503,1,2,3:2:0:0:
314,244,45628,2,0,L|219:234,1,95,2|0,0:2|3:2,0:0:0:0:
387,305,46128,1,8,0:2:0:0:
482,199,46378,2,0,L|476:130,1,47.5,2|2,0:2|0:2,0:0:0:0:
462,75,46628,5,6,3:2:0:0:
317,158,46878,1,2,3:2:0:0:
183,35,47128,1,2,3:2:0:0:
43,106,47378,1,2,1:2:0:0:
80,109,47503,1,8,0:2:0:0:
118,112,47628,1,10,0:2:0:0:
280,229,47878,5,2,3:2:0:0:
141,346,48128,1,10,0:2:0:0:
123,312,48253,1,8,0:2:0:0:
117,275,48378,1,2,3:2:0:0:
125,238,48503,1,8,0:0:0:0:
197,206,48628,6,0,L|206:313,1,95,4|2,3:2|0:2,0:0:0:0:
196,118,49128,1,8,0:2:0:0:
356,166,49378,1,2,0:2:0:0:
356,166,49503,2,0,B|380:241|328:227|352:304,1,142.5,2|0,0:2|0:2,0:0:0:0:
479,173,50128,1,10,0:2:0:0:
421,74,50378,1,2,0:2:0:0:
254,184,50628,6,0,P|260:137|248:91,1,95,2|0,3:2|0:2,0:0:0:0:
76,33,51128,2,0,L|170:41,1,95,8|2,0:2|0:2,0:0:0:0:
58,151,51628,1,2,3:2:0:0:
51,188,51753,1,2,0:2:0:0:
44,225,51878,1,2,0:2:0:0:
174,352,52128,1,10,0:2:0:0:
181,315,52253,1,2,0:2:0:0:
187,277,52378,1,2,0:2:0:0:
262,190,52628,5,0,3:2:0:0:
342,336,52878,1,2,0:2:0:0:
352,155,53128,1,8,0:2:0:0:
223,49,53378,1,2,0:2:0:0:
223,49,53503,2,0,L|291:43,1,47.5,2|0,0:2|3:2,0:0:0:0:
415,104,53878,1,0,0:2:0:0:
480,274,54128,2,0,L|472:180,1,95,10|2,0:2|0:2,0:0:0:0:
335,257,54628,6,0,L|343:351,1,95,2|0,3:2|0:2,0:0:0:0:
277,182,55128,1,8,0:2:0:0:
220,281,55378,1,2,0:2:0:0:
230,115,55628,2,0,P|184:102|137:108,1,95,2|2,3:2|0:2,0:0:0:0:
58,272,56128,2,0,P|46:227|52:180,1,95,10|2,0:2|0:2,0:0:0:0:
137,107,56628,5,0,3:2:0:0:
220,250,56878,1,2,0:2:0:0:
52,179,57128,1,8,0:2:0:0:
215,144,57378,1,2,0:2:0:0:
252,148,57503,1,2,0:2:0:0:
289,154,57628,2,0,L|283:222,1,47.5,2|2,3:2|0:0,0:0:0:0:
220,250,57878,1,2,0:2:0:0:
371,350,58128,2,0,L|387:257,1,95,10|2,0:2|0:2,0:0:0:0:
480,80,58628,6,0,B|417:95|417:95|366:60|366:60|304:71,1,190,2|8,3:2|0:2,0:0:0:0:
157,125,59378,2,0,L|225:131,1,47.5,2|0,0:2|0:2,0:0:0:0:
272,171,59628,1,2,3:2:0:0:
112,215,59878,1,2,0:2:0:0:
175,44,60128,1,10,0:2:0:0:
197,210,60378,1,2,0:2:0:0:
28,103,60628,6,0,L|36:197,1,95,2|0,3:2|0:0,0:0:0:0:
132,351,61128,1,8,0:2:0:0:
265,250,61378,2,0,P|310:238|357:244,1,95,2|2,0:2|3:2,0:0:0:0:
428,277,61753,1,2,0:2:0:0:
428,277,61878,1,2,0:2:0:0:
304,143,62128,1,10,0:2:0:0:
265,250,62378,1,2,0:2:0:0:
197,61,62628,6,0,B|272:85|258:33|334:57,1,142.5,10|2,0:2|3:2,0:0:0:0:
497,219,63378,1,2,3:2:0:0:
265,250,63628,1,10,0:2:0:0:
265,250,64128,6,0,B|236:218|212:233|187:250|161:224,1,114,2|0,0:2|0:2,0:0:0:0:
185,102,64628,6,0,B|137:79|91:120|91:120|42:51,1,170.999994781494,14|0,0:2|0:0,0:0:0:0:
11,150,65128,1,8,0:2:0:0:
56,279,65378,1,2,3:2:0:0:
255,136,65628,6,0,L|266:264,1,113.999996520996,8|2,0:2|3:2,0:0:0:0:
440,348,66128,1,10,0:2:0:0:
483,218,66378,1,2,3:2:0:0:
266,34,66628,5,10,0:2:0:0:
285,158,66878,1,2,3:2:0:0:
25,40,67128,1,10,0:2:0:0:
149,59,67378,1,2,3:2:0:0:
41,248,67628,5,10,0:2:0:0:
34,204,67753,1,2,0:2:0:0:
47,161,67878,1,2,3:2:0:0:
211,305,68128,1,10,0:2:0:0:
168,318,68253,1,2,0:2:0:0:
124,311,68378,1,2,3:2:0:0:
234,91,68628,6,0,B|273:147|273:147|319:106|367:129,1,170.999994781494,8|0,0:2|0:0,0:0:0:0:
431,199,69128,1,8,0:2:0:0:
406,63,69378,1,2,3:2:0:0:
344,304,69628,6,0,L|333:176,1,113.999996520996,8|2,0:2|3:2,0:0:0:0:
210,347,70128,1,10,0:2:0:0:
165,219,70378,1,2,3:2:0:0:
383,35,70628,5,10,0:2:0:0:
259,54,70878,1,2,3:2:0:0:
465,251,71128,1,10,0:2:0:0:
484,127,71378,1,2,3:2:0:0:
270,162,71628,6,0,P|250:109|258:53,1,113.999996520996,8|0,0:2|3:2,0:0:0:0:
377,235,72128,2,0,L|370:313,1,56.9999982604981,10|0,0:2|0:2,0:0:0:0:
324,348,72378,1,0,3:2:0:0:
83,296,72628,6,0,B|96:256|71:217|71:217|47:177|68:132,1,170.999994781494,8|0,0:2|0:0,0:0:0:0:
153,174,73128,1,8,0:2:0:0:
151,37,73378,1,2,3:2:0:0:
203,278,73628,6,0,L|316:287,1,113.999996520996,10|2,0:2|3:2,0:0:0:0:
247,100,74128,1,10,0:2:0:0:
111,147,74378,1,2,3:2:0:0:
315,349,74628,5,10,0:2:0:0:
439,330,74878,1,2,3:2:0:0:
162,262,75128,1,10,0:2:0:0:
111,147,75378,2,0,P|99:92|115:38,1,113.999996520996,2|8,3:2|0:2,0:0:0:0:
224,100,75878,5,2,3:2:0:0:
39,317,76128,1,10,0:2:0:0:
127,213,76378,1,2,3:2:0:0:
305,46,76628,6,0,P|360:34|414:50,1,113.999996520996,8|0,0:2|0:2,0:0:0:0:
489,108,77003,1,2,0:2:0:0:
489,108,77128,1,10,0:2:0:0:
452,292,77378,2,0,L|459:214,1,56.9999982604981,2|0,3:2|0:2,0:0:0:0:
390,170,77628,6,0,L|383:248,1,56.9999982604981,10|2,0:2|0:2,0:0:0:0:
352,322,77878,1,2,3:2:0:0:
314,127,78128,2,0,P|259:115|205:131,1,113.999996520996,10|2,0:2|3:2,0:0:0:0:
51,321,78628,6,0,L|32:209,1,113.999996520996,14|0,0:2|0:2,0:0:0:0:
66,91,79003,2,0,L|79:168,1,56.9999982604981,10|0,0:2|0:2,0:0:0:0:
210,351,79378,6,0,L|220:294,1,56.9999982604981,10|0,0:2|0:2,0:0:0:0:
146,197,79628,2,0,L|127:308,1,113.999996520996,12|2,0:2|0:2,0:0:0:0:
210,351,80003,5,8,0:2:0:0:
210,351,80128,1,2,0:2:0:0:
282,176,80378,2,0,L|360:183,1,56.9999982604981,14|0,0:2|0:2,0:0:0:0:
417,186,80628,5,2,3:2:0:0:
277,96,80878,1,0,3:2:0:0:
246,274,81128,2,0,B|324:298|310:246|385:270,1,142.5,14|0,0:2|0:2,0:0:0:0:
461,291,81628,5,2,3:2:0:0:
417,186,81878,1,0,3:2:0:0:
254,107,82128,2,0,L|348:114,1,95,14|2,0:2|0:2,0:0:0:0:
226,273,82628,6,0,B|151:249|165:301|87:277,1,142.5,6|2,3:2|3:2,0:0:0:0:
36,218,83128,1,2,3:2:0:0:
85,44,83378,2,0,L|79:107,1,47.5,12|0,0:2|0:2,0:0:0:0:
151,137,83628,6,0,L|158:50,1,63.3333333333333,2|2,3:2|0:2,0:0:0:0:
157,74,83878,2,0,L|220:68,1,47.5,0|2,3:2|0:2,0:0:0:0:
282,63,84128,1,0,3:2:0:0:
444,137,84378,1,2,3:2:0:0:
444,137,84503,1,0,3:2:0:0:
444,137,84628,6,0,B|463:266|463:266|428:314,1,190,6|2,3:2|0:2,0:0:0:0:
77,227,85628,2,0,P|74:295|140:279,1,158.333333333333,6|2,3:2|0:2,0:0:0:0:
311,158,86378,2,0,L|305:221,1,47.5,2|0,0:2|0:0,0:0:0:0:
298,283,86628,5,4,3:2:0:0:
256,192,86753,12,0,88878,0:0:0:0:
