osu file format v14

[General]
AudioFilename: audio.mp3
AudioLeadIn: 0
PreviewTime: 64628
Countdown: 0
SampleSet: Soft
StackLeniency: 0.7
Mode: 0
LetterboxInBreaks: 0
WidescreenStoryboard: 0

[Editor]
Bookmarks: 49368,53368,57368,62628
DistanceSpacing: 1.1
BeatDivisor: 2
GridSize: 16
TimelineZoom: 1.2

[Metadata]
Title:Kodama Kotodama (TV Size)
TitleUnicode:こだまことだま (TV Size)
Artist:nano.RIPE
ArtistUnicode:nano.RIPE
Creator:oxisso
Version:Easy
Source:のんのんびより りぴーと
Tags:opening op Japanese Anime Non Non Biyori Repeat Second 2nd Season 2 J-Pop JPop Pop J-Rock JRock Rock nano RIPE nanoRIPE 宮内れんげ Miyauchi Renge 一条蛍 Ichijō Hotaru Ichijou Ichijo 越谷夏海 Koshigaya Natsumi 越谷小鞠 Koshigaya Komari きみコ Kimiko 福富雅之 Masayuki Fukutomi ササキジュン Sasaki Jun アベノブユキ Nobuyuki Abe 青山友樹 Aoyama Tomoki
BeatmapID:2476763
BeatmapSetID:1188573

[Difficulty]
HPDrainRate:2
CircleSize:2.5
OverallDifficulty:2
ApproachRate:3.5
SliderMultiplier:1
SliderTickRate:1

[Events]
//Background and Video events
0,0,"bg.jpg.jpg",0,0
Video,50,"video.mp4.mp4"
//Break Periods
//Storyboard Layer 0 (Background)
//Storyboard Layer 1 (Fail)
//Storyboard Layer 2 (Pass)
//Storyboard Layer 3 (Foreground)
//Storyboard Layer 4 (Overlay)
//Storyboard Sound Samples

[TimingPoints]
628,500,4,2,1,50,1,0
628,-111.111111111111,4,2,1,50,0,0
12628,-111.111111111111,4,2,1,30,0,0
14628,526.315789473684,4,2,1,50,1,0
15680,474.308300395257,4,2,1,55,1,0
16628,500,4,2,1,50,1,0
16628,-111.111111111111,4,2,1,50,0,0
24628,-111.111111111111,4,2,1,65,0,0
32628,-111.111111111111,4,2,1,60,0,0
64128,-111.111111111111,4,2,1,40,0,0
64503,-111.111111111111,4,2,1,20,0,0
64628,-100,4,2,1,70,0,1
80628,-111.111111111111,4,2,1,60,0,0
81128,-111.111111111111,4,2,1,50,0,0
82128,-111.111111111111,4,2,1,60,0,0
86628,-100,4,2,1,50,0,0
88628,-100,4,2,1,20,0,0
88878,-100,4,2,1,5,0,0

[Colours]
Combo1 : 255,128,128
Combo2 : 128,255,255
Combo3 : 255,255,128
Combo4 : 0,255,128

[HitObjects]
156,154,628,5,0,3:2:0:0:
101,71,1128,2,0,B|50:98|41:162|60:205|83:226,1,179.999994506836,8|10,0:2|0:2,0:0:0:0:
173,269,2628,1,0,3:2:0:0:
227,351,3128,2,0,B|277:323|286:259|268:217|244:195,1,179.999994506836,8|10,0:2|0:2,0:0:0:0:
202,105,4628,6,0,B|288:75|288:75|375:92,2,179.999994506836,0|0|0,3:2|3:2|3:2,0:0:0:0:
133,177,7128,2,0,P|117:219|116:263,1,89.9999972534181,0|2,1:2|3:2,0:0:0:0:
179,340,8128,1,2,3:2:0:0:
256,278,8628,5,0,3:2:0:0:
328,345,9128,2,0,B|352:323|370:281|361:217|311:189,1,179.999994506836,8|10,0:2|0:2,0:0:0:0:
224,141,10628,1,0,3:2:0:0:
170,57,11128,2,0,B|119:85|110:149|129:191|152:213,1,179.999994506836,8|10,0:2|0:2,0:0:0:0:
256,192,12628,12,2,14628,0:2:0:0:
144,151,16628,6,0,P|97:167|50:165,1,89.9999972534181,4|8,0:2|0:2,0:0:0:0:
81,70,17628,2,0,P|127:53|177:55,1,89.9999972534181,0|8,3:2|0:2,0:0:0:0:
262,81,18628,2,0,L|369:71,2,89.9999972534181,0|8|0,3:2|0:2|3:2,0:0:0:0:
206,163,20128,1,8,0:2:0:0:
287,219,20628,6,0,P|288:269|271:315,1,89.9999972534181,2|8,3:2|0:2,0:0:0:0:
182,341,21628,2,0,P|137:339|95:323,1,89.9999972534181,0|8,3:2|0:2,0:0:0:0:
42,239,22628,1,0,3:2:0:0:
86,150,23128,2,0,P|69:103|70:57,2,89.9999972534181,8|0|10,0:2|3:2|0:2,0:0:0:0:
157,218,24628,5,6,3:2:0:0:
199,307,25128,1,8,0:2:0:0:
290,344,25628,2,0,L|410:337,1,89.9999972534181,0|8,3:2|0:2,0:0:0:0:
463,286,26628,1,2,3:2:0:0:
438,190,27128,2,0,L|443:68,2,89.9999972534181,8|0|8,0:2|3:2|0:2,0:0:0:0:
354,242,28628,5,2,3:2:0:0:
255,245,29128,1,8,0:2:0:0:
195,165,29628,2,0,B|162:195|130:180|100:164|68:194,1,134.999995880127,10|4,0:2|3:2,0:0:0:0:
186,41,32628,5,4,3:2:0:0:
102,94,33128,2,0,B|51:122|42:186|61:228|84:250,1,179.999994506836,8|10,0:2|0:2,0:0:0:0:
181,263,34628,1,0,3:2:0:0:
235,345,35128,2,0,B|286:317|295:253|276:211|253:189,1,179.999994506836,8|10,0:2|0:2,0:0:0:0:
209,100,36628,6,0,P|255:83|300:85,1,89.9999972534181,2|8,3:2|0:2,0:0:0:0:
393,97,37628,2,0,P|410:143|406:189,1,89.9999972534181,2|10,0:2|0:2,0:0:0:0:
388,280,38628,1,2,3:2:0:0:
298,323,39128,2,0,B|234:323|234:323|186:300|156:271|156:217,1,179.999994506836,8|10,0:2|0:2,0:0:0:0:
142,143,40628,5,0,3:2:0:0:
60,88,41128,2,0,B|88:37|152:28|194:47|216:70,1,179.999994506836,8|10,0:2|0:2,0:0:0:0:
277,147,42628,1,0,3:2:0:0:
349,220,43128,2,0,B|372:198|391:156|382:92|331:64,1,179.999994506836,8|10,0:2|0:2,0:0:0:0:
234,41,44628,6,0,P|236:91|222:138,1,89.9999972534181,2|8,3:2|0:2,0:0:0:0:
175,214,45628,2,0,L|278:223,1,89.9999972534181,2|8,0:2|0:2,0:0:0:0:
360,245,46628,2,0,P|359:294|373:338,2,89.9999972534181,6|2|10,3:2|3:2|0:2,0:0:0:0:
399,153,48128,1,10,0:2:0:0:
327,84,48628,6,0,P|283:73|238:76,1,89.9999972534181,4|8,3:2|0:2,0:0:0:0:
164,142,49628,2,0,P|165:191|148:235,1,89.9999972534181,0|10,3:2|0:2,0:0:0:0:
105,316,50628,2,0,P|152:332|198:331,1,89.9999972534181,2|8,3:2|0:2,0:0:0:0:
278,284,51628,1,2,3:2:0:0:
367,327,52128,1,10,0:2:0:0:
439,260,52628,6,0,P|455:213|454:165,1,89.9999972534181,0|8,3:2|0:2,0:0:0:0:
429,77,53628,2,0,L|311:64,1,89.9999972534181,0|10,3:2|0:2,0:0:0:0:
243,90,54628,1,2,3:2:0:0:
149,123,55128,1,8,0:2:0:0:
110,214,55628,2,0,P|108:263|123:307,1,89.9999972534181,2|10,3:2|0:2,0:0:0:0:
218,286,56628,6,0,P|217:241|201:199,1,89.9999972534181,0|8,3:2|0:2,0:0:0:0:
182,102,57628,2,0,P|228:85|274:85,1,89.9999972534181,2|10,3:2|0:2,0:0:0:0:
364,109,58628,2,0,B|415:137|424:201|405:243|382:265,1,179.999994506836,2|2,3:2|3:2,0:0:0:0:
297,316,60128,1,10,0:2:0:0:
200,340,60628,6,0,P|183:293|185:247,1,89.9999972534181,2|8,3:2|0:2,0:0:0:0:
211,158,61628,2,0,P|253:145|298:149,1,89.9999972534181,2|10,3:2|0:2,0:0:0:0:
388,190,62628,2,0,B|444:176|469:116|462:71|445:43,1,179.999994506836,10|10,0:2|0:2,0:0:0:0:
245,60,64628,6,0,P|198:44|148:44,1,100,14|8,0:2|0:2,0:0:0:0:
105,78,65378,2,0,P|104:127|121:174,1,100,2|2,3:2|3:2,0:0:0:0:
159,214,66128,1,10,0:2:0:0:
223,302,66628,2,0,P|176:320|126:319,2,100,10|10|10,0:2|0:2|0:2,0:0:0:0:
299,222,68128,1,10,0:2:0:0:
388,285,68628,6,0,P|405:238|404:188,1,100,8|8,0:2|0:2,0:0:0:0:
394,134,69378,2,0,P|347:116|297:117,1,100,2|2,3:2|3:2,0:0:0:0:
251,147,70128,1,10,0:2:0:0:
162,211,70628,2,0,P|144:164|145:114,2,100,10|10|8,0:2|0:2|0:2,0:0:0:0:
244,284,72128,1,10,0:2:0:0:
333,347,72628,6,0,L|441:338,1,100,8|8,0:2|0:2,0:0:0:0:
469,297,73378,2,0,P|470:248|453:201,1,100,2|2,3:2|3:2,0:0:0:0:
422,154,74128,1,10,0:2:0:0:
394,47,74628,2,0,P|443:46|490:63,2,100,10|10|8,0:2|0:2|0:2,0:0:0:0:
297,100,76128,2,0,L|290:174,1,50,10|2,0:2|3:2,0:0:0:0:
283,204,76628,6,0,P|237:222|187:221,1,100,8|10,0:2|0:2,0:0:0:0:
90,168,77628,2,0,P|72:214|74:264,1,100,10|10,0:2|0:2,0:0:0:0:
160,333,78628,2,0,B|204:367|234:337|266:298|328:362,2,150,14|10|2,0:2|0:2|0:2,0:0:0:0:
96,257,80628,5,2,3:2:0:0:
103,158,81128,2,0,P|150:141|197:142,1,89.9999972534181,14|2,0:2|3:2,0:0:0:0:
285,165,82128,1,14,0:2:0:0:
374,207,82628,2,0,B|486:200,2,89.9999972534181,6|2|2,3:2|3:2|3:2,0:0:0:0:
296,268,84128,1,0,3:2:0:0:
203,304,84628,6,0,P|185:258|187:210,1,89.9999972534181,6|2,3:2|0:2,0:0:0:0:
208,121,85628,2,0,P|257:123|299:106,1,89.9999972534181,6|0,3:2|0:0,0:0:0:0:
381,40,86628,1,4,3:2:0:0:
256,192,87128,12,0,88878,0:0:0:0:
