osu file format v14

[General]
AudioFilename: audio.mp3
AudioLeadIn: 0
PreviewTime: 112862
Countdown: 0
SampleSet: Soft
StackLeniency: 0.7
Mode: 0
LetterboxInBreaks: 0
WidescreenStoryboard: 0

[Editor]
Bookmarks: 24257,46583,68908,91234,102397,110769,110856,110943,111030,111118,111205,111292,111379,111466,111554,111641,111728,111815,111902,111990,112077,112164,112251,112338,112426,112513,112600,112687,112775,135885,135972,136059,136147,136234,136321,136408,136495,136583,136670,136757,136844,136931,137019,137106,137193,137280,137368,137455,137542,137629,137716,137804,137891,137978,138065,138152,138240,138327,138414,138501,138588,138676,138763,138850,138937,139025,139112,139199,139286,139373,139461,139548,139635,139722,139809,139897,139984,140071,140158,140245,140333,147048,169373,180536,191699,211234,227629,241931,242019,242106,242193,242280,242368,242455,242542,242629,242716,242804,242891,242978,243065,243152,243240,243327,243414,243501,243588,243676,243763,243850,243937,244025,244112,244199,244286,244373,244461,244548,244635,244722,244809,244897,244984,245071,245158,245245,245333,245420,245507,245594,245681,245769,245856,245943,246030,246118,246205,246292,246379,246466,246554,246641,246728,246815,246902,246990,247077,247164,247251,247338,247426,247513,247600,247687,247775,247862,247949,248036,248123,248211,248298,248385,248472,248559,248647,248734,248821,248908,248995,249083,249170,249257,249344,249431,249519,249606,249693,249780,249868,249955,250042,250129,250216,250304,250391,250478,250565,250652,250740,250827,250914,251001,251088,251176,251263,251350,251437,251525,251612,267048,289373,311699,311786,311873,311961,312048,312135,312222,312309,312397,312484,312571,312658,312745,312833,312920,313007,313094,313181,313269,313356,313443,313530,313618,313705,313792,313879,313966,314054,314141,314228,314315,314402,314490,314577,314664,314751,314838,314926,315013,315100,315187,315275,315362,315449,315536,315623,315711,315798,315885,315972,316059,316147,316234,316321,316408,316495,316583,316670,316757,316844,316931,317019,317106,317193,317280,331234
DistanceSpacing: 1.8
BeatDivisor: 6
GridSize: 32
TimelineZoom: 1.5

[Metadata]
Title:Kamisama
TitleUnicode:神様
Artist:nano.RIPE
ArtistUnicode:nano.RIPE
Creator:GlaZe
Version:Last Wish
Source:
Tags:Shurelia Nanairo Megane no Himitsu 七色眼鏡のヒミツ Lantis Pop Japanese impurepug
BeatmapID:2420331
BeatmapSetID:1159967

[Difficulty]
HPDrainRate:6.5
CircleSize:4.2
OverallDifficulty:8
ApproachRate:8.8
SliderMultiplier:1.8
SliderTickRate:1

[Events]
//Background and Video events
0,0,"kamisama.jpg",0,0
//Break Periods
2,136085,139791
2,242131,251070
2,311916,316651
//Storyboard Layer 0 (Background)
//Storyboard Layer 1 (Fail)
//Storyboard Layer 2 (Pass)
//Storyboard Layer 3 (Foreground)
//Storyboard Layer 4 (Overlay)
//Storyboard Sound Samples

[TimingPoints]
1932,697.674418604651,4,2,3,20,1,0
1932,-142.857142857143,4,2,3,20,0,0
2629,-142.857142857143,4,2,4,30,0,0
3327,-125,4,2,6,22,0,0
4024,-125,4,2,7,35,0,0
4722,-142.857142857143,4,2,8,22,0,0
5070,-142.857142857143,4,2,9,30,0,0
5420,-142.857142857143,4,2,10,26,0,0
6118,-166.666666666667,4,2,11,25,0,0
6815,-166.666666666667,4,2,1,30,0,0
7513,-125,4,2,3,20,0,0
7862,-125,4,2,31,20,0,0
8211,-111.111111111111,4,2,32,38,0,0
8559,-111.111111111111,4,2,5,20,0,0
8908,-111.111111111111,4,2,6,24,0,0
9606,-111.111111111111,4,2,12,26,0,0
10304,-125,4,2,13,28,0,0
10652,-125,4,2,5,34,0,0
11001,-111.111111111111,4,2,33,32,0,0
11349,-111.111111111111,4,2,2,18,0,0
11699,-100,4,2,14,26,0,0
12397,-100,4,2,1,30,0,0
13095,-100,4,2,3,30,0,0
13792,-111.111111111111,4,2,4,36,0,0
14140,-111.111111111111,4,2,5,34,0,0
14490,-125,4,2,15,30,0,0
14838,-125,4,2,2,34,0,0
15187,-125,4,2,4,32,0,0
15885,-111.111111111111,4,2,16,22,0,0
16233,-111.111111111111,4,2,9,30,0,0
16583,-100,4,2,10,30,0,0
16931,-100,4,2,5,32,0,0
17280,-100,4,2,17,20,0,0
17978,-125,4,2,7,42,0,0
18326,-125,4,2,2,38,0,0
18676,-100,4,2,3,24,0,0
19373,-100,4,2,4,30,0,0
20071,-250.000000000001,4,2,6,26,0,0
20768,-250.000000000001,4,2,4,30,0,0
21292,-142.857142857143,4,2,5,34,0,0
21466,-142.857142857143,4,2,21,30,0,0
23559,-222.222222222221,4,2,22,55,0,0
24257,-76.9230769230769,4,2,21,85,0,0
43443,-76.9230769230769,4,2,21,70,0,0
44141,-76.9230769230769,4,2,4,40,0,0
44490,-76.9230769230769,4,2,21,70,0,0
45187,-83.3333333333333,4,2,21,55,0,0
59751,-83.3333333333333,4,2,21,5,0,0
59838,-83.3333333333333,4,2,21,55,0,0
62193,-83.3333333333333,4,2,21,5,0,0
62280,-83.3333333333333,4,2,21,55,0,0
62542,-83.3333333333333,4,2,21,5,0,0
62629,-83.3333333333333,4,2,21,55,0,0
62891,-83.3333333333333,4,2,21,5,0,0
62978,-83.3333333333333,4,2,21,55,0,0
68123,-83.3333333333333,4,2,21,5,0,0
68211,-83.3333333333333,4,2,21,55,0,0
68647,-83.3333333333333,4,2,21,32,0,0
68908,-83.3333333333333,4,2,21,65,0,0
82077,-83.3333333333333,4,2,21,5,0,0
82164,-83.3333333333333,4,2,21,65,0,0
84519,-83.3333333333333,4,2,21,5,0,0
84606,-83.3333333333333,4,2,21,65,0,0
84868,-83.3333333333333,4,2,21,5,0,0
84955,-83.3333333333333,4,2,21,65,0,0
85216,-83.3333333333333,4,2,21,5,0,0
85303,-83.3333333333333,4,2,21,65,0,0
90449,-83.3333333333333,4,2,21,5,0,0
90536,-83.3333333333333,4,2,21,65,0,0
90972,-83.3333333333333,4,2,21,42,0,0
91234,-83.3333333333333,4,2,21,65,0,0
93240,-83.3333333333333,4,2,21,5,0,0
93327,-83.3333333333333,4,2,21,65,0,0
96641,-83.3333333333333,4,2,21,25,0,0
96815,-83.3333333333333,4,2,21,65,0,0
98472,-83.3333333333333,4,2,21,5,0,0
98559,-83.3333333333333,4,2,21,65,0,0
98821,-83.3333333333333,4,2,21,5,0,0
98908,-83.3333333333333,4,2,21,65,0,0
99170,-83.3333333333333,4,2,21,5,0,0
99257,-83.3333333333333,4,2,21,65,0,0
99868,-83.3333333333333,4,2,21,5,0,0
99955,-83.3333333333333,4,2,21,65,0,0
100216,-83.3333333333333,4,2,21,5,0,0
100304,-83.3333333333333,4,2,22,65,0,0
100652,-83.3333333333333,4,2,21,65,0,0
101699,-125,4,2,21,60,0,0
102222,-83.3333333333333,4,2,21,45,0,0
102397,-83.3333333333333,4,2,21,65,0,0
102745,-83.3333333333333,4,2,21,70,0,0
105187,-83.3333333333333,4,2,3,85,0,0
105536,-83.3333333333333,4,2,21,70,0,0
107978,-83.3333333333333,4,2,21,60,0,0
108327,-83.3333333333333,4,2,21,70,0,0
110769,-83.3333333333333,4,2,21,70,0,0
112862,-83.3333333333333,4,2,22,60,0,0
113211,-83.3333333333333,4,2,21,80,0,0
113385,-83.3333333333333,4,2,23,60,0,0
113559,-71.4285714285714,4,2,21,100,0,1
116350,-71.4285714285714,4,2,22,100,0,1
116699,-71.4285714285714,4,2,21,100,0,1
119141,-71.4285714285714,4,2,22,100,0,1
119490,-71.4285714285714,4,2,21,100,0,1
121931,-71.4285714285714,4,2,22,100,0,1
122106,-71.4285714285714,4,2,21,100,0,1
127513,-71.4285714285714,4,2,22,100,0,1
127862,-71.4285714285714,4,2,21,100,0,1
130042,-71.4285714285714,4,2,21,50,0,1
130129,-71.4285714285714,4,2,21,100,0,1
130304,-71.4285714285714,4,2,22,100,0,1
130652,-71.4285714285714,4,2,21,100,0,1
133094,-71.4285714285714,4,2,22,100,0,1
133443,-71.4285714285714,4,2,21,100,0,1
135187,-71.4285714285714,4,2,22,100,0,1
135536,-71.4285714285714,4,2,21,100,0,1
135885,-100,4,2,22,80,0,0
140420,-100,4,2,22,80,0,0
140769,-83.3333333333333,4,2,22,55,0,0
141466,-76.9230769230769,4,2,21,85,0,0
147048,-83.3333333333333,4,2,21,55,0,0
162658,-83.3333333333333,4,2,21,5,0,0
162745,-83.3333333333333,4,2,21,55,0,0
163007,-83.3333333333333,4,2,21,5,0,0
163094,-83.3333333333333,4,2,21,55,0,0
163356,-83.3333333333333,4,2,21,5,0,0
163443,-83.3333333333333,4,2,21,55,0,0
169112,-83.3333333333333,4,2,21,32,0,0
169373,-83.3333333333333,4,2,21,65,0,0
171030,-83.3333333333333,4,2,21,5,0,0
171118,-83.3333333333333,4,2,21,55,0,0
171379,-83.3333333333333,4,2,21,5,0,0
171466,-83.3333333333333,4,2,21,55,0,0
174170,-83.3333333333333,4,2,21,5,0,0
174257,-83.3333333333333,4,2,21,55,0,0
180362,-83.3333333333333,4,2,21,45,0,0
180536,-83.3333333333333,4,2,21,65,0,0
180885,-83.3333333333333,4,2,21,70,0,0
181234,-125,4,2,21,70,0,0
181583,-83.3333333333333,4,2,21,70,0,0
183327,-83.3333333333333,4,2,3,85,0,0
183676,-83.3333333333333,4,2,21,70,0,0
186118,-83.3333333333333,4,2,21,60,0,0
186466,-83.3333333333333,4,2,21,70,0,0
191699,-71.4285714285714,4,2,21,80,0,1
194490,-71.4285714285714,4,2,22,80,0,1
194838,-71.4285714285714,4,2,21,80,0,1
197280,-71.4285714285714,4,2,22,80,0,1
197629,-71.4285714285714,4,2,21,80,0,1
199722,-71.4285714285714,4,2,21,80,0,1
199897,-71.4285714285714,4,2,21,80,0,1
200071,-71.4285714285714,4,2,22,80,0,1
200420,-71.4285714285714,4,2,21,80,0,1
205652,-71.4285714285714,4,2,22,80,0,1
206001,-71.4285714285714,4,2,21,80,0,1
208269,-71.4285714285714,4,2,21,80,0,1
208443,-71.4285714285714,4,2,22,80,0,1
208792,-71.4285714285714,4,2,21,80,0,1
211234,-83.3333333333333,4,2,21,85,0,0
213240,-83.3333333333333,4,2,21,5,0,0
213327,-125,4,2,21,85,0,0
213588,-125,4,2,21,5,0,0
213676,-83.3333333333333,4,2,3,85,0,0
214373,-83.3333333333333,4,2,21,85,0,0
215071,-83.3333333333333,4,2,1,85,0,0
215769,-83.3333333333333,4,2,21,85,0,0
217775,-83.3333333333333,4,2,21,5,0,0
217862,-83.3333333333333,4,2,21,85,0,0
218472,-83.3333333333333,4,2,21,5,0,0
218559,-83.3333333333333,4,2,21,85,0,0
219170,-83.3333333333333,4,2,21,5,0,0
219257,-83.3333333333333,4,2,21,85,0,0
227106,-125,4,2,21,85,0,0
227542,-125,4,2,21,5,0,0
227629,-83.3333333333333,4,2,21,85,0,0
232775,-83.3333333333333,4,2,21,5,0,0
232862,-83.3333333333333,4,2,21,85,0,0
233123,-83.3333333333333,4,2,21,5,0,0
233211,-83.3333333333333,4,2,3,85,0,0
233908,-83.3333333333333,4,2,21,85,0,0
237397,-83.3333333333333,4,2,1,85,0,0
237920,-83.3333333333333,4,2,21,85,0,0
241931,-83.3333333333333,4,2,22,85,0,0
252920,-83.3333333333333,4,2,22,5,0,0
253094,-83.3333333333333,4,2,21,65,0,0
262164,-83.3333333333333,4,2,22,65,0,0
262513,-83.3333333333333,4,2,21,65,0,0
262600,-83.3333333333333,4,2,21,43,0,0
262862,-83.3333333333333,4,2,21,65,0,0
264955,-83.3333333333333,4,2,21,28,0,0
266350,-83.3333333333333,4,2,22,60,0,0
266873,-83.3333333333333,4,2,21,65,0,0
267048,-71.4285714285714,4,2,21,80,0,1
269838,-71.4285714285714,4,2,22,80,0,1
270187,-71.4285714285714,4,2,21,80,0,1
272629,-71.4285714285714,4,2,22,80,0,1
272978,-71.4285714285714,4,2,21,80,0,1
275071,-71.4285714285714,4,2,21,80,0,1
275245,-71.4285714285714,4,2,21,80,0,1
275420,-71.4285714285714,4,2,22,80,0,1
275769,-71.4285714285714,4,2,21,80,0,1
281001,-71.4285714285714,4,2,22,80,0,1
281350,-71.4285714285714,4,2,21,80,0,1
283618,-71.4285714285714,4,2,21,80,0,1
283792,-71.4285714285714,4,2,22,80,0,1
284141,-71.4285714285714,4,2,21,80,0,1
286583,-71.4285714285714,4,2,21,85,0,1
287280,-71.4285714285714,4,2,21,95,0,1
287978,-83.3333333333333,4,2,21,80,0,0
288094,-83.3333333333333,4,2,21,5,0,0
288211,-83.3333333333333,4,2,21,80,0,0
288327,-83.3333333333333,4,2,21,5,0,0
288443,-83.3333333333333,4,2,21,80,0,0
288559,-83.3333333333333,4,2,21,5,0,0
288676,-83.3333333333333,4,2,21,80,0,0
288937,-83.3333333333333,4,2,21,5,0,0
289025,-83.3333333333333,4,2,21,80,0,0
289286,-83.3333333333333,4,2,21,5,0,0
289373,-71.4285714285714,4,2,21,90,0,1
292164,-71.4285714285714,4,2,22,90,0,1
292338,-71.4285714285714,4,2,21,90,0,1
294955,-71.4285714285714,4,2,22,90,0,1
295304,-71.4285714285714,4,2,21,90,0,1
297745,-71.4285714285714,4,2,22,90,0,1
297920,-71.4285714285714,4,2,21,90,0,1
298443,-71.4285714285714,4,2,22,90,0,1
298618,-71.4285714285714,4,2,21,90,0,1
303326,-71.4285714285714,4,2,22,90,0,1
303501,-71.4285714285714,4,2,21,90,0,1
306030,-71.4285714285714,4,2,21,90,0,1
306118,-71.4285714285714,4,2,22,90,0,1
306292,-71.4285714285714,4,2,21,90,0,1
308908,-71.4285714285714,4,2,21,75,0,1
309955,714.285714285714,4,2,21,75,1,0
311383,714.285714285714,4,2,21,75,1,0
311699,-133.333333333333,4,2,22,65,0,0
311716,1391.14305587758,4,2,21,60,1,0
317280,697.674418604651,4,2,21,75,1,0
317280,-133.333333333333,4,2,21,65,0,0
319373,-133.333333333333,4,2,3,65,0,0
320071,697.674418604651,4,2,21,85,1,0
320071,-76.9230769230769,4,2,21,85,0,0
339606,1463.41463414634,4,2,21,50,1,0
340337,1538.46153846154,4,2,21,40,1,0
341106,1538.46153846154,4,2,21,30,1,0
341875,1632.65306122449,4,2,21,22,1,0
343509,2376.23762376238,4,2,21,15,1,0
351825,-100,4,2,21,5,0,0

[Colours]
Combo1 : 178,178,178
Combo2 : 130,255,130
Combo3 : 128,185,255
Combo4 : 255,106,181

[HitObjects]
0,310,1932,6,0,P|68:335|145:351,1,125.999996154785,2|8,0:2|0:2,0:0:0:0:
498,289,3327,2,0,P|415:320|345:339,1,144,2|2,0:2|0:2,0:0:0:0:
205,189,4722,1,2,0:2:0:0:
166,257,5071,1,2,0:2:0:0:
243,258,5420,1,10,0:2:0:0:
3,373,6118,6,0,P|40:354|0:349,1,107.999996704102,2|2,0:2|0:2,0:0:0:0:
437,368,7513,6,0,P|416:336|404:295,1,72,2|2,0:2|0:0,0:0:0:0:
220,339,8211,2,0,P|260:343|298:356,1,80.9999975280763,10|2,0:2|0:2,0:0:0:0:
499,208,8908,1,2,0:2:0:0:
241,158,9606,1,2,0:2:0:0:
0,222,10304,6,0,P|18:252|29:287,1,72,2|2,0:2|0:2,0:0:0:0:
162,149,11001,2,0,P|125:163|93:187,1,80.9999975280763,10|2,0:2|0:2,0:0:0:0:
341,139,11699,2,0,P|298:126|262:100,1,90,2|0,0:2|0:0,0:0:0:0:
460,0,12397,1,6,0:2:0:0:
460,0,13094,6,0,P|439:39|429:83,1,90,6|0,0:2|0:0,0:0:0:0:
253,75,13792,2,0,P|290:89|326:108,1,80.9999975280763,10|2,0:2|0:2,0:0:0:0:
212,160,14490,2,0,P|175:172|141:189,1,72,2|2,0:2|0:2,0:0:0:0:
262,245,15187,1,2,0:2:0:0:
24,384,15885,6,0,P|41:347|53:308,1,80.9999975280763,2|2,0:2|0:2,0:0:0:0:
221,282,16583,2,0,P|177:291|134:304,1,90,10|2,0:2|0:2,0:0:0:0:
273,211,17280,1,2,0:2:0:0:
361,251,17629,1,0,0:0:0:0:
479,163,17978,6,0,P|445:172|410:180,1,72,2|2,0:2|0:2,0:0:0:0:
245,74,18676,2,0,P|275:107|295:146,1,90,2|0,0:2|0:0,0:0:0:0:
260,238,19373,1,10,0:2:0:0:
61,302,20071,6,0,P|96:293|130:281,1,72,2|2,0:2|0:2,0:0:0:0:
2,368,21292,6,0,L|0:383,2,15.7499995193482,2|0|2,0:2|0:0|0:2,0:0:0:0:
63,196,23559,5,4,3:0:0:0:
63,196,24257,6,0,P|39:248|24:313,1,116.999994644165,4|2,3:1|0:3,0:0:0:0:
166,376,24780,1,0,3:0:0:0:
222,319,24955,2,0,P|181:276|125:269,1,116.999994644165,0|2,1:0|0:3,0:0:0:0:
7,360,25478,1,0,1:0:0:0:
7,360,25652,1,2,0:0:0:0:
126,268,26001,5,2,3:3:0:0:
0,140,26350,2,0,P|19:195|27:253,1,116.999994644165,0|2,1:0|0:3,0:0:0:0:
199,179,26873,1,8,0:1:0:0:
200,162,26961,1,8,0:1:0:0:
194,146,27048,6,0,P|153:106|95:99,1,116.999994644165,0|2,3:3|0:3,0:0:0:0:
155,251,27571,1,0,3:0:0:0:
217,297,27745,2,0,P|279:309|346:285,1,116.999994644165,0|2,1:0|0:3,0:0:0:0:
430,192,28269,1,0,1:0:0:0:
430,192,28443,1,2,0:0:0:0:
427,330,28792,2,0,P|440:356|447:383,1,58.4999973220826,2|0,3:3|0:0,0:0:0:0:
330,295,29141,2,0,P|286:259|229:264,1,116.999994644165,0|2,1:0|0:3,0:0:0:0:
39,207,29838,6,0,P|98:211|141:177,1,116.999994644165,0|2,3:3|0:3,0:0:0:0:
147,18,30362,1,0,3:0:0:0:
212,64,30536,2,0,P|236:116|242:174,1,116.999994644165,0|2,1:0|0:3,0:0:0:0:
155,311,31059,1,0,1:0:0:0:
155,311,31234,1,2,0:0:0:0:
71,188,31583,5,2,3:3:0:0:
155,311,31931,2,0,P|218:301|295:302,1,116.999994644165,0|2,1:0|0:3,0:0:0:0:
348,154,32455,1,8,0:1:0:0:
348,143,32543,1,8,0:1:0:0:
344,134,32630,6,0,P|303:94|245:87,1,116.999994644165,0|2,3:0|0:3,0:0:0:0:
100,123,33152,1,0,3:0:0:0:
57,30,33327,2,0,P|124:42|205:13,1,116.999994644165,0|2,1:0|0:3,0:0:0:0:
296,0,33850,1,0,1:0:0:0:
281,176,34025,5,0,3:0:0:0:
249,93,34199,1,0,1:0:0:0:
295,19,34373,2,0,P|332:23|373:23,1,58.4999973220826,2|0,3:3|0:0,0:0:0:0:
480,112,34722,5,8,0:3:0:0:
491,145,34838,1,8,0:3:0:0:
486,183,34955,1,8,0:3:0:0:
457,213,35071,2,0,P|450:231|446:250,2,38.9999982147218,4|4|4,0:3|0:3|0:3,0:0:0:0:
493,323,35420,6,0,P|430:300|342:287,1,116.999994644165,4|2,3:2|0:3,0:0:0:0:
244,358,35943,1,0,3:0:0:0:
271,283,36118,2,0,P|264:226|216:195,1,116.999994644165,0|2,1:0|0:3,0:0:0:0:
82,122,36641,1,0,1:0:0:0:
140,57,36815,2,0,L|127:0,1,58.4999973220826,2|0,0:0|1:0,0:0:0:0:
82,122,37164,1,2,3:3:0:0:
229,39,37513,6,0,P|287:44|341:66,1,116.999994644165,0|2,1:0|0:3,0:0:0:0:
493,185,38036,1,8,0:1:0:0:
483,170,38124,1,8,0:1:0:0:
469,159,38211,6,0,P|410:164|356:186,1,116.999994644165,0|2,3:0|0:3,0:0:0:0:
307,348,38734,1,0,0:0:0:0:
229,354,38908,2,0,P|194:308|182:252,1,116.999994644165,0|2,1:0|0:3,0:0:0:0:
245,130,39432,1,0,1:0:0:0:
245,130,39606,1,2,0:0:0:0:
86,186,39955,6,0,P|58:172|37:155,1,58.4999973220826,2|0,3:3|0:0,0:0:0:0:
160,145,40304,1,0,1:0:0:0:
215,68,40478,1,0,3:0:0:0:
263,153,40652,1,2,0:3:0:0:
263,153,40827,1,0,1:0:0:0:
324,75,41001,6,0,P|275:54|209:71,1,116.999994644165,0|2,3:0|0:3,0:0:0:0:
92,94,41525,1,0,3:0:0:0:
159,138,41699,2,0,P|179:192|181:250,1,116.999994644165,0|2,1:0|0:3,0:0:0:0:
134,376,42222,1,0,1:0:0:0:
217,345,42397,6,0,P|245:338|274:336,1,58.4999973220826,0|2,3:0|0:0,0:0:0:0:
145,217,42745,2,0,P|123:238|107:262,1,58.4999973220826,0|0,1:0|0:0,0:0:0:0:
0,254,43094,2,0,P|-2:225|0:196,1,58.4999973220826,0|0,1:0|0:0,0:0:0:0:
0,379,43443,6,0,B|0:373|22:359|16:334|16:334|51:367|106:359|106:359|149:331|189:351,1,233.999989288331,4|8,3:1|0:0,0:0:0:0:
189,351,44490,5,2,0:1:0:0:
356,321,44838,1,0,1:0:0:0:
280,379,45013,1,8,0:1:0:0:
280,379,45100,1,8,0:1:0:0:
280,379,45187,2,0,P|274:325|275:271,1,107.999996704102,0|8,1:0|0:3,0:0:0:0:
275,271,45885,5,8,0:3:0:0:
363,297,46059,1,8,0:3:0:0:
403,221,46234,1,4,0:3:0:0:
336,379,46583,6,0,P|282:371|228:368,1,107.999996704102,4|10,3:2|0:0,0:0:0:0:
66,227,47280,2,0,P|119:219|173:216,1,107.999996704102,2|10,1:2|0:0,0:0:0:0:
268,277,47804,1,2,0:0:0:0:
268,277,47978,2,0,P|293:288|320:293,1,53.9999983520508
448,291,48327,1,10,3:2:0:0:
320,208,48676,1,0,1:0:0:0:
448,125,49025,1,10,0:0:0:0:
245,28,49373,6,0,P|192:31|139:41,1,107.999996704102,2|8,3:2|0:0,0:0:0:0:
33,328,50071,1,0,1:0:0:0:
79,199,50420,2,0,P|104:192|131:196,1,53.9999983520508,10|0,0:0|0:0,0:0:0:0:
208,260,50769,2,0,P|260:250|330:248,1,107.999996704102,2|2,0:0|3:3,0:0:0:0:
273,366,51466,1,0,1:0:0:0:
250,162,51815,1,10,0:0:0:0:
411,333,52164,2,0,P|432:338|464:344,2,53.9999983520508,2|0|8,3:2|0:0|0:0,0:0:0:0:
234,125,52862,6,0,P|239:70|217:18,1,107.999996704102,0|8,1:0|0:0,0:0:0:0:
207,135,53385,2,0,P|183:84|139:51,1,107.999996704102,2|0,0:0|0:0,0:0:0:0:
175,158,53908,2,0,P|153:142|127:135,1,53.9999983520508,8|2,3:2|0:0,0:0:0:0:
0,134,54257,1,0,1:0:0:0:
210,353,54606,1,10,0:0:0:0:
143,267,54955,6,0,P|196:260|250:255,1,107.999996704102,0|8,3:0|0:0,0:0:0:0:
374,93,55652,2,0,P|356:143|352:197,1,107.999996704102,0|8,1:0|0:0,0:0:0:0:
445,360,56350,1,2,0:0:0:0:
453,334,56525,1,0,0:0:0:0:
460,308,56699,1,2,3:3:0:0:
253,264,57048,1,0,1:0:0:0:
164,351,57397,2,0,P|135:346|109:343,1,53.9999983520508,10|0,0:0|0:0,0:0:0:0:
37,375,57745,6,0,P|73:329|60:269,1,107.999996704102,0|8,3:0|0:0,0:0:0:0:
28,160,58443,2,0,P|35:110|50:54,1,107.999996704102,0|8,1:0|0:0,0:0:0:0:
234,32,59141,1,2,0:0:0:0:
243,67,59315,1,0,0:0:0:0:
253,104,59490,2,0,P|292:96|333:92,1,80.9999975280763,2|0,3:3|0:0,0:0:0:0:
352,94,59838,1,0,1:0:0:0:
380,261,60187,5,10,0:0:0:0:
380,261,60362,1,0,0:0:0:0:
466,345,60536,1,0,3:0:0:0:
309,357,60885,6,0,P|255:348|201:343,1,107.999996704102,8|0,0:0|1:0,0:0:0:0:
73,194,61583,1,8,0:0:0:0:
112,196,61757,1,0,0:0:0:0:
150,197,61931,2,0,P|162:162|152:119,1,80.9999975280763,2|0,0:0|0:0,0:0:0:0:
147,96,62280,2,0,P|177:122|214:138,1,80.9999975280763,2|0,3:3|0:0,0:0:0:0:
239,147,62629,2,0,P|226:108|228:68,1,80.9999975280763,0|0,1:0|0:0,0:0:0:0:
236,45,62978,1,8,0:0:0:0:
348,86,63327,6,0,P|373:84|401:81,2,53.9999983520508,2|0|8,3:2|0:0|0:0,0:0:0:0:
348,215,64025,1,0,1:0:0:0:
348,342,64373,2,0,P|321:342|297:330,1,53.9999983520508,8|0,0:0|0:0,0:0:0:0:
256,246,64722,2,0,P|209:220|160:238,1,107.999996704102,2|2,0:0|3:3,0:0:0:0:
104,358,65420,1,0,1:0:0:0:
36,254,65769,1,8,0:0:0:0:
76,48,66118,6,0,P|130:45|184:39,1,107.999996704102,0|8,3:0|0:0,0:0:0:0:
227,35,66641,1,2,0:0:0:0:
357,58,66815,1,0,1:0:0:0:
357,58,67164,5,8,0:0:0:0:
362,89,67338,1,0,3:2:0:0:
366,121,67513,1,2,0:0:0:0:
382,225,67687,1,0,1:0:0:0:
382,225,67862,6,0,P|344:214|303:213,1,80.9999975280763,0|0,3:0|0:0,0:0:0:0:
287,223,68211,1,0,1:0:0:0:
332,300,68385,1,0,1:0:0:0:
459,251,68559,2,0,P|462:237|465:224,3,26.9999991760254,8|0|0|0,0:3|3:0|3:0|3:0,0:0:0:0:
489,243,68908,6,0,P|484:190|483:135,1,107.999996704102,4|8,3:2|0:0,0:0:0:0:
300,12,69606,2,0,P|300:65|295:120,1,107.999996704102,0|10,1:0|0:0,0:0:0:0:
242,212,70129,1,2,0:0:0:0:
242,212,70304,2,0,P|214:202|164:181,1,53.9999983520508,0|0,0:0|0:0,0:0:0:0:
109,113,70652,1,2,3:3:0:0:
269,130,71001,1,0,1:0:0:0:
216,287,71350,1,10,0:0:0:0:
10,204,71699,6,0,P|13:151|31:100,1,107.999996704102,2|8,3:2|0:0,0:0:0:0:
278,272,72397,1,0,1:0:0:0:
260,123,72745,2,0,P|249:97|235:75,1,53.9999983520508,10|0,0:0|0:0,0:0:0:0:
346,35,73094,2,0,P|396:15|448:3,1,107.999996704102,2|2,0:0|3:3,0:0:0:0:
346,121,73791,1,0,1:0:0:0:
454,287,74141,1,8,0:0:0:0:
417,306,74315,1,2,0:0:0:0:
383,324,74489,2,0,P|356:328|330:334,2,53.9999983520508,0|2|8,3:0|0:0|0:0,0:0:0:0:
453,153,75187,6,0,P|458:98|436:46,1,107.999996704102,0|8,1:0|0:0,0:0:0:0:
347,0,75710,2,0,P|388:33|410:82,1,107.999996704102,2|0,0:0|0:0,0:0:0:0:
310,92,76234,1,2,3:3:0:0:
189,0,76583,1,0,1:0:0:0:
56,165,76932,1,8,0:0:0:0:
80,138,77106,1,0,0:0:0:0:
103,107,77281,6,0,P|100:53|91:0,1,107.999996704102,2|10,3:2|0:0,0:0:0:0:
217,131,77978,2,0,P|207:184|204:238,1,107.999996704102,0|2,1:2|0:0,0:0:0:0:
242,329,78501,1,2,0:0:0:0:
242,329,78676,2,0,L|295:331,1,53.9999983520508,0|0,0:0|0:0,0:0:0:0:
372,384,79025,2,0,L|425:380,1,53.9999983520508,2|0,3:3|0:0,0:0:0:0:
504,332,79374,1,0,1:0:0:0:
433,233,79723,2,0,P|438:204|441:178,1,53.9999983520508,8|2,0:0|0:0,0:0:0:0:
419,104,80071,6,0,P|459:139|512:136,1,107.999996704102,0|2,3:2|0:3,0:0:0:0:
356,19,80769,2,0,P|341:71|334:124,1,107.999996704102,0|8,1:0|0:0,0:0:0:0:
256,203,81292,1,0,0:0:0:0:
256,203,81466,2,0,P|256:173|252:136,1,53.9999983520508,2|0,0:0|0:0,0:0:0:0:
202,76,81815,2,0,P|163:68|122:64,1,80.9999975280763,2|0,3:3|0:0,0:0:0:0:
105,65,82164,1,0,1:0:0:0:
8,175,82513,5,8,0:0:0:0:
6,207,82688,1,2,0:0:0:0:
9,239,82862,1,0,3:0:0:0:
144,378,83211,6,0,P|196:375|251:364,1,107.999996704102,2|0,0:0|1:0,0:0:0:0:
410,295,83909,1,8,0:0:0:0:
388,282,84083,1,0,0:0:0:0:
364,266,84257,2,0,P|324:256|284:254,1,80.9999975280763,2|0,0:0|0:0,0:0:0:0:
261,235,84606,2,0,P|230:261|193:277,1,80.9999975280763,2|0,3:3|0:0,0:0:0:0:
164,267,84955,2,0,P|151:228|125:197,1,80.9999975280763,0|0,1:0|0:0,0:0:0:0:
106,182,85304,1,8,0:0:0:0:
9,104,85652,6,0,P|9:77|13:50,1,53.9999983520508,2|0,3:2|0:0,0:0:0:0:
83,0,86001,1,8,0:0:0:0:
220,68,86350,1,0,1:0:0:0:
114,168,86698,2,0,P|116:139|122:109,1,53.9999983520508,8|2,0:0|0:0,0:0:0:0:
220,68,87048,2,0,P|273:76|326:72,1,107.999996704102,0|2,3:0|0:3,0:0:0:0:
491,0,87745,1,0,1:0:0:0:
426,146,88094,1,8,0:0:0:0:
436,230,88269,1,0,0:0:0:0:
444,315,88443,6,0,P|390:320|336:323,1,107.999996704102,2|8,3:2|0:0,0:0:0:0:
315,319,88966,1,0,3:0:0:0:
249,382,89140,1,2,1:3:0:0:
219,383,89489,5,0,3:0:0:0:
160,326,89664,1,0,1:0:0:0:
78,315,89838,1,2,0:0:0:0:
3,369,90012,5,0,1:0:0:0:
0,353,90187,2,0,P|-4:313|0:273,1,80.9999975280763,8|0,0:3|0:0,0:0:0:0:
10,258,90536,5,0,1:0:0:0:
70,164,90710,1,0,1:0:0:0:
29,26,90885,2,0,P|26:12|23:-1,3,26.9999991760254,4|0|0|0,0:3|3:0|3:0|3:0,0:0:0:0:
60,35,91234,6,0,P|114:31|168:29,1,107.999996704102,4|8,3:2|0:0,0:0:0:0:
257,117,91931,2,0,P|310:119|364:122,1,107.999996704102,0|8,3:0|0:0,0:0:0:0:
477,44,92629,1,0,3:0:0:0:
420,203,92978,2,0,P|382:214|340:216,1,80.9999975280763,2|0,0:3|0:0,0:0:0:0:
317,213,93327,1,0,1:0:0:0:
23,150,93676,1,8,0:0:0:0:
124,235,93850,1,0,0:0:0:0:
124,235,93937,1,0,0:0:0:0:
123,234,94025,6,0,P|112:289|104:340,1,107.999996704102,2|2,3:2|0:3,0:0:0:0:
93,138,94722,2,0,P|56:180|23:220,1,107.999996704102,0|8,3:0|0:0,0:0:0:0:
119,37,95420,2,0,P|65:55|17:74,1,107.999996704102,0|2,3:0|0:3,0:0:0:0:
252,109,96118,2,0,P|321:136|353:69,1,161.999995056153,0|0,1:0|0:0,0:0:0:0:
378,138,96815,6,0,P|384:192|386:246,1,107.999996704102,0|2,3:0|0:3,0:0:0:0:
257,258,97513,2,0,P|252:312|250:366,1,107.999996704102,2|8,3:2|0:0,0:0:0:0:
137,298,98036,1,2,0:0:0:0:
137,297,98211,2,0,P|130:258|137:218,1,80.9999975280763,0|0,3:2|0:0,0:0:0:0:
144,204,98559,2,0,P|183:196|214:170,1,80.9999975280763,2|0,0:3|0:0,0:0:0:0:
221,151,98908,2,0,P|217:110|215:70,1,80.9999975280763,0|0,1:0|0:0,0:0:0:0:
211,45,99257,1,8,0:0:0:0:
318,120,99431,1,2,0:0:0:0:
393,36,99606,6,0,P|432:28|471:16,1,80.9999975280763,0|0,3:0|0:0,0:0:0:0:
491,32,99955,2,0,P|484:72|483:113,1,80.9999975280763,2|0,0:3|0:0,0:0:0:0:
484,141,100304,1,2,1:3:0:0:
484,141,100652,5,0,1:0:0:0:
480,222,100827,1,0,1:0:0:0:
476,302,101001,1,0,3:0:0:0:
435,233,101176,5,8,0:3:0:0:
384,215,101350,1,4,0:3:0:0:
331,228,101525,1,8,0:1:0:0:
326,243,101612,1,8,0:1:0:0:
321,253,101699,6,0,P|286:255|251:265,1,72,4|2,3:2|0:0,0:0:0:0:
49,342,102222,1,8,0:1:0:0:
49,342,102309,1,8,0:1:0:0:
49,342,102397,1,4,3:1:0:0:
99,159,102745,6,0,P|97:99|98:53,1,80.9999975280763,2|0,3:2|0:0,0:0:0:0:
98,52,103094,1,0,1:0:0:0:
98,52,103443,6,0,P|148:32|196:8,1,107.999996704102,4|8,3:2|0:0,0:0:0:0:
359,30,104141,1,8,0:3:0:0:
362,84,104315,1,0,3:0:0:0:
283,105,104490,5,0,1:0:0:0:
265,185,104664,1,0,1:0:0:0:
330,232,104838,1,4,0:3:0:0:
408,206,105013,1,8,0:1:0:0:
408,206,105100,1,8,0:1:0:0:
408,206,105187,6,0,P|461:195|512:181,1,107.999996704102,4|2,3:2|3:2,0:0:0:0:
389,308,105885,1,0,1:0:0:0:
268,119,106234,2,0,P|251:166|240:223,1,107.999996704102,4|8,3:2|0:0,0:0:0:0:
303,363,106931,1,0,1:0:0:0:
437,291,107280,1,0,1:0:0:0:
304,346,107629,1,0,1:0:0:0:
217,343,107804,1,0,1:0:0:0:
128,340,107978,6,0,P|81:341|20:334,1,107.999996704102,4|8,3:1|0:0,0:0:0:0:
163,192,108676,2,0,P|216:186|270:186,1,107.999996704102,0|2,1:0|0:3,0:0:0:0:
360,230,109199,1,2,0:0:0:0:
324,107,109373,2,0,P|317:54|315:-4,1,107.999996704102,2|2,3:3|0:3,0:0:0:0:
237,138,110071,6,0,P|225:161|214:187,1,53.9999983520508,0|0,1:0|0:0,0:0:0:0:
141,260,110420,2,0,P|131:234|118:210,1,53.9999983520508,0|0,1:0|0:0,0:0:0:0:
69,133,110769,5,2,0:0:0:0:
69,133,112862,1,4,3:3:0:0:
103,53,113211,1,2,0:0:0:0:
192,90,113385,1,8,0:0:0:0:
192,90,113472,1,8,0:0:0:0:
191,89,113559,6,0,P|254:80|317:77,1,125.999996154785,4|2,3:1|0:0,0:0:0:0:
421,228,114083,1,0,3:0:0:0:
345,227,114257,2,0,P|285:217|262:161,1,125.999996154785,0|2,1:0|0:0,0:0:0:0:
405,51,114780,1,0,1:0:0:0:
475,107,114955,2,0,P|485:138|489:169,1,62.9999980773926,2|0,0:1|0:0,0:0:0:0:
345,227,115304,2,0,P|349:195|358:165,1,62.9999980773926,0|0,3:0|0:0,0:0:0:0:
463,352,115652,1,0,1:0:0:0:
463,352,116001,2,0,P|432:344|401:340,1,62.9999980773926,2|8,0:0|0:1,0:0:0:0:
269,371,116263,1,8,0:1:0:0:
269,370,116350,6,0,P|206:369|143:360,1,125.999996154785,2|2,3:3|0:0,0:0:0:0:
13,245,116873,1,0,3:0:0:0:
106,207,117048,2,0,P|167:192|229:195,1,125.999996154785,0|2,1:0|0:0,0:0:0:0:
369,293,117571,1,0,1:0:0:0:
410,189,117745,2,0,P|381:175|351:165,1,62.9999980773926,2|0,0:1|1:0,0:0:0:0:
112,115,118094,1,0,3:0:0:0:
278,329,118443,1,0,1:0:0:0:
187,45,118792,1,0,0:0:0:0:
281,20,118966,1,8,0:1:0:0:
281,20,119054,1,8,0:1:0:0:
281,20,119141,6,0,P|343:25|405:38,1,125.999996154785,4|2,3:2|0:0,0:0:0:0:
495,210,119664,1,0,3:0:0:0:
467,141,119838,2,0,P|404:149|342:160,1,125.999996154785,0|2,1:0|0:0,0:0:0:0:
349,340,120362,1,0,1:0:0:0:
433,292,120536,2,0,P|429:260|420:230,1,62.9999980773926,2|0,0:1|0:0,0:0:0:0:
279,156,120885,2,0,P|270:186|266:217,1,62.9999980773926,0|0,3:0|0:0,0:0:0:0:
388,18,121234,1,0,1:0:0:0:
388,18,121583,2,0,P|356:15|325:21,1,62.9999980773926,2|8,0:0|0:1,0:0:0:0:
181,52,121844,1,8,0:1:0:0:
181,51,121931,6,0,P|149:46|120:35,1,62.9999980773926,2|0,3:3|1:0,0:0:0:0:
25,123,122280,1,2,0:0:0:0:
25,123,122455,1,0,3:0:0:0:
110,213,122629,2,0,P|140:207|168:192,1,62.9999980773926,0|0,1:0|0:0,0:0:0:0:
316,84,122978,1,2,0:0:0:0:
306,199,123152,1,0,1:0:0:0:
421,145,123327,2,0,P|431:115|437:84,1,62.9999980773926,2|2,0:1|1:2,0:0:0:0:
200,136,123676,1,0,3:0:0:0:
200,136,124025,5,0,1:0:0:0:
235,269,124199,1,0,1:0:0:0:
410,352,124373,1,8,0:3:0:0:
423,350,124461,1,8,0:3:0:0:
436,349,124548,1,8,0:3:0:0:
449,345,124635,1,4,0:3:0:0:
462,341,124722,6,0,P|454:278|438:217,1,125.999996154785,4|2,3:2|0:0,0:0:0:0:
318,51,125245,2,0,P|315:67|312:83,1,31.4999990386963,0|0,3:0|0:0,0:0:0:0:
227,123,125420,2,0,P|208:64|238:10,1,125.999996154785,0|2,1:0|0:0,0:0:0:0:
391,141,125943,1,0,1:0:0:0:
365,234,126118,2,0,P|333:234|303:225,1,62.9999980773926,2|0,0:1|0:0,0:0:0:0:
226,381,126466,2,0,P|217:351|218:320,1,62.9999980773926,0|0,3:0|0:0,0:0:0:0:
62,280,126815,1,0,1:0:0:0:
125,97,127164,2,0,P|141:95|157:92,2,31.4999990386963,0|0|0,3:2|0:0|0:0,0:0:0:0:
39,167,127513,6,0,P|21:107|32:46,1,125.999996154785,2|2,3:0|0:0,0:0:0:0:
199,18,128036,1,0,3:3:0:0:
270,69,128211,2,0,P|325:96|387:88,1,125.999996154785,0|2,1:0|0:0,0:0:0:0:
501,19,128734,1,0,1:0:0:0:
481,116,128908,2,0,P|485:149|486:178,1,62.9999980773926,2|0,0:1|1:3,0:0:0:0:
469,333,129257,1,0,3:0:0:0:
468,332,129606,2,0,P|415:280|343:302,1,157.499995193482,0|0,1:0|0:1,0:0:0:0:
340,314,130129,1,8,0:1:0:0:
333,325,130216,1,8,0:1:0:0:
327,336,130304,6,0,P|264:329|201:328,1,125.999996154785,4|2,3:2|0:0,0:0:0:0:
8,347,130827,1,0,3:3:0:0:
39,275,131001,2,0,P|100:261|160:242,1,125.999996154785,0|2,1:0|0:0,0:0:0:0:
294,182,131525,1,0,1:0:0:0:
327,106,131699,1,2,0:1:0:0:
327,106,132048,2,0,P|297:100|265:94,1,62.9999980773926,2|0,3:2|0:0,0:0:0:0:
29,81,132397,2,0,P|77:119|83:180,1,125.999996154785,0|0,1:0|0:0,0:0:0:0:
28,361,132920,1,8,0:1:0:0:
28,361,133007,1,8,0:1:0:0:
27,361,133094,6,0,P|89:350|152:347,1,125.999996154785,2|2,3:3|0:0,0:0:0:0:
315,330,133618,1,0,3:0:0:0:
434,263,133792,2,0,P|402:266|372:273,1,62.9999980773926,0|0,1:0|0:0,0:0:0:0:
317,346,134141,1,0,1:0:0:0:
174,287,134315,2,0,P|206:290|237:297,1,62.9999980773926,0|0,1:0|3:0,0:0:0:0:
320,363,134664,1,8,0:3:0:0:
291,221,134838,5,4,3:0:0:0:
199,378,135187,1,4,0:3:0:0:
108,221,135536,1,0,3:0:0:0:
70,287,135711,1,0,3:0:0:0:
32,221,135885,1,2,0:0:0:0:
416,124,140420,5,0,3:0:0:0:
416,124,140594,1,0,3:0:0:0:
352,169,140769,2,0,P|299:156|245:151,1,107.999996704102,4|0,3:0|0:0,0:0:0:0:
246,152,141466,6,0,P|188:164|130:171,1,116.999994644165,4|2,3:1|0:3,0:0:0:0:
0,82,141989,1,0,3:0:0:0:
48,19,142164,2,0,P|105:31|163:38,1,116.999994644165,0|2,1:0|0:3,0:0:0:0:
318,0,142687,1,0,3:0:0:0:
282,66,142862,6,0,P|273:94|270:123,1,58.4999973220826,2|0,0:0|0:0,0:0:0:0:
411,138,143210,2,0,P|384:126|356:118,1,58.4999973220826,2|2,3:3|0:0,0:0:0:0:
269,240,143559,2,0,P|288:295|296:353,1,116.999994644165,0|2,1:0|0:3,0:0:0:0:
457,364,144257,6,0,P|470:307|491:253,1,116.999994644165,2|2,3:2|0:3,0:0:0:0:
453,103,144780,1,0,3:0:0:0:
383,136,144955,2,0,P|331:111|266:101,1,116.999994644165,0|2,1:2|3:3,0:0:0:0:
119,121,145478,1,0,3:0:0:0:
155,42,145652,6,0,P|182:33|211:30,1,58.4999973220826,8|0,3:0|0:0,0:0:0:0:
68,46,146001,2,0,P|40:37|11:34,1,58.4999973220826,10|0,3:3|0:0,0:0:0:0:
119,121,146350,5,0,1:0:0:0:
130,200,146525,1,8,3:0:0:0:
140,279,146699,1,6,3:3:0:0:
202,144,147048,6,0,P|255:147|309:154,1,107.999996704102,4|10,3:2|0:0,0:0:0:0:
487,25,147745,2,0,P|433:33|379:36,1,107.999996704102,2|10,1:2|0:0,0:0:0:0:
282,85,148269,1,2,0:0:0:0:
282,85,148443,2,0,P|257:74|230:69,1,53.9999983520508,0|0,0:0|0:0,0:0:0:0:
136,151,148792,1,10,3:2:0:0:
67,9,149141,1,0,1:0:0:0:
0,155,149490,1,10,0:0:0:0:
205,71,149838,6,0,P|258:60|311:57,1,107.999996704102,2|8,3:2|0:0,0:0:0:0:
478,310,150536,1,0,1:0:0:0:
371,206,150885,2,0,P|377:179|390:156,1,53.9999983520508,10|0,0:0|0:0,0:0:0:0:
375,306,151234,2,0,P|335:342|286:363,1,107.999996704102,2|2,0:0|3:3,0:0:0:0:
283,243,151931,1,0,1:0:0:0:
422,384,152280,1,10,0:0:0:0:
436,151,152629,2,0,P|430:124|423:98,2,53.9999983520508,2|0|8,3:2|0:0|0:0,0:0:0:0:
319,336,153327,6,0,P|276:300|221:288,1,107.999996704102,0|8,1:0|0:0,0:0:0:0:
327,354,153850,2,0,P|351:303|395:270,1,107.999996704102,2|0,0:0|0:0,0:0:0:0:
319,378,154373,1,2,3:3:0:0:
144,285,154722,1,0,1:0:0:0:
255,172,155071,1,10,0:0:0:0:
279,145,155245,1,0,0:0:0:0:
302,114,155420,6,0,P|295:61|290:6,1,107.999996704102,0|8,3:0|0:0,0:0:0:0:
458,107,156118,2,0,P|430:113|404:116,1,53.9999983520508,0|0,1:0|0:0,0:0:0:0:
296,62,156466,1,8,0:0:0:0:
129,96,156815,5,2,0:0:0:0:
155,102,156990,1,0,0:0:0:0:
182,108,157164,1,2,3:3:0:0:
287,231,157513,1,0,1:0:0:0:
370,132,157862,2,0,P|376:103|379:77,1,53.9999983520508,10|0,0:0|0:0,0:0:0:0:
331,161,158211,6,0,P|362:203|363:258,1,107.999996704102,0|2,3:0|0:3,0:0:0:0:
249,340,158908,2,0,P|196:328|142:323,1,107.999996704102,0|8,1:0|0:0,0:0:0:0:
72,229,159431,1,0,0:0:0:0:
72,229,159606,2,0,L|88:162,1,53.9999983520508,2|0,0:0|0:0,0:0:0:0:
9,321,159955,2,0,P|48:313|89:309,1,80.9999975280763,2|0,3:3|0:0,0:0:0:0:
109,312,160303,1,0,1:0:0:0:
219,220,160652,5,10,0:0:0:0:
219,187,160826,1,0,0:0:0:0:
219,154,161001,1,0,3:0:0:0:
48,140,161350,6,0,P|84:178|137:183,1,107.999996704102,8|0,0:0|1:0,0:0:0:0:
316,145,162048,1,8,0:0:0:0:
277,143,162222,1,0,0:0:0:0:
238,142,162396,2,0,P|225:180|218:220,1,80.9999975280763,2|0,0:0|0:0,0:0:0:0:
252,227,162745,2,0,P|267:266|275:303,1,80.9999975280763,2|0,3:3|0:0,0:0:0:0:
291,331,163094,2,0,P|327:311|366:306,1,80.9999975280763,0|0,1:0|0:0,0:0:0:0:
384,311,163443,1,8,0:0:0:0:
470,211,163792,6,0,P|473:184|478:157,2,53.9999983520508,2|0|8,3:2|0:0|0:0,0:0:0:0:
453,363,164490,1,0,1:0:0:0:
337,274,164838,2,0,P|312:262|281:259,1,53.9999983520508,8|0,0:0|0:0,0:0:0:0:
203,175,165187,2,0,P|183:124|169:72,1,107.999996704102,2|2,0:0|3:3,0:0:0:0:
84,172,165885,1,0,1:0:0:0:
0,85,166234,1,8,0:0:0:0:
35,263,166583,6,0,P|88:257|141:248,1,107.999996704102,0|8,3:0|0:0,0:0:0:0:
204,177,167106,1,2,0:0:0:0:
326,174,167280,1,0,1:0:0:0:
328,205,167629,5,0,3:0:0:0:
263,261,167803,1,0,3:2:0:0:
258,349,167978,1,2,0:0:0:0:
338,381,168152,5,0,1:0:0:0:
356,361,168327,2,0,P|396:360|435:349,1,80.9999975280763,0|0,3:0|0:0,0:0:0:0:
452,336,168676,5,0,1:0:0:0:
512,258,168850,1,0,1:0:0:0:
450,135,169025,2,0,P|453:121|456:108,3,26.9999991760254,4|0|0|0,0:3|3:0|3:0|3:0,0:0:0:0:
441,93,169373,6,0,P|388:98|333:99,1,107.999996704102,4|8,3:2|0:0,0:0:0:0:
243,36,170071,2,0,P|189:36|135:42,1,107.999996704102,0|8,3:0|0:0,0:0:0:0:
233,157,170594,1,0,0:0:0:0:
233,157,170769,2,0,P|236:197|239:237,1,80.9999975280763,0|0,3:0|0:0,0:0:0:0:
235,260,171118,2,0,P|196:252|157:258,1,80.9999975280763,2|0,0:3|0:0,0:0:0:0:
140,277,171466,1,0,1:0:0:0:
195,365,171815,2,0,P|221:366|248:359,1,53.9999983520508,8|0,0:0|0:0,0:0:0:0:
382,283,172164,6,0,P|388:230|408:180,1,107.999996704102,2|2,3:2|0:3,0:0:0:0:
466,128,172687,2,0,P|459:74|439:24,1,107.999996704102,2|0,0:0|0:0,0:0:0:0:
366,11,173210,1,8,0:0:0:0:
187,25,173559,1,0,3:0:0:0:
138,90,173908,2,0,P|98:86|53:82,1,80.9999975280763,2|0,0:3|0:0,0:0:0:0:
58,94,174257,2,0,P|102:156|65:223,1,161.999995056153,0|0,1:0|0:0,0:0:0:0:
178,160,174955,6,0,P|227:144|263:181,1,107.999996704102,0|2,3:0|0:3,0:0:0:0:
297,332,175652,2,0,P|348:347|395:322,1,107.999996704102,2|8,3:2|0:0,0:0:0:0:
356,173,176176,1,2,0:0:0:0:
356,173,176350,2,0,P|347:120|340:67,1,107.999996704102,0|2,3:2|0:3,0:0:0:0:
295,231,177048,2,0,P|253:196|211:164,1,107.999996704102,0|8,1:0|0:0,0:0:0:0:
120,333,177571,1,2,0:0:0:0:
120,333,177658,1,2,0:0:0:0:
119,332,177745,6,0,P|119:279|110:225,1,107.999996704102,0|2,3:0|0:3,0:0:0:0:
80,24,178443,1,2,1:3:0:0:
37,85,178792,5,0,1:0:0:0:
215,23,178966,1,0,1:0:0:0:
174,86,179315,5,8,0:3:0:0:
327,19,179490,1,4,0:3:0:0:
327,19,179664,1,0,3:0:0:0:
276,100,179838,6,0,P|355:99|417:49,1,161.999995056153,4|8,3:2|0:1,0:0:0:0:
416,104,180449,1,8,0:1:0:0:
405,135,180536,1,4,3:1:0:0:
348,344,180885,1,0,3:0:0:0:
154,122,181234,2,0,P|149:140|146:158,1,36,0|0,1:0|0:0,0:0:0:0:
143,274,181495,1,8,0:1:0:0:
151,306,181583,1,4,3:2:0:0:
151,306,182280,5,0,3:0:0:0:
151,306,182629,1,0,1:0:0:0:
85,225,182804,1,0,1:0:0:0:
129,131,182978,2,0,P|146:110|164:90,1,53.9999983520508,0|0,3:0|0:0,0:0:0:0:
270,39,183240,1,8,0:1:0:0:
298,46,183327,5,4,3:2:0:0:
388,139,183676,1,0,1:0:0:0:
388,139,184025,1,0,1:0:0:0:
252,343,184373,2,0,P|199:351|145:354,1,107.999996704102,4|0,3:2|0:0,0:0:0:0:
437,300,185071,5,0,1:0:0:0:
437,300,185420,1,0,3:0:0:0:
437,300,185769,1,0,1:0:0:0:
481,207,185943,1,0,1:0:0:0:
417,125,186118,6,0,P|405:72|401:18,1,107.999996704102,6|0,3:1|3:0,0:0:0:0:
296,185,186815,2,0,P|307:237|311:291,1,107.999996704102,0|0,1:0|3:0,0:0:0:0:
217,152,187338,1,0,1:0:0:0:
169,221,187513,2,0,P|117:224|61:230,1,107.999996704102,0|0,3:0|3:0,0:0:0:0:
183,374,188211,1,0,1:0:0:0:
183,374,188559,1,0,3:0:0:0:
285,338,188734,1,0,3:0:0:0:
392,351,188908,6,0,P|387:324|386:297,1,53.9999983520508,4|0,1:1|3:0,0:0:0:0:
391,19,189431,1,0,3:0:0:0:
415,101,189606,1,0,1:0:0:0:
408,123,189955,5,0,1:0:0:0:
334,84,190129,1,0,3:0:0:0:
319,104,190304,1,0,1:0:0:0:
245,204,190478,1,0,1:0:0:0:
164,162,190652,1,0,1:0:0:0:
64,249,190827,1,8,0:1:0:0:
64,271,190914,1,8,0:1:0:0:
65,295,191001,1,0,1:0:0:0:
157,357,191176,6,0,P|207:336|261:334,1,107.999996704102,8|0,3:3|0:0,0:0:0:0:
356,369,191612,1,0,0:0:0:0:
395,383,191699,6,0,P|394:339|419:259,1,125.999996154785,4|2,3:1|0:0,0:0:0:0:
487,98,192222,1,0,3:0:0:0:
418,140,192396,2,0,P|358:130|335:74,1,125.999996154785,0|2,1:0|0:0,0:0:0:0:
171,7,192919,1,0,1:0:0:0:
182,91,193094,2,0,P|214:93|245:88,1,62.9999980773926,2|0,0:1|0:0,0:0:0:0:
428,68,193443,2,0,P|398:57|367:53,1,62.9999980773926,0|0,3:0|0:0,0:0:0:0:
338,273,193791,1,0,1:0:0:0:
338,273,194141,2,0,P|307:265|271:260,1,62.9999980773926,2|8,0:0|0:1,0:0:0:0:
161,303,194402,1,8,0:1:0:0:
160,302,194489,6,0,P|150:239|152:176,1,125.999996154785,2|2,3:3|0:0,0:0:0:0:
250,28,195012,1,0,3:0:0:0:
317,78,195187,2,0,P|380:67|443:67,1,125.999996154785,0|2,1:0|0:0,0:0:0:0:
512,207,195710,1,0,1:0:0:0:
399,256,195885,1,2,0:1:0:0:
441,66,196234,1,0,3:0:0:0:
335,315,196583,1,0,1:0:0:0:
159,116,196931,1,0,0:0:0:0:
194,202,197105,1,8,0:1:0:0:
194,202,197193,1,8,0:1:0:0:
194,202,197280,6,0,P|173:260|160:322,1,125.999996154785,4|2,3:2|0:0,0:0:0:0:
22,197,197803,1,0,3:0:0:0:
58,123,197978,2,0,P|120:119|181:103,1,125.999996154785,0|2,1:0|0:0,0:0:0:0:
326,16,198501,1,0,1:0:0:0:
292,99,198675,2,0,P|283:129|279:160,1,62.9999980773926,2|0,0:1|0:0,0:0:0:0:
441,43,199025,2,0,P|457:69|470:98,1,62.9999980773926,0|0,3:0|0:0,0:0:0:0:
495,303,199373,1,0,1:0:0:0:
495,303,199722,2,0,P|464:312|433:316,1,62.9999980773926,2|8,0:0|0:1,0:0:0:0:
332,262,199983,1,8,0:1:0:0:
331,262,200071,6,0,P|267:262|207:279,1,125.999996154785,2|2,3:3|0:0,0:0:0:0:
28,384,200594,1,0,3:0:0:0:
47,293,200769,2,0,P|14:238|0:177,1,125.999996154785,0|2,1:0|0:0,0:0:0:0:
107,39,201291,1,0,1:0:0:0:
187,89,201466,2,0,P|216:78|247:72,1,62.9999980773926,2|2,0:1|1:2,0:0:0:0:
383,96,201815,1,0,3:0:0:0:
383,96,202164,5,0,1:0:0:0:
297,0,202338,1,0,1:0:0:0:
241,174,202512,1,8,0:3:0:0:
239,187,202600,1,8,0:3:0:0:
238,200,202687,1,8,0:3:0:0:
234,213,202774,1,4,0:3:0:0:
230,226,202862,6,0,P|167:218|106:202,1,125.999996154785,4|2,3:2|0:0,0:0:0:0:
16,51,203384,2,0,P|13:35|10:19,1,31.4999990386963,0|0,3:0|0:0,0:0:0:0:
0,147,203559,2,0,P|60:139|97:90,1,125.999996154785,0|2,1:0|0:0,0:0:0:0:
198,9,204082,1,0,1:0:0:0:
286,25,204256,1,2,0:2:0:0:
241,170,204431,1,0,1:0:0:0:
380,49,204605,1,0,3:0:0:0:
387,67,204955,1,0,1:0:0:0:
269,218,205304,1,0,3:2:0:0:
269,218,205391,1,0,0:0:0:0:
269,218,205478,1,0,0:0:0:0:
268,65,205652,6,0,P|219:25|158:12,1,125.999996154785,2|2,3:0|0:0,0:0:0:0:
21,161,206175,1,0,3:3:0:0:
91,116,206350,2,0,P|87:54|60:-11,1,125.999996154785,0|2,1:0|0:0,0:0:0:0:
176,70,206873,1,0,1:0:0:0:
227,145,207048,2,0,P|256:133|286:125,1,62.9999980773926,2|0,0:1|1:3,0:0:0:0:
391,235,207396,1,0,3:0:0:0:
391,235,207745,2,0,P|372:176|402:123,1,125.999996154785,0|2,1:0|0:0,0:0:0:0:
487,13,208268,1,8,0:1:0:0:
480,24,208355,1,8,0:1:0:0:
474,35,208443,6,0,P|411:28|348:27,1,125.999996154785,4|2,3:2|0:0,0:0:0:0:
213,157,208966,1,0,3:3:0:0:
304,157,209141,2,0,P|296:126|284:97,1,62.9999980773926,0|0,1:0|0:0,0:0:0:0:
184,18,209490,2,0,P|172:47|164:77,1,62.9999980773926,2|0,3:2|0:0,0:0:0:0:
84,208,209838,6,0,P|54:219|24:227,1,62.9999980773926,0|0,1:0|0:0,0:0:0:0:
168,301,210187,2,0,P|197:312|227:320,1,62.9999980773926,0|0,1:0|0:0,0:0:0:0:
348,261,210536,1,0,1:0:0:0:
458,326,210711,1,0,3:0:0:0:
488,240,210885,1,8,0:3:0:0:
458,326,211059,1,8,0:1:0:0:
458,326,211147,1,8,0:1:0:0:
458,326,211234,6,0,P|404:330|350:335,1,107.999996704102,4|0,3:1|0:0,0:0:0:0:
173,371,211931,2,0,P|119:365|65:361,1,107.999996704102,2|0,1:2|0:0,0:0:0:0:
136,223,212455,1,0,3:0:0:0:
211,292,212629,1,2,0:2:0:0:
37,236,212804,1,0,1:0:0:0:
170,129,212978,2,0,P|210:125|250:119,1,80.9999975280763,0|0,3:0|0:0,0:0:0:0:
243,91,213327,2,0,P|217:82|192:72,1,54,0|0,1:0|0:0,0:0:0:0:
199,25,213676,6,0,B|244:-10|326:6|359:79|336:116,1,215.999993408203,4|0,3:2|3:0,0:0:0:0:
245,364,214722,2,0,P|241:335|242:303,1,53.9999983520508,2|0,1:2|0:0,0:0:0:0:
248,290,214984,1,8,0:1:0:0:
255,272,215071,2,0,B|264:184|419:242|329:295|372:341,1,215.999993408203,4|0,3:2|1:0,0:0:0:0:
385,358,216118,1,0,1:0:0:0:
463,275,216292,1,0,3:2:0:0:
420,170,216466,6,0,P|368:152|319:130,1,107.999996704102,4|0,3:1|0:0,0:0:0:0:
184,28,217164,1,0,3:0:0:0:
55,141,217513,2,0,P|51:181|56:221,1,80.9999975280763,2|0,1:2|0:0,0:0:0:0:
63,241,217862,6,0,B|125:229|138:338|221:327,1,188.999994232178,2|0,3:2|0:0,0:0:0:0:
247,330,218559,2,0,P|244:356|243:383,1,53.9999983520508,2|0,3:2|0:0,0:0:0:0:
391,201,218908,2,0,P|352:209|312:213,1,80.9999975280763,0|0,1:0|0:0,0:0:0:0:
284,208,219257,2,0,P|259:196|233:192,1,53.9999983520508,0|8,3:0|0:1,0:0:0:0:
206,191,219519,1,8,0:1:0:0:
178,190,219606,6,0,P|193:138|191:84,1,107.999996704102,0|2,3:0|3:2,0:0:0:0:
28,359,220304,1,2,1:2:0:0:
182,54,220652,2,0,P|235:51|274:15,1,107.999996704102,2|2,3:2|0:2,0:0:0:0:
469,45,221350,1,0,3:0:0:0:
482,125,221525,1,0,3:0:0:0:
448,198,221699,2,0,B|409:244|467:303|426:352,1,161.999995056153,0|8,1:0|0:1,0:0:0:0:
405,370,222309,1,8,0:1:0:0:
381,369,222397,6,0,P|341:364|301:359,1,80.9999975280763,0|0,3:0|0:0,0:0:0:0:
274,354,222745,2,0,P|247:357|220:358,1,53.9999983520508,0|0,3:0|0:0,0:0:0:0:
124,244,223094,2,0,P|71:251|25:224,1,107.999996704102,2|0,1:2|0:0,0:0:0:0:
82,366,223618,2,0,P|108:364|135:360,1,53.9999983520508,0|2,3:2|3:2,0:0:0:0:
297,274,223966,1,0,1:0:0:0:
313,241,224141,1,0,3:0:0:0:
309,205,224315,1,0,3:0:0:0:
312,65,224490,2,0,P|260:62|218:94,1,107.999996704102,2|0,1:2|0:0,0:0:0:0:
285,141,225012,1,0,3:0:0:0:
421,138,225187,5,0,3:0:0:0:
438,168,225362,1,0,1:0:0:0:
442,210,225536,1,0,3:0:0:0:
432,263,225711,1,0,3:0:0:0:
394,330,225885,2,0,B|358:338|324:317|314:321,1,80.9999975280763,2|0,1:2|0:0,0:0:0:0:
287,326,226234,2,0,P|264:343|249:364,1,53.9999983520508,0|0,3:0|1:0,0:0:0:0:
159,290,226583,2,0,P|114:259|61:256,1,107.999996704102,2|8,3:2|3:0,0:0:0:0:
89,169,227106,1,8,0:3:0:0:
161,124,227280,2,0,P|157:97|146:72,1,54,0|0,3:0|0:0,0:0:0:0:
134,52,227629,6,0,P|191:43|247:31,1,107.999996704102,4|0,3:1|0:0,0:0:0:0:
394,51,228327,1,0,3:0:0:0:
270,148,228676,2,0,P|258:200|250:254,1,107.999996704102,2|2,1:2|0:0,0:0:0:0:
283,351,229199,1,0,3:0:0:0:
166,311,229373,2,0,P|139:316|115:328,1,53.9999983520508,2|0,3:2|1:0,0:0:0:0:
43,240,229722,2,0,P|68:249|94:253,1,53.9999983520508,2|0,3:2|0:0,0:0:0:0:
167,106,230071,2,0,P|162:52|175:0,1,107.999996704102,0|2,1:0|0:0,0:0:0:0:
338,121,230594,1,8,0:1:0:0:
338,121,230681,1,8,0:1:0:0:
338,121,230769,6,0,P|351:173|346:226,1,107.999996704102,0|2,3:0|3:2,0:0:0:0:
233,372,231466,1,2,1:2:0:0:
39,235,231815,2,0,P|92:230|146:221,1,107.999996704102,2|0,3:2|3:2,0:0:0:0:
321,120,232513,6,0,P|280:114|241:105,1,80.9999975280763,2|0,3:2|0:0,0:0:0:0:
231,91,232862,2,0,P|197:113|157:121,1,80.9999975280763,0|0,1:0|0:0,0:0:0:0:
125,127,233211,2,0,P|217:140|224:260,1,215.999993408203,4|0,3:2|3:0,0:0:0:0:
435,359,234257,6,0,P|410:347|384:342,1,53.9999983520508,2|0,1:2|0:0,0:0:0:0:
264,217,234606,2,0,P|269:270|271:324,1,107.999996704102,2|2,3:2|0:2,0:0:0:0:
83,344,235304,6,0,P|109:339|134:328,1,53.9999983520508,2|0,3:2|3:0,0:0:0:0:
211,205,235652,1,0,1:0:0:0:
98,253,235827,1,0,1:0:0:0:
205,381,236001,6,0,P|288:362|294:277,1,161.999995056153,4|0,3:2|0:0,0:0:0:0:
244,213,236699,2,0,P|246:178|256:140,1,53.9999983520508,2|0,3:2|0:0,0:0:0:0:
300,50,237048,1,0,1:0:0:0:
512,184,237397,6,0,P|435:192|394:127,1,161.999995056153,4|0,3:2|0:2,0:0:0:0:
331,49,238094,2,0,P|305:40|279:34,1,53.9999983520508,0|0,3:0|3:0,0:0:0:0:
213,81,238443,1,8,3:0:0:0:
149,136,238618,1,8,3:0:0:0:
66,110,238792,6,0,P|84:2|156:49,1,215.999993408203,4|0,3:2|3:0,0:0:0:0:
306,175,239838,2,0,P|360:178|414:173,1,107.999996704102,2|0,1:2|0:0,0:0:0:0:
504,288,240362,1,0,3:0:0:0:
425,337,240536,2,0,P|409:362|397:389,1,53.9999983520508,2|0,1:2|0:0,0:0:0:0:
335,305,240885,2,0,P|323:280|309:257,1,53.9999983520508,8|0,0:3|0:0,0:0:0:0:
370,105,241234,1,0,3:0:0:0:
413,173,241408,1,0,3:0:0:0:
492,159,241583,1,0,3:0:0:0:
492,159,241931,5,2,0:0:0:0:
256,192,251699,12,0,252920,0:0:0:0:
333,88,253094,6,0,P|374:53|426:46,1,107.999996704102,0|8,3:0|2:0,0:0:0:0:
294,153,253792,2,0,P|240:148|187:138,1,107.999996704102,0|8,3:0|2:0,0:0:0:0:
351,216,254490,2,0,P|343:269|337:323,1,107.999996704102,2|2,3:2|0:3,0:0:0:0:
294,153,255187,1,0,1:0:0:0:
419,273,255536,1,10,2:0:0:0:
251,346,255885,6,0,P|197:349|143:349,1,107.999996704102,0|2,3:0|2:3,0:0:0:0:
26,183,256583,2,0,P|57:226|109:235,1,107.999996704102,0|8,3:0|2:0,0:0:0:0:
112,44,257280,2,0,P|106:98|102:151,1,107.999996704102,2|2,3:2|2:3,0:0:0:0:
270,28,257978,1,0,1:0:0:0:
212,118,258327,1,2,2:0:0:0:
372,53,258676,6,0,P|422:72|472:92,1,107.999996704102,0|2,3:0|2:3,0:0:0:0:
314,153,259373,1,2,3:2:0:0:
384,223,259722,1,10,2:0:0:0:
245,366,260071,6,0,P|237:314|226:259,1,107.999996704102,2|2,3:2|2:3,0:0:0:0:
190,90,260769,2,0,P|137:99|84:106,1,107.999996704102,0|8,1:0|2:0,0:0:0:0:
150,209,261466,6,0,P|155:262|160:316,1,107.999996704102,0|2,3:0|2:3,0:0:0:0:
51,278,262164,1,2,3:3:0:0:
80,132,262513,2,0,P|80:119|80:106,3,26.9999991760254,0|0|0|0,3:0|3:0|3:0|3:0,0:0:0:0:
78,166,262862,5,2,1:2:0:0:
177,124,263036,1,0,1:0:0:0:
276,81,263211,1,0,1:0:0:0:
78,166,263559,5,0,1:0:0:0:
276,81,263733,1,0,1:0:0:0:
177,124,263908,1,0,1:0:0:0:
378,34,264083,1,0,1:0:0:0:
276,81,264955,5,2,0:0:0:0:
276,81,265652,1,2,0:0:0:0:
276,81,266350,2,0,P|329:83|379:63,1,107.999996704102,4|0,3:0|0:0,0:0:0:0:
467,14,266873,2,2,P|472:24|477:40,1,26.9999991760254,2|2,2:0|2:0,0:0:0:0:
466,83,267048,6,0,P|447:143|434:205,1,125.999996154785,4|2,3:1|0:0,0:0:0:0:
512,384,267572,1,0,3:0:0:0:
421,384,267746,2,0,P|361:373|332:319,1,125.999996154785,0|2,1:0|0:0,0:0:0:0:
441,161,268268,1,0,1:0:0:0:
373,108,268443,2,0,P|342:100|310:100,1,62.9999980773926,2|0,0:1|0:0,0:0:0:0:
265,235,268792,2,0,P|294:224|320:207,1,62.9999980773926,0|0,3:0|0:0,0:0:0:0:
107,131,269141,2,0,P|88:156|76:184,1,62.9999980773926,0|0,1:0|0:0,0:0:0:0:
71,358,269490,2,0,P|58:329|40:303,1,62.9999980773926,2|8,2:0|0:1,0:0:0:0:
23,288,269751,1,8,0:1:0:0:
23,288,269838,6,0,P|6:226|0:163,1,125.999996154785,2|2,3:3|0:0,0:0:0:0:
110,8,270362,1,0,3:0:0:0:
179,76,270536,2,0,P|157:134|147:197,1,125.999996154785,0|2,1:0|0:0,0:0:0:0:
204,362,271059,1,0,1:0:0:0:
262,250,271234,1,2,0:1:0:0:
439,360,271582,1,0,3:0:0:0:
400,119,271931,1,0,1:0:0:0:
443,382,272280,1,0,0:0:0:0:
372,306,272454,1,8,0:1:0:0:
372,306,272542,1,8,0:1:0:0:
372,306,272629,6,0,P|317:279|252:269,1,125.999996154785,4|2,3:2|0:0,0:0:0:0:
129,140,273152,1,0,3:0:0:0:
232,116,273327,2,0,P|248:55|277:-1,1,125.999996154785,0|2,1:0|0:0,0:0:0:0:
94,69,273850,1,0,1:0:0:0:
133,163,274024,2,0,P|160:178|190:188,1,62.9999980773926,2|0,0:1|0:0,0:0:0:0:
299,285,274373,2,0,P|326:269|356:260,1,62.9999980773926,0|0,3:0|0:0,0:0:0:0:
434,17,274722,2,0,P|450:43|460:73,1,62.9999980773926,0|0,1:0|0:0,0:0:0:0:
512,228,275071,2,0,P|481:221|452:208,1,62.9999980773926,2|8,0:0|0:1,0:0:0:0:
431,178,275332,1,8,0:1:0:0:
431,178,275420,6,0,P|371:154|309:148,1,125.999996154785,2|2,3:3|0:0,0:0:0:0:
92,187,275943,1,0,3:0:0:0:
121,84,276117,2,0,P|180:115|196:183,1,125.999996154785,0|2,1:0|0:0,0:0:0:0:
273,19,276641,1,0,1:0:0:0:
302,107,276815,2,0,P|291:136|286:167,1,62.9999980773926,2|2,0:1|1:2,0:0:0:0:
425,85,277164,1,0,3:0:0:0:
425,85,277513,5,0,1:0:0:0:
512,0,277687,1,0,1:0:0:0:
482,165,277861,1,8,0:3:0:0:
480,178,277949,1,8,0:3:0:0:
479,191,278036,1,8,0:3:0:0:
478,204,278123,1,4,0:3:0:0:
476,221,278210,6,0,P|491:281|499:344,1,125.999996154785,4|2,3:2|0:0,0:0:0:0:
369,275,278733,2,0,P|353:271|338:269,1,31.4999990386963,0|0,3:0|0:0,0:0:0:0:
252,339,278908,2,0,P|198:368|139:349,1,125.999996154785,0|2,1:0|0:0,0:0:0:0:
216,178,279431,1,0,1:0:0:0:
304,216,279606,2,0,P|312:247|312:278,1,62.9999980773926,2|0,0:1|0:0,0:0:0:0:
199,167,279955,2,0,P|199:136|207:104,1,62.9999980773926,0|0,3:0|0:0,0:0:0:0:
376,17,280303,1,0,1:0:0:0:
376,17,280652,2,0,L|337:22,1,31.4999990386963
276,75,280827,2,0,L|244:70,1,31.4999990386963,0|0,1:0|0:0,0:0:0:0:
81,13,281001,6,0,P|137:27|153:108,1,125.999996154785,2|2,3:0|0:0,0:0:0:0:
82,255,281524,1,0,3:3:0:0:
135,321,281699,2,0,P|190:348|252:340,1,125.999996154785,0|2,1:0|0:0,0:0:0:0:
179,197,282222,1,0,1:0:0:0:
256,153,282396,2,0,B|286:146|318:148,1,62.9999980773926,2|0,0:1|1:3,0:0:0:0:
441,257,282745,1,0,3:0:0:0:
441,257,283094,2,0,P|469:195|450:137,1,125.999996154785,0|2,1:0|0:0,0:0:0:0:
376,24,283617,1,8,0:1:0:0:
369,35,283704,1,8,0:1:0:0:
363,46,283792,6,0,P|300:39|237:38,1,125.999996154785,4|2,3:2|0:0,0:0:0:0:
31,102,284315,1,0,3:3:0:0:
106,163,284489,2,0,P|86:224|72:285,1,125.999996154785,0|2,1:0|0:0,0:0:0:0:
190,384,285013,1,0,1:0:0:0:
254,227,285187,1,2,0:2:0:0:
174,295,285362,1,0,3:0:0:0:
325,310,285536,2,0,P|356:313|387:322,1,62.9999980773926,0|0,3:0|0:0,0:0:0:0:
254,227,285885,2,0,P|246:197|231:166,1,62.9999980773926,0|0,1:0|0:0,0:0:0:0:
339,31,286234,2,0,P|325:59|318:90,1,62.9999980773926,0|0,1:0|0:0,0:0:0:0:
399,246,286583,5,0,3:0:0:0:
454,179,286757,2,0,P|482:165|512:155,1,62.9999980773926,0|0,1:0|0:0,0:0:0:0:
346,80,287106,1,0,3:0:0:0:
191,198,287280,2,0,P|103:190|86:104,1,188.999994232178,0|0,1:0|0:0,0:0:0:0:
261,0,287978,6,0,P|285:9|313:14,1,35.9999989013672,8|0,3:0|0:0,0:0:0:0:
205,105,288211,2,0,P|218:92|232:82,1,35.9999989013672,8|0,3:0|0:0,0:0:0:0:
115,169,288443,2,0,P|139:178|167:183,1,35.9999989013672,8|0,3:0|0:0,0:0:0:0:
351,257,288676,6,0,P|377:287|394:324,1,80.9999975280763,4|0,1:2|0:0,0:0:0:0:
407,357,289025,2,0,P|423:320|450:289,1,80.9999975280763,2|0,0:0|0:0,0:0:0:0:
478,252,289373,6,0,P|415:253|357:228,1,125.999996154785,4|2,3:1|0:0,0:0:0:0:
265,109,289897,1,0,3:0:0:0:
207,176,290071,2,0,P|144:183|82:194,1,125.999996154785,0|2,1:0|0:0,0:0:0:0:
167,321,290594,1,0,1:0:0:0:
257,261,290769,2,0,P|264:292|266:324,1,62.9999980773926,2|0,0:1|3:0,0:0:0:0:
366,166,291118,2,0,P|359:196|357:228,1,62.9999980773926,0|0,3:0|0:0,0:0:0:0:
447,71,291466,2,0,P|387:50|325:51,1,125.999996154785,0|2,1:0|2:0,0:0:0:0:
209,97,291990,1,8,0:1:0:0:
209,97,292077,1,8,0:1:0:0:
209,97,292164,6,0,P|177:95|146:91,1,62.9999980773926,2|0,3:3|0:0,0:0:0:0:
34,58,292426,1,2,2:0:0:0:
33,57,292513,2,0,P|45:103|52:150,1,94.499997116089,0|0,3:0|0:0,0:0:0:0:
73,169,292862,2,0,P|42:223|45:285,1,125.999996154785,0|2,1:0|0:0,0:0:0:0:
186,368,293385,1,0,1:0:0:0:
294,334,293559,2,0,P|355:347|418:353,1,125.999996154785,2|0,0:1|3:0,0:0:0:0:
106,92,294257,1,0,1:0:0:0:
363,262,294606,2,0,P|361:230|356:200,1,62.9999980773926,0|8,0:0|0:1,0:0:0:0:
313,127,294868,1,8,0:1:0:0:
313,127,294955,6,0,P|366:158|428:158,1,125.999996154785,4|2,3:2|0:0,0:0:0:0:
388,9,295478,2,0,P|403:13|418:15,1,31.4999990386963,0|0,3:0|0:0,0:0:0:0:
359,39,295652,2,0,P|299:26|239:45,1,125.999996154785,0|2,1:0|0:0,0:0:0:0:
144,270,296176,1,0,1:0:0:0:
89,194,296350,2,0,P|93:163|99:132,1,62.9999980773926,2|0,0:1|1:0,0:0:0:0:
230,218,296699,2,0,P|236:249|241:281,1,62.9999980773926,0|0,3:0|0:0,0:0:0:0:
0,81,297048,2,0,P|4:49|10:18,1,62.9999980773926,0|0,1:0|0:0,0:0:0:0:
200,131,297397,1,8,0:1:0:0:
214,136,297484,1,8,0:1:0:0:
229,136,297571,1,8,0:1:0:0:
244,132,297658,1,8,0:1:0:0:
256,123,297745,6,0,P|287:116|318:112,1,62.9999980773926,2|0,3:3|0:0,0:0:0:0:
168,208,298094,2,0,P|198:214|229:218,1,62.9999980773926,2|0,0:0|3:0,0:0:0:0:
66,337,298443,2,0,P|96:330|127:326,1,62.9999980773926,4|0,1:2|0:0,0:0:0:0:
389,243,298792,1,2,3:2:0:0:
478,305,298966,1,0,1:0:0:0:
299,377,299141,2,0,P|289:315|286:253,1,125.999996154785,2|0,0:1|3:0,0:0:0:0:
307,32,299838,1,0,1:0:0:0:
307,32,300013,1,0,1:0:0:0:
307,32,300187,1,0,1:0:0:0:
307,32,300362,1,0,1:0:0:0:
307,32,300536,5,8,3:0:0:0:
356,44,300652,1,8,3:0:0:0:
370,92,300769,1,8,3:0:0:0:
335,129,300885,1,4,3:0:0:0:
287,116,301001,1,4,3:0:0:0:
272,67,301118,1,4,3:0:0:0:
319,77,301234,6,0,P|343:134|359:195,1,125.999996154785,4|2,3:1|0:0,0:0:0:0:
317,348,301757,1,0,1:0:0:0:
317,348,301844,1,0,1:0:0:0:
317,348,301931,2,0,P|285:346|254:340,1,62.9999980773926,2|0,0:1|1:0,0:0:0:0:
76,284,302280,2,0,P|45:289|13:291,1,62.9999980773926,0|0,3:0|0:0,0:0:0:0:
267,177,302629,2,0,P|235:178|204:184,1,62.9999980773926,0|0,1:0|0:0,0:0:0:0:
19,71,302978,1,8,0:1:0:0:
34,66,303065,1,8,0:1:0:0:
49,61,303152,1,8,0:1:0:0:
64,57,303240,1,8,0:1:0:0:
78,53,303327,6,0,P|108:60|139:65,1,62.9999980773926,2|0,3:0|0:0,0:0:0:0:
279,238,303676,2,0,P|271:207|266:176,1,62.9999980773926,2|0,2:0|3:0,0:0:0:0:
440,50,304025,2,0,P|409:57|378:62,1,62.9999980773926,0|0,1:0|0:0,0:0:0:0:
198,76,304373,1,2,0:0:0:0:
266,176,304548,1,0,1:0:0:0:
135,176,304722,1,2,0:1:0:0:
451,355,305071,1,0,3:0:0:0:
61,363,305420,2,0,P|55:332|47:301,1,62.9999980773926,0|0,1:0|0:0,0:0:0:0:
199,151,305769,2,0,P|190:181|185:212,1,62.9999980773926,2|8,0:2|1:0,0:0:0:0:
202,343,306030,1,8,0:1:0:0:
202,343,306118,6,0,P|233:342|264:337,1,62.9999980773926,4|0,3:2|0:0,0:0:0:0:
331,150,306466,2,0,P|336:180|336:212,1,62.9999980773926,2|0,0:0|3:3,0:0:0:0:
488,328,306815,2,0,P|456:327|425:322,1,62.9999980773926,0|0,1:0|0:0,0:0:0:0:
260,265,307164,1,2,0:0:0:0:
443,157,307338,1,0,1:0:0:0:
369,82,307513,2,0,P|338:72|307:71,1,62.9999980773926,2|0,0:2|3:0,0:0:0:0:
132,196,307862,2,0,P|163:197|193:206,1,62.9999980773926,0|0,3:0|0:0,0:0:0:0:
341,369,308211,2,0,P|310:359|279:358,1,62.9999980773926,0|0,1:0|0:0,0:0:0:0:
477,313,308559,1,8,0:1:0:0:
475,297,308647,1,8,0:1:0:0:
469,282,308734,1,8,0:1:0:0:
457,271,308821,1,8,0:1:0:0:
442,266,308908,5,4,3:1:0:0:
193,206,309257,1,0,3:0:0:0:
439,106,309606,1,0,1:0:0:0:
196,5,309955,5,8,3:0:0:0:
119,31,310133,1,8,3:0:0:0:
67,93,310312,1,0,3:0:0:0:
65,173,310490,1,8,3:3:0:0:
109,240,310669,1,4,3:0:0:0:
464,344,311026,6,0,P|465:313|469:283,2,45,0|0|0,3:0|3:0|3:0,0:0:0:0:
254,286,311716,1,2,0:0:0:0:
4,112,317280,6,0,P|20:115|37:117,1,33.7500012874604,0|0,3:0|3:0,0:0:0:0:
180,31,317629,5,0,1:0:0:0:
37,117,317978,1,0,1:0:0:0:
91,205,318327,1,8,3:0:0:0:
91,205,318501,1,8,3:0:0:0:
91,205,318850,5,8,3:0:0:0:
160,156,319025,1,4,3:0:0:0:
242,185,319199,1,0,3:0:0:0:
447,39,319373,5,4,1:2:0:0:
447,39,320071,6,0,P|389:49|335:70,1,116.999994644165,4|2,3:1|0:3,0:0:0:0:
158,105,320594,1,0,3:0:0:0:
149,7,320769,2,0,P|205:15|244:57,1,116.999994644165,0|2,1:0|0:3,0:0:0:0:
194,204,321292,1,0,1:0:0:0:
194,204,321466,2,0,P|228:195|267:192,1,58.4999973220826,2|0,0:0|0:0,0:0:0:0:
354,321,321815,2,0,P|325:317|296:309,1,58.4999973220826,2|0,3:3|0:0,0:0:0:0:
321,111,322164,2,0,P|337:55|365:3,1,116.999994644165,0|2,1:0|0:3,0:0:0:0:
245,116,322687,1,8,0:1:0:0:
244,126,322775,1,8,0:1:0:0:
239,135,322862,6,0,P|195:172|136:174,1,116.999994644165,0|2,3:3|0:3,0:0:0:0:
12,66,323385,1,0,3:0:0:0:
77,2,323559,2,0,P|139:14|207:16,1,116.999994644165,0|2,1:0|0:3,0:0:0:0:
323,109,324083,1,0,1:0:0:0:
323,109,324257,2,0,P|348:94|371:76,1,58.4999973220826,2|0,0:0|0:0,0:0:0:0:
251,174,324606,2,0,P|276:188|303:200,1,58.4999973220826,2|0,3:3|0:0,0:0:0:0:
365,362,324955,2,0,P|391:311|374:256,1,116.999994644165,0|2,1:0|0:3,0:0:0:0:
512,127,325652,6,0,P|456:146|399:154,1,116.999994644165,0|2,3:3|0:3,0:0:0:0:
259,40,326176,1,0,3:0:0:0:
345,0,326350,2,0,P|400:18|467:30,1,116.999994644165,0|2,1:0|0:3,0:0:0:0:
360,156,326873,1,0,1:0:0:0:
360,156,327048,2,0,P|353:184|351:213,1,58.4999973220826,2|0,0:0|0:0,0:0:0:0:
274,344,327397,2,0,P|271:314|265:286,1,58.4999973220826,2|0,3:3|0:0,0:0:0:0:
80,240,327745,2,0,P|143:250|183:191,1,116.999994644165,0|2,1:0|0:3,0:0:0:0:
54,114,328269,1,8,0:1:0:0:
39,123,328355,1,8,0:1:0:0:
27,136,328442,6,0,P|7:189|-1:249,1,116.999994644165,0|2,3:0|0:3,0:0:0:0:
118,384,328966,1,0,3:0:0:0:
204,343,329141,2,0,P|259:361|316:371,1,116.999994644165,0|2,1:0|0:3,0:0:0:0:
441,265,329664,1,0,1:0:0:0:
289,160,329838,6,0,P|278:187|273:215,1,58.4999973220826,0|0,3:0|0:0,0:0:0:0:
184,59,330187,2,0,P|205:78|230:93,1,58.4999973220826,2|0,3:3|0:0,0:0:0:0:
341,34,330536,5,8,0:3:0:0:
388,15,330652,1,8,0:3:0:0:
437,27,330769,1,8,0:3:0:0:
471,63,330885,1,4,0:3:0:0:
467,113,331001,1,4,0:3:0:0:
432,150,331118,1,4,0:3:0:0:
391,170,331234,6,0,P|397:229|399:287,1,116.999994644165,4|2,3:2|0:3,0:0:0:0:
399,287,331757,1,0,3:0:0:0:
252,358,331931,2,0,P|194:345|136:341,1,116.999994644165,0|2,1:0|0:3,0:0:0:0:
18,261,332455,1,0,1:0:0:0:
132,181,332629,2,0,P|129:210|123:238,1,58.4999973220826,2|0,0:0|0:0,0:0:0:0:
31,98,332978,2,0,P|33:127|39:155,1,58.4999973220826,2|0,3:3|0:0,0:0:0:0:
154,45,333327,2,0,P|211:57|269:60,1,116.999994644165,0|2,1:0|0:3,0:0:0:0:
441,27,333850,1,8,0:1:0:0:
427,38,333937,1,8,0:1:0:0:
413,49,334025,6,0,P|415:107|411:165,1,116.999994644165,0|2,3:0|0:3,0:0:0:0:
411,165,334548,1,0,0:0:0:0:
210,140,334722,2,0,P|267:128|321:107,1,116.999994644165,0|2,1:0|0:3,0:0:0:0:
180,23,335245,1,0,1:0:0:0:
97,110,335420,2,0,P|122:162|131:220,1,116.999994644165,2|2,0:0|3:3,0:0:0:0:
454,368,336118,2,0,P|464:310|489:258,1,116.999994644165,0|2,1:0|0:3,0:0:0:0:
396,126,336641,1,8,0:1:0:0:
384,113,336728,1,8,0:1:0:0:
371,100,336815,6,0,P|314:113|255:118,1,116.999994644165,0|2,3:0|0:3,0:0:0:0:
76,109,337338,1,8,0:1:0:0:
70,126,337426,1,8,0:1:0:0:
66,143,337513,2,0,P|71:201|72:259,1,116.999994644165,0|2,1:0|0:3,0:0:0:0:
72,259,338036,1,0,1:0:0:0:
286,344,338211,2,0,P|312:332|341:333,1,58.4999973220826,0|2,3:0|0:0,0:0:0:0:
490,212,338559,2,0,P|485:183|478:154,1,58.4999973220826,0|0,1:0|0:0,0:0:0:0:
284,42,338908,2,0,P|277:71|273:100,1,58.4999973220826,0|0,1:0|0:0,0:0:0:0:
286,345,339257,1,4,3:1:0:0:
256,192,339431,12,0,343099,0:0:0:0:
256,192,343303,12,0,351825,0:0:0:0:
