osu file format v14

[General]
AudioFilename: audio.mp3
AudioLeadIn: 0
PreviewTime: 51333
Countdown: 0
SampleSet: Soft
StackLeniency: 0.7
Mode: 0
LetterboxInBreaks: 0
WidescreenStoryboard: 0

[Editor]
DistanceSpacing: 1.06
BeatDivisor: 4
GridSize: 16
TimelineZoom: 1.4

[Metadata]
Title:Hana no Iro (TV Size)
TitleUnicode:ハナノイロ (TV Size)
Artist:nano.RIPE
ArtistUnicode:nano.RIPE
Creator:Irya
Version:Normal
Source:花咲くいろは
Tags:Hanasaku Iroha Lantis Log Off Now [XV] Sotarks Opening Pata-Mon
BeatmapID:1709651
BeatmapSetID:801537

[Difficulty]
HPDrainRate:3.5
CircleSize:3
OverallDifficulty:4
ApproachRate:5
SliderMultiplier:1
SliderTickRate:1

[Events]
//Background and Video events
0,0,"710308.jpg",0,0
//Break Periods
//Storyboard Layer 0 (Background)
//Storyboard Layer 1 (Fail)
//Storyboard Layer 2 (Pass)
//Storyboard Layer 3 (Foreground)
//Storyboard Sound Samples

[TimingPoints]
1013,333.333333333333,4,2,1,30,1,0
1013,-100,4,2,1,30,0,0
9346,-100,4,2,1,5,0,0
9512,-100,4,2,1,30,0,0
9679,-100,4,2,1,5,0,0
10012,-100,4,2,1,30,0,0
10346,-100,4,2,1,65,0,0
21346,-100,4,2,1,55,0,0
21679,-100,4,2,1,25,0,0
21846,-100,4,2,1,55,0,0
34346,-100,4,2,1,50,0,0
34679,-100,4,2,1,55,0,0
39679,-100,4,2,1,50,0,0
40012,-100,4,2,1,55,0,0
42346,-100,4,2,1,65,0,0
47679,-100,4,2,1,35,0,0
50346,-100,4,2,1,65,0,0
51679,-100,4,2,1,55,0,0
52679,-100,4,2,1,60,0,0
53012,-100,4,2,1,65,0,1
62012,-100,4,2,1,55,0,0
63012,-100,4,2,1,70,0,0
63679,-100,4,2,1,65,0,1
71679,-100,4,2,1,70,0,1
74346,-100,4,2,1,35,0,0
79679,-100,4,2,1,55,0,0
81012,-100,4,2,1,60,0,0
81679,-100,4,2,1,70,0,0
82346,-100,4,2,1,65,0,0
86179,-100,4,2,1,40,0,0
86346,-100,4,2,1,30,0,0
88679,-100,4,2,1,5,0,0

[Colours]
Combo1 : 128,255,0
Combo2 : 255,128,128
Combo3 : 255,255,128
Combo4 : 128,255,255

[HitObjects]
113,40,1013,6,0,P|162:31|211:38,2,100,2|2|2,0:0|0:0|0:0,0:0:0:0:
164,133,2012,1,2,0:0:0:0:
225,220,2346,6,0,P|231:270|223:319,1,100,2|0,0:0|0:0,0:0:0:0:
119,326,3012,2,0,P|111:276|117:227,1,100,2|0,0:0|0:0,0:0:0:0:
225,220,3679,2,0,L|324:213,1,100,0|2,0:0|0:0,0:0:0:0:
368,116,4346,2,0,L|269:123,1,100,2|0,0:0|0:0,0:0:0:0:
164,130,5012,5,2,0:0:0:0:
113,37,5346,2,0,P|162:28|211:35,2,100,2|2|2,0:0|0:0|0:0,0:0:0:0:
33,107,6346,1,0,0:0:0:0:
38,212,6679,2,0,L|45:311,1,100,2|2,0:0|0:0,0:0:0:0:
145,345,7346,1,2,0:0:0:0:
233,286,7679,6,0,L|226:187,1,100,2|0,0:0|0:0,0:0:0:0:
329,203,8346,2,0,P|379:209|428:200,1,100,2|0,0:0|0:0,0:0:0:0:
374,108,9012,2,0,L|224:97,2,150,2|2|2,0:0|0:0|0:0,0:0:0:0:
428,201,10346,6,0,P|436:250|430:299,2,100,6|0|2,0:0|0:0|0:0,0:0:0:0:
336,254,11346,1,2,0:0:0:0:
245,199,11679,2,0,L|196:203,1,50,2|0,0:0|0:0,0:0:0:0:
145,225,12012,2,0,L|96:229,1,50,0|2,0:0|0:0,0:0:0:0:
41,232,12346,2,0,P|32:281|38:330,1,100,6|2,0:0|0:0,0:0:0:0:
147,323,13012,6,0,P|153:273|144:224,1,100,6|0,0:0|0:0,0:0:0:0:
90,133,13679,1,0,0:0:0:0:
114,30,14012,1,2,0:0:0:0:
220,25,14346,2,0,L|319:18,1,100,2|2,0:0|0:0,0:0:0:0:
418,57,15012,2,0,P|426:106|420:155,1,100,6|2,0:0|0:0,0:0:0:0:
325,107,15679,6,0,P|316:156|322:205,1,100,6|0,0:0|0:0,0:0:0:0:
339,255,16179,2,0,L|240:262,1,100,8|8,0:3|0:3,0:0:0:0:
199,297,16679,1,4,0:3:0:0:
104,345,17012,2,0,P|97:295|106:246,1,100,6|0,0:0|0:0,0:0:0:0:
122,195,17512,2,0,P|128:145|119:96,1,100,8|8,0:3|0:3,0:0:0:0:
92,50,18012,1,4,1:0:0:0:
198,44,18346,6,0,L|297:37,1,100,4|0,1:2|3:0,0:0:0:0:
348,51,18846,2,0,P|356:99|350:149,1,100,0|0,1:0|3:0,0:0:0:0:
339,201,19346,1,4,1:2:0:0:
301,300,19679,1,0,3:0:0:0:
301,300,19846,2,0,P|351:306|400:297,1,100,0|0,1:0|3:0,0:0:0:0:
447,273,20346,2,0,L|440:174,1,100,4|0,1:2|1:0,0:0:0:0:
452,121,20846,1,0,1:0:0:0:
452,121,21012,1,6,0:0:0:0:
368,55,21346,6,0,P|291:41|211:66,1,150,0|2,1:0|0:0,0:0:0:0:
275,151,22179,2,0,P|225:158|176:152,1,100,2|0,0:0|0:0,0:0:0:0:
129,142,22679,1,0,1:0:0:0:
129,142,22846,2,0,L|118:298,1,150,2|0,0:0|1:0,0:0:0:0:
211,342,23679,6,0,P|260:333|309:340,1,100,6|0,0:0|1:0,0:0:0:0:
413,358,24346,1,0,0:0:0:0:
375,258,24679,1,0,1:0:0:0:
375,258,24846,2,0,L|368:159,1,100,2|0,0:0|0:0,0:0:0:0:
317,65,25512,2,0,P|366:56|415:63,1,100,0|2,0:0|0:0,0:0:0:0:
454,99,26012,1,0,1:0:0:0:
367,158,26346,5,6,0:0:0:0:
261,159,26679,1,0,1:0:0:0:
261,159,26846,2,0,L|254:258,1,100,2|0,0:0|0:0,0:0:0:0:
254,316,27346,1,0,1:0:0:0:
254,316,27512,1,2,0:0:0:0:
99,314,28012,1,0,1:0:0:0:
99,314,28179,2,0,P|92:264|101:215,1,100,2|0,0:0|0:0,0:0:0:0:
121,167,28679,1,0,1:0:0:0:
99,63,29012,6,0,L|0:70,2,100,6|0|2,0:0|1:0|0:0,0:0:0:0:
205,90,30012,2,0,P|254:97|303:88,1,100,0|0,1:0|0:0,0:0:0:0:
393,32,30679,1,0,1:0:0:0:
396,137,31012,1,0,0:0:0:0:
303,87,31346,2,0,L|254:91,1,50,0|0,1:0|1:0,0:0:0:0:
205,114,31679,6,0,P|197:163|206:212,1,100,6|0,0:0|1:0,0:0:0:0:
155,305,32346,2,0,P|203:313|253:306,1,100,2|0,0:0|1:0,0:0:0:0:
303,289,32846,2,0,P|352:281|401:290,1,100,2|0,0:0|0:0,0:0:0:0:
449,312,33346,1,0,1:0:0:0:
449,312,33512,2,0,L|460:155,1,150,2|0,0:0|1:0,0:0:0:0:
372,100,34346,6,0,L|365:199,1,100,6|0,0:0|1:0,0:0:0:0:
318,226,34846,1,0,0:0:0:0:
272,199,35012,2,0,L|265:100,1,100,0|0,0:0|1:0,0:0:0:0:
166,62,35679,2,0,P|117:53|67:60,1,100,0|0,0:0|1:0,0:0:0:0:
36,102,36179,2,0,P|27:150|34:200,1,100,0|2,0:0|0:0,0:0:0:0:
67,241,36679,1,0,1:0:0:0:
172,253,37012,6,0,L|271:246,1,100,6|0,0:0|1:0,0:0:0:0:
317,150,37679,2,0,L|218:157,1,100,0|0,0:0|1:0,0:0:0:0:
172,253,38346,1,0,0:0:0:0:
67,241,38679,1,0,1:0:0:0:
25,143,39012,2,0,P|17:93|26:44,1,100,0|0,0:0|1:0,0:0:0:0:
129,70,39679,6,0,P|177:78|227:71,1,100,6|0,0:0|1:0,0:0:0:0:
330,46,40346,2,0,L|380:42,2,50,6|0|0,0:0|1:0|1:0,0:0:0:0:
334,98,40846,2,0,L|341:197,1,100,6|0,0:0|0:0,0:0:0:0:
327,249,41346,1,0,1:0:0:0:
229,206,41679,2,0,L|180:210,1,50,0|0,1:0|1:0,0:0:0:0:
129,233,42012,2,0,L|80:237,1,50,0|0,1:0|1:0,0:0:0:0:
26,245,42346,6,0,L|33:344,1,100,6|0,0:0|1:0,0:0:0:0:
138,344,43012,2,0,P|187:336|237:342,1,100,2|0,0:0|1:0,0:0:0:0:
343,342,43679,1,2,0:0:0:0:
417,267,44012,1,0,1:0:0:0:
341,191,44346,1,2,0:0:0:0:
415,116,44679,1,0,1:0:0:0:
362,23,45012,6,0,P|411:15|461:21,1,100,2|0,0:0|1:0,0:0:0:0:
415,116,45679,1,2,0:0:0:0:
341,191,46012,2,0,L|141:205,1,200,0|0,1:0|1:0,0:0:0:0:
35,210,47012,1,2,0:0:0:0:
85,116,47346,1,0,1:0:0:0:
141,205,47679,5,6,0:0:0:0:
142,310,48012,2,0,P|192:317|242:311,2,100,2|2|2,0:0|0:0|0:0,0:0:0:0:
141,205,49012,2,0,P|190:198|239:204,1,100,2|2,0:0|0:0,0:0:0:0:
329,261,49679,1,6,0:0:0:0:
405,188,50012,1,6,0:0:0:0:
404,81,50346,6,0,P|354:74|305:81,1,100,0|0,1:0|3:0,0:0:0:0:
254,98,50846,2,0,P|204:105|155:98,1,100,0|0,1:0|3:0,0:0:0:0:
107,76,51346,1,0,1:0:0:0:
74,176,51679,1,0,1:0:0:0:
126,268,52012,1,0,1:0:0:0:
229,242,52346,1,0,1:0:0:0:
334,244,52679,2,0,L|338:293,1,50,0|0,1:0|1:0,0:0:0:0:
342,346,53012,6,0,P|292:352|243:346,1,100,6|0,0:0|1:0,0:0:0:0:
229,242,53679,2,0,L|221:143,1,100,2|0,0:0|1:0,0:0:0:0:
171,48,54346,2,0,P|220:42|269:48,1,100,2|0,0:0|1:0,0:0:0:0:
375,47,55012,2,0,L|379:96,1,50,2|2,0:0|0:0,0:0:0:0:
402,147,55345,2,0,L|406:196,1,50,0|0,1:0|0:0,0:0:0:0:
411,250,55679,6,0,P|362:257|313:250,1,100,2|0,0:0|1:0,0:0:0:0:
215,206,56346,1,2,0:0:0:0:
118,248,56679,1,0,1:0:0:0:
68,341,57012,2,0,P|117:348|166:341,1,100,2|0,0:0|1:0,0:0:0:0:
118,248,57679,2,0,L|114:199,1,50,2|2,0:0|0:0,0:0:0:0:
91,148,58012,2,0,L|87:99,1,50,0|0,1:0|0:0,0:0:0:0:
81,45,58346,6,0,P|130:38|179:45,1,100,6|0,0:0|1:0,0:0:0:0:
231,58,58846,2,0,P|280:65|329:58,1,100,2|0,0:0|0:0,0:0:0:0:
380,42,59346,1,0,1:0:0:0:
389,147,59679,2,0,L|290:154,1,100,6|0,0:0|1:0,0:0:0:0:
254,193,60179,2,0,L|155:200,1,100,2|0,0:0|0:0,0:0:0:0:
117,237,60679,1,0,1:0:0:0:
112,342,61012,6,0,P|161:347|211:342,1,100,6|0,0:0|1:0,0:0:0:0:
309,303,61679,1,2,0:0:0:0:
414,314,62012,1,0,1:0:0:0:
471,224,62346,2,0,P|478:174|469:125,1,100,0|0,1:0|1:0,0:0:0:0:
429,27,63012,2,0,L|380:31,1,50,0|0,1:0|1:0,0:0:0:0:
329,54,63345,2,0,L|280:58,1,50,0|0,1:0|1:0,0:0:0:0:
226,65,63679,6,0,L|127:72,1,100,6|0,0:0|1:0,0:0:0:0:
128,178,64346,2,0,L|227:185,1,100,2|0,0:0|1:0,0:0:0:0:
333,191,65012,2,0,P|341:239|334:289,1,100,2|0,0:0|1:0,0:0:0:0:
245,346,65679,2,0,L|196:342,1,50,2|2,0:0|0:0,0:0:0:0:
145,319,66012,2,0,L|96:315,1,50,0|0,1:0|0:0,0:0:0:0:
42,309,66346,6,0,P|35:259|41:209,1,100,2|0,0:0|1:0,0:0:0:0:
75,109,67012,1,2,0:0:0:0:
163,50,67346,1,0,1:0:0:0:
260,92,67679,2,0,P|309:99|358:90,1,100,2|0,0:0|1:0,0:0:0:0:
464,97,68346,2,0,L|460:146,1,50,2|2,0:0|0:0,0:0:0:0:
437,196,68679,2,0,L|433:245,1,50,0|0,1:0|0:0,0:0:0:0:
426,299,69012,6,0,P|376:305|327:298,1,100,6|0,0:0|1:0,0:0:0:0:
276,280,69512,2,0,P|226:273|177:279,1,100,2|0,0:0|0:0,0:0:0:0:
125,290,70012,1,0,1:0:0:0:
123,183,70346,2,0,L|222:176,1,100,6|0,0:0|1:0,0:0:0:0:
271,154,70846,2,0,L|370:147,1,100,2|0,0:0|0:0,0:0:0:0:
412,114,71346,1,0,1:0:0:0:
348,29,71679,6,0,P|298:22|249:29,1,100,4|0,1:0|3:0,0:0:0:0:
200,49,72179,2,0,P|150:55|101:48,1,100,4|0,1:0|3:0,0:0:0:0:
52,27,72679,1,4,1:0:0:0:
18,127,73012,1,0,1:0:0:0:
48,228,73346,1,0,1:0:0:0:
60,333,73679,2,0,L|109:329,1,50,0|0,1:0|1:0,0:0:0:0:
160,306,74012,2,0,L|209:302,1,50,0|0,1:0|1:0,0:0:0:0:
260,319,74346,6,0,P|309:325|358:317,1,100,6|0,0:0|0:0,0:0:0:0:
306,225,75012,2,0,P|355:217|404:223,1,100,2|0,0:0|0:0,0:0:0:0:
454,240,75512,1,0,0:0:0:0:
454,240,75679,2,0,L|447:141,1,100,2|0,0:0|0:0,0:0:0:0:
433,34,76346,2,0,P|384:28|335:34,1,100,2|0,0:0|0:0,0:0:0:0:
250,98,77012,5,2,0:0:0:0:
156,148,77346,2,0,P|106:155|57:148,2,100,0|2|2,0:0|0:0|0:0,0:0:0:0:
250,98,78346,1,2,0:0:0:0:
332,164,78679,2,0,L|339:263,1,100,2|2,0:0|0:0,0:0:0:0:
277,350,79346,1,6,0:0:0:0:
183,300,79679,6,0,P|134:294|85:300,1,100,6|2,0:0|0:0,0:0:0:0:
7,226,80346,2,0,L|0:127,1,100,2|2,0:0|0:0,0:0:0:0:
38,89,80846,1,0,0:0:0:0:
38,89,81012,2,0,P|87:95|136:88,1,100,0|0,1:0|1:0,0:0:0:0:
242,77,81679,2,0,L|291:73,1,50,0|0,1:0|1:0,0:0:0:0:
342,50,82012,2,0,L|391:46,1,50,4|4,0:3|0:3,0:0:0:0:
445,41,82346,6,0,L|452:140,1,100,6|0,0:0|1:0,0:0:0:0:
399,232,83012,2,0,P|350:237|300:231,1,100,2|0,0:0|1:0,0:0:0:0:
249,215,83512,2,0,P|200:210|150:214,1,100,2|0,0:0|0:0,0:0:0:0:
98,229,84012,1,0,1:0:0:0:
148,322,84346,2,0,P|197:326|247:321,1,100,2|0,0:0|1:0,0:0:0:0:
249,215,85012,5,6,0:0:0:0:
301,122,85346,1,2,0:0:0:0:
241,34,85679,2,0,L|192:38,2,50,0|8|4,1:0|0:3|0:3,0:0:0:0:
287,9,86179,1,6,0:0:0:0:
256,192,86346,12,0,88679,0:0:0:0:
