osu file format v14

[General]
AudioFilename: audio.mp3
AudioLeadIn: 0
PreviewTime: 52720
Countdown: 0
SampleSet: Soft
StackLeniency: 0.5
Mode: 0
LetterboxInBreaks: 0
WidescreenStoryboard: 0

[Editor]
Bookmarks: 15220,17829,20438,21416,22394,23046,31525,33155,33481,43264,43916,49133,51090,51742,52720,53046,62829,63155,63481,72611,73264,73916,82720,88264
DistanceSpacing: 1
BeatDivisor: 4
GridSize: 16
TimelineZoom: 1.3

[Metadata]
Title:Esoragoto ~TV size~
TitleUnicode:Esoragoto ~TV size~
Artist:nano.RIPE
ArtistUnicode:nano.RIPE
Creator:20Below
Version:Undying Love
Source:Sankarea
Tags:opening zombie
BeatmapID:1365998
BeatmapSetID:644542

[Difficulty]
HPDrainRate:7
CircleSize:4
OverallDifficulty:7
ApproachRate:9
SliderMultiplier:1.8
SliderTickRate:1

[Events]
//Background and Video events
0,0,"63460348-sankarea-wallpapers.jpg",0,0
//Break Periods
//Storyboard Layer 0 (Background)
//Storyboard Layer 1 (Fail)
//Storyboard Layer 2 (Pass)
//Storyboard Layer 3 (Foreground)
//Storyboard Sound Samples

[TimingPoints]
412,400,4,2,0,40,1,0
412,-133.333333333333,4,2,0,40,0,0
12612,326.086956521739,4,2,0,70,1,0
12612,-100,4,2,0,70,0,0
20438,-80,4,2,0,70,0,0
23046,-100,4,2,0,70,0,0
53046,-100,4,2,0,70,0,1
62829,-100,4,2,0,70,0,0
63481,-100,4,2,0,70,0,1
72611,-100,4,2,0,70,0,0
73916,-133.333333333333,4,2,0,70,0,0

[Colours]
Combo1 : 255,128,128
Combo2 : 128,0,0
Combo3 : 255,0,0
Combo4 : 128,64,64

[HitObjects]
133,238,212,5,0,1:1:0:0:
46,203,412,2,0,P|94:157|165:151,2,135.000005149842,0|0|0,1:1|1:1|1:1,1:1:0:0:
106,327,1612,1,0,1:1:0:0:
229,261,2012,5,0,1:1:0:0:
298,318,2212,2,0,P|314:251|296:188,1,135.000005149842,0|0,1:1|1:1,1:1:0:0:
215,45,3012,2,0,L|249:109,1,67.5000025749208,0|0,1:1|1:1,1:1:0:0:
296,188,3412,1,0,1:1:0:0:
321,278,3612,6,0,P|369:233|381:168,2,135.000005149842,0|0|0,1:1|1:1|1:1,1:1:0:0:
212,344,4812,1,0,1:1:0:0:
108,334,5012,2,0,L|133:266,1,67.5000025749208,0|0,1:1|1:1,1:1:0:0:
166,189,5412,1,0,1:1:0:0:
223,122,5612,1,0,1:1:0:0:
298,76,5812,1,0,1:1:0:0:
404,197,6212,5,0,1:1:0:0:
458,273,6412,2,0,L|416:331,1,67.5000025749208,0|0,1:1|1:1,1:1:0:0:
325,357,6812,2,0,P|257:349|200:312,2,135.000005149842,0|0|0,1:1|1:1|1:1,1:1:0:0:
418,327,8012,1,0,1:1:0:0:
454,183,8412,5,0,1:1:0:0:
423,100,8612,1,0,1:1:0:0:
274,42,9012,2,0,P|225:88|202:151,2,135.000005149842,0|0|0,1:1|1:1|1:1,1:1:0:0:
256,192,10012,12,0,12412,1:1:0:0:
138,142,12612,5,0,1:1:0:0:
102,268,12938,2,0,L|169:333,1,90,0|0,1:1|1:1,1:1:0:0:
255,345,13264,1,0,1:1:0:0:
271,256,13427,2,0,L|206:193,1,90,0|0,1:1|1:1,1:1:0:0:
118,176,13753,1,0,1:1:0:0:
116,70,13916,6,0,L|207:34,1,90,0|0,1:1|1:1,1:1:0:0:
289,27,14242,1,0,1:1:0:0:
378,39,14405,1,0,1:1:0:0:
422,116,14568,1,0,1:1:0:0:
299,155,14894,1,0,1:1:0:0:
370,299,15220,5,0,1:1:0:0:
462,196,15546,2,0,L|418:109,1,90,0|0,1:1|1:1,1:1:0:0:
341,75,15872,1,0,1:1:0:0:
299,155,16035,2,0,L|339:235,1,90,0|0,1:1|1:1,1:1:0:0:
437,246,16361,1,0,1:1:0:0:
386,357,16525,6,0,L|279:327,1,90,0|0,1:1|1:1,1:1:0:0:
216,297,16851,1,0,1:1:0:0:
147,238,17014,1,0,1:1:0:0:
123,151,17177,1,0,1:1:0:0:
256,192,17503,1,0,1:1:0:0:
281,43,17829,5,0,1:1:0:0:
356,151,18155,2,0,L|402:49,1,90,0|0,1:1|1:1,1:1:0:0:
482,29,18481,1,0,1:1:0:0:
508,115,18644,2,0,L|470:196,1,90,0|0,1:1|1:1,1:1:0:0:
381,206,18970,1,0,1:1:0:0:
319,121,19133,6,0,L|225:173,1,90,0|0,1:1|1:1,1:1:0:0:
162,209,19459,1,0,1:1:0:0:
110,282,19622,1,0,1:1:0:0:
135,368,19785,1,0,1:1:0:0:
231,286,20111,1,0,1:1:0:0:
361,304,20438,6,0,P|398:261|418:198,1,112.5,0|0,1:1|1:1,1:1:0:0:
402,106,20764,1,0,1:1:0:0:
326,189,20927,1,0,1:1:0:0:
270,91,21090,1,0,1:1:0:0:
203,191,21253,1,0,1:1:0:0:
139,73,21416,1,0,1:1:0:0:
71,209,21579,2,0,P|38:278|41:340,1,112.5,0|0,1:1|1:1,1:1:0:0:
140,358,21905,2,0,P|200:363|273:339,1,112.5,0|0,1:1|1:1,1:1:0:0:
339,289,22231,1,0,1:1:0:0:
412,213,22394,5,0,1:1:0:0:
445,174,22476,1,0,1:1:0:0:
451,124,22557,1,0,1:1:0:0:
442,73,22639,1,0,1:1:0:0:
402,42,22720,2,0,L|333:66,1,56.25,0|0,1:1|1:1,1:1:0:0:
340,163,22883,2,0,L|282:126,1,56.25,0|0,1:1|1:1,1:1:0:0:
250,60,23046,6,0,P|174:69|92:129,1,180,0|0,1:1|1:1,1:1:0:0:
66,233,23535,1,0,1:1:0:0:
139,312,23698,2,0,P|182:331|256:330,1,90,0|0,1:1|1:1,1:1:0:0:
323,311,24025,1,0,1:1:0:0:
399,263,24188,1,0,1:1:0:0:
439,179,24351,2,0,P|450:132|439:72,2,90,0|0|0,1:1|1:1|1:1,1:1:0:0:
399,263,24840,2,0,P|367:223|330:199,1,90,0|0,1:1|1:1,1:1:0:0:
260,151,25166,1,0,1:1:0:0:
204,80,25329,2,0,P|170:117|159:174,1,90,0|0,1:1|1:1,1:1:0:0:
47,194,25655,6,0,P|125:259|218:262,1,180,0|0,1:1|1:1,1:1:0:0:
297,234,26144,1,0,1:1:0:0:
348,146,26307,2,0,P|322:106|308:50,1,90,0|0,1:1|1:1,1:1:0:0:
386,18,26633,1,0,1:1:0:0:
458,71,26796,1,0,1:1:0:0:
480,158,26959,1,0,1:1:0:0:
467,247,27122,2,0,P|420:233|368:235,1,90,0|0,1:1|1:1,1:1:0:0:
327,306,27448,2,0,P|263:343|142:336,1,180,0|0,1:1|1:1,1:1:0:0:
66,267,27938,5,0,1:1:0:0:
49,178,28101,1,0,1:1:0:0:
91,98,28264,2,0,P|137:85|195:94,2,90,0|0|0,1:1|1:1|1:1,1:1:0:0:
49,178,28753,1,0,1:1:0:0:
66,267,28916,2,0,P|140:298|243:272,1,180,0|0,1:1|1:1,1:1:0:0:
311,229,29405,1,0,1:1:0:0:
400,235,29568,6,0,P|390:188|349:141,1,90,0|0,1:1|1:1,1:1:0:0:
296,97,29894,1,0,1:1:0:0:
207,79,30057,2,0,P|151:74|98:95,1,90,0|0,1:1|1:1,1:1:0:0:
64,154,30383,1,0,1:1:0:0:
149,181,30546,2,0,P|202:236|317:270,1,180,0|0,1:1|1:1,1:1:0:0:
387,260,31035,1,0,1:1:0:0:
457,204,31198,2,0,P|480:157|483:112,1,90,0|0,1:1|1:1,1:1:0:0:
403,47,31525,5,0,1:1:0:0:
271,18,31688,1,0,1:1:0:0:
267,140,31851,1,0,1:1:0:0:
391,166,32014,5,0,1:1:0:0:
428,288,32177,1,0,1:1:0:0:
294,269,32340,1,0,1:1:0:0:
182,206,32503,5,0,1:1:0:0:
56,232,32666,1,0,1:1:0:0:
62,104,32829,1,0,1:1:0:0:
157,31,32992,5,0,1:1:0:0:
287,35,33155,1,0,1:1:0:0:
326,55,33236,1,0,1:1:0:0:
363,83,33318,1,0,1:1:0:0:
387,120,33400,1,0,1:1:0:0:
391,166,33481,1,0,1:1:0:0:
368,253,33644,1,0,1:1:0:0:
297,309,33807,2,0,P|248:227|169:172,1,180,0|0,1:1|1:1,1:1:0:0:
94,201,34296,5,0,1:1:0:0:
64,286,34459,2,0,P|161:325|259:289,1,180,0|0,1:1|1:1,1:1:0:0:
310,266,34948,1,0,1:1:0:0:
366,195,35111,1,0,1:1:0:0:
406,114,35275,2,0,P|386:64|351:40,1,90,0|0,1:1|1:1,1:1:0:0:
269,27,35601,1,0,1:1:0:0:
210,95,35764,1,0,1:1:0:0:
197,184,35927,1,0,1:1:0:0:
107,180,36090,6,0,P|117:266|176:339,1,180,0|0,1:1|1:1,1:1:0:0:
263,348,36579,1,0,1:1:0:0:
342,306,36742,2,0,P|396:303|442:281,1,90,0|0,1:1|1:1,1:1:0:0:
472,210,37068,1,0,1:1:0:0:
476,120,37231,1,0,1:1:0:0:
419,50,37394,1,0,1:1:0:0:
351,109,37557,2,0,P|309:138|291:188,1,90,0|0,1:1|1:1,1:1:0:0:
365,234,37883,2,0,P|287:291|192:279,1,180,0|0,1:1|1:1,1:1:0:0:
147,218,38372,5,0,1:1:0:0:
149,128,38535,1,0,1:1:0:0:
204,56,38698,2,0,P|245:33|315:17,2,90,0|0|0,1:1|1:1|1:1,1:1:0:0:
149,128,39188,1,0,1:1:0:0:
147,218,39351,2,0,P|211:274|320:289,1,180,0|0,1:1|1:1,1:1:0:0:
390,275,39840,1,0,1:1:0:0:
469,232,40003,2,0,P|495:187|494:128,1,90,0|0,1:1|1:1,1:1:0:0:
417,61,40329,5,0,1:1:0:0:
330,86,40492,2,0,P|281:111|247:150,1,90,0|0,1:1|1:1,1:1:0:0:
217,216,40818,1,0,1:1:0:0:
292,264,40981,2,0,P|258:307|210:328,1,90,0|0,1:1|1:1,1:1:0:0:
129,352,41307,5,0,1:1:0:0:
82,275,41470,2,0,P|93:229|124:178,1,90,0|0,1:1|1:1,1:1:0:0:
180,131,41796,1,0,1:1:0:0:
241,65,41959,2,0,P|272:93|284:148,1,90,0|0,1:1|1:1,1:1:0:0:
270,227,42285,5,0,1:1:0:0:
186,260,42448,2,0,P|208:301|265:335,1,90,0|0,1:1|1:1,1:1:0:0:
331,316,42775,1,0,1:1:0:0:
403,262,42938,2,0,P|426:304|420:358,2,90,0|0|0,1:1|1:1|1:1,1:1:0:0:
376,226,43345,1,0,1:1:0:0:
337,202,43427,2,0,L|293:243,1,45,0|0,1:1|1:1,1:1:0:0:
243,284,43590,1,0,1:1:0:0:
213,250,43671,1,0,1:1:0:0:
208,204,43753,2,0,L|164:154,1,45,0|0,1:1|1:1,1:1:0:0:
131,107,43916,6,0,P|205:57|297:38,1,180,0|0,1:1|1:1,1:1:0:0:
371,80,44405,1,0,1:1:0:0:
426,151,44568,2,0,P|390:247|330:309,1,180,0|0,1:1|1:1,1:1:0:0:
302,209,45057,2,0,P|215:293|139:313,1,180,0|0,1:1|1:1,1:1:0:0:
72,326,45546,5,0,1:1:0:0:
31,245,45709,2,0,P|23:204|34:134,1,90,0|0,1:1|1:1,1:1:0:0:
79,82,46035,1,0,1:1:0:0:
160,43,46198,2,0,P|251:50|359:86,1,180,0|0,1:1|1:1,1:1:0:0:
399,10,46688,2,0,P|429:45|435:102,1,90,0|0,1:1|1:1,1:1:0:0:
453,175,47014,2,0,P|393:203|308:283,1,180,0|0,1:1|1:1,1:1:0:0:
283,365,47503,1,0,1:1:0:0:
108,304,47829,5,0,1:1:0:0:
61,226,47992,1,0,1:1:0:0:
48,136,48155,2,0,P|74:93|143:54,1,90,0|0,1:1|1:1,1:1:0:0:
157,141,48481,2,0,P|180:121|233:93,1,90,0|0,1:1|1:1,1:1:0:0:
237,183,48807,2,0,P|278:175|343:177,1,90,0|0,1:1|1:1,1:1:0:0:
430,211,49133,5,0,1:1:0:0:
421,112,49296,1,0,1:1:0:0:
365,30,49459,1,0,1:1:0:0:
339,125,49622,5,0,1:1:0:0:
276,48,49785,1,0,1:1:0:0:
179,24,49948,1,0,1:1:0:0:
215,115,50111,5,0,1:1:0:0:
116,98,50275,1,0,1:1:0:0:
51,173,50438,1,0,1:1:0:0:
149,173,50601,5,0,1:1:0:0:
89,252,50764,1,0,1:1:0:0:
129,342,50927,1,0,1:1:0:0:
180,257,51090,6,0,P|228:241|268:203,1,90,0|0,1:1|1:1,1:1:0:0:
284,312,51416,2,0,P|331:307|370:281,1,90,0|0,1:1|1:1,1:1:0:0:
430,211,51742,1,0,1:1:0:0:
430,211,52720,5,0,1:1:0:0:
416,163,52802,1,0,1:1:0:0:
380,129,52883,1,0,1:1:0:0:
331,116,52965,1,0,1:1:0:0:
288,138,53046,1,0,1:1:0:0:
160,266,53209,1,0,1:1:0:0:
317,306,53372,1,0,1:1:0:0:
259,227,53535,5,0,1:1:0:0:
380,129,53698,1,0,1:1:0:0:
256,19,53861,1,0,1:1:0:0:
140,122,54025,1,0,1:1:0:0:
259,227,54188,5,0,1:1:0:0:
261,73,54351,2,0,P|292:41|333:20,2,90,0|0|0,1:1|1:1|1:1,1:1:0:0:
259,227,54840,1,0,1:1:0:0:
381,323,55003,2,0,P|422:343|470:340,2,90,0|0|0,1:1|1:1|1:1,1:1:0:0:
259,227,55492,1,0,1:1:0:0:
390,124,55655,2,0,P|431:119|478:92,2,90,0|0|0,1:1|1:1|1:1,1:1:0:0:
206,114,56144,5,0,1:1:0:0:
106,253,56307,1,0,1:1:0:0:
283,196,56470,1,0,1:1:0:0:
108,130,56633,1,0,1:1:0:0:
219,281,56796,1,0,1:1:0:0:
375,311,56959,2,0,P|417:284|441:230,3,90,0|0|0|0,1:1|1:1|1:1|1:1,1:1:0:0:
447,113,57611,5,0,1:1:0:0:
306,41,57775,1,0,1:1:0:0:
156,69,57938,1,0,1:1:0:0:
129,110,58019,1,0,1:1:0:0:
136,159,58101,1,0,1:1:0:0:
175,187,58182,1,0,1:1:0:0:
224,192,58264,1,0,1:1:0:0:
371,94,58427,5,0,1:1:0:0:
511,241,58590,1,0,1:1:0:0:
350,122,58753,1,0,1:1:0:0:
386,328,58916,1,0,1:1:0:0:
331,144,59079,1,0,1:1:0:0:
265,321,59242,1,0,1:1:0:0:
303,164,59405,1,0,1:1:0:0:
163,281,59568,6,0,P|200:260|231:222,2,90,0|0|0,1:1|1:1|1:1,1:1:0:0:
39,262,60057,1,0,1:1:0:0:
71,137,60220,2,0,P|89:98|128:67,2,90,0|0|0,1:1|1:1|1:1,1:1:0:0:
39,262,60709,1,0,1:1:0:0:
163,281,60872,2,0,P|200:260|231:222,1,90,0|0,1:1|1:1,1:1:0:0:
328,81,61198,5,0,1:1:0:0:
177,17,61361,1,0,1:1:0:0:
96,158,61525,1,0,1:1:0:0:
230,223,61688,1,0,1:1:0:0:
239,89,61851,5,0,1:1:0:0:
100,4,62014,1,0,1:1:0:0:
4,132,62177,2,0,P|23:180|51:211,3,90,0|0|0|0,1:1|1:1|1:1|1:1,1:1:0:0:
180,289,62829,5,0,1:1:0:0:
324,351,62992,1,0,1:1:0:0:
460,279,63155,1,0,1:1:0:0:
471,231,63236,1,0,1:1:0:0:
461,182,63318,1,0,1:1:0:0:
437,138,63400,1,0,1:1:0:0:
392,116,63481,1,0,1:1:0:0:
231,57,63644,5,0,1:1:0:0:
154,205,63807,1,0,1:1:0:0:
297,110,63970,1,0,1:1:0:0:
119,121,64133,1,0,1:1:0:0:
261,202,64296,1,0,1:1:0:0:
149,51,64459,6,0,P|103:21|53:24,2,90,0|0|0,1:1|1:1|1:1,1:1:0:0:
208,190,64948,1,0,1:1:0:0:
106,304,65111,2,0,P|72:331|25:339,2,90,0|0|0,1:1|1:1|1:1,1:1:0:0:
208,190,65601,1,0,1:1:0:0:
352,115,65764,2,0,P|377:85|426:65,2,90,0|0|0,1:1|1:1|1:1,1:1:0:0:
320,228,66253,5,0,1:1:0:0:
181,336,66416,1,0,1:1:0:0:
224,171,66579,1,0,1:1:0:0:
282,333,66742,1,0,1:1:0:0:
145,237,66905,1,0,1:1:0:0:
320,228,67068,5,0,1:1:0:0:
438,275,67231,1,0,1:1:0:0:
488,130,67394,2,0,P|481:81|436:34,3,90,0|0|0|0,1:1|1:1|1:1|1:1,1:1:0:0:
310,6,68046,1,0,1:1:0:0:
235,141,68209,1,0,1:1:0:0:
380,195,68372,1,0,1:1:0:0:
457,48,68535,1,0,1:1:0:0:
342,97,68698,6,0,P|311:69|258:62,2,90,0|0|0,1:1|1:1|1:1,1:1:0:0:
222,195,69188,1,0,1:1:0:0:
68,175,69351,2,0,P|74:218|103:252,2,90,0|0|0,1:1|1:1|1:1,1:1:0:0:
169,57,69840,2,0,P|273:67|346:99,1,180,0|0,1:1|1:1,1:1:0:0:
324,263,70329,1,0,1:1:0:0:
163,317,70492,2,0,P|79:227|67:172,1,180,0|0,1:1|1:1,1:1:0:0:
169,57,70981,1,0,1:1:0:0:
328,39,71144,1,0,1:1:0:0:
443,157,71307,6,0,P|455:209|438:251,2,90,0|0|0,1:1|1:1|1:1,1:1:0:0:
328,39,71796,1,0,1:1:0:0:
199,139,71959,2,0,P|167:182|160:220,2,90,0|0|0,1:1|1:1|1:1,1:1:0:0:
328,39,72448,1,0,1:1:0:0:
398,130,72611,5,0,1:1:0:0:
395,190,72720,1,0,1:1:0:0:
368,243,72828,1,0,1:1:0:0:
323,283,72937,1,0,1:1:0:0:
270,312,73046,1,0,1:1:0:0:
210,318,73154,1,0,1:1:0:0:
151,300,73264,2,0,L|79:274,1,60,0|0,1:1|1:1,1:1:0:0:
123,208,73481,2,0,L|186:185,1,60,0|0,1:1|1:1,1:1:0:0:
205,112,73698,2,0,L|165:62,1,60,0|0,1:1|1:1,1:1:0:0:
86,18,73916,6,0,P|66:86|73:154,1,135.000005149842,0|0,1:1|1:1,1:1:0:0:
110,233,74405,1,0,1:1:0:0:
209,187,74568,2,0,P|283:200|326:256,2,135.000005149842,0|0|0,1:1|1:1|1:1,1:1:0:0:
110,233,75383,1,0,1:1:0:0:
71,149,75546,2,0,P|92:120|140:95,2,67.5000025749208,0|0|0,1:1|1:1|1:1,1:1:0:0:
34,249,76035,1,0,1:1:0:0:
95,340,76198,6,0,P|161:359|236:335,1,135.000005149842,0|0,1:1|1:1,1:1:0:0:
335,272,76851,1,0,1:1:0:0:
299,152,77177,2,0,P|306:97|360:28,1,135.000005149842,0|0,1:1|1:1,1:1:0:0:
475,15,77829,5,0,1:1:0:0:
494,111,77992,1,0,1:1:0:0:
459,207,78155,1,0,1:1:0:0:
394,285,78318,2,0,P|362:306|324:317,1,67.5000025749208,0|0,1:1|1:1,1:1:0:0:
238,319,78644,1,0,1:1:0:0:
174,241,78807,2,0,P|190:165|229:113,1,135.000005149842,0|0,1:1|1:1,1:1:0:0:
331,51,79459,5,0,1:1:0:0:
359,145,79622,1,0,1:1:0:0:
354,242,79785,2,0,P|322:308|271:341,1,135.000005149842,0|0,1:1|1:1,1:1:0:0:
258,230,80275,1,0,1:1:0:0:
241,136,80438,2,0,P|184:164|158:235,1,135.000005149842,0|0,1:1|1:1,1:1:0:0:
102,334,81090,6,0,P|59:279|57:193,2,135.000005149842,0|0|0,1:1|1:1|1:1,1:1:0:0:
234,358,82068,1,0,1:1:0:0:
324,299,82231,1,0,1:1:0:0:
345,272,82313,1,0,1:1:0:0:
359,241,82394,1,0,1:1:0:0:
256,192,82720,12,0,88264,1:1:0:0:
