osu file format v14

[General]
AudioFilename: audio.mp3
AudioLeadIn: 0
PreviewTime: 53292
Countdown: 0
SampleSet: Soft
StackLeniency: 0.7
Mode: 0
LetterboxInBreaks: 0
WidescreenStoryboard: 0

[Editor]
Bookmarks: 13285,23719,34154,44589,53719,64154,69371,74589,83393,88937
DistanceSpacing: 0.9
BeatDivisor: 4
GridSize: 4
TimelineZoom: 1.9

[Metadata]
Title:Esoragoto (TV Size)
TitleUnicode:絵空事 (TV Size)
Artist:nano.RIPE
ArtistUnicode:nano.RIPE
Creator:Mao
Version:Normal
Source:さんかれあ
Tags:sankarea op opening cut anto anime japanese
BeatmapID:2257196
BeatmapSetID:979631

[Difficulty]
HPDrainRate:4
CircleSize:2.5
OverallDifficulty:4.3
ApproachRate:5.3
SliderMultiplier:1.23
SliderTickRate:1

[Events]
//Background and Video events
0,0,"esoragoto_bg.jpg",0,0
//Break Periods
//Storyboard Layer 0 (Background)
//Storyboard Layer 1 (Fail)
//Storyboard Layer 2 (Pass)
//Storyboard Layer 3 (Foreground)
//Storyboard Layer 4 (Overlay)
//Storyboard Sound Samples

[TimingPoints]
459,400,4,1,0,10,1,0
13265,326.086956521739,4,1,0,10,1,0
13265,-100,4,2,0,60,0,0
21091,-100,4,2,0,60,0,0
23699,-100,4,2,0,70,0,0
52396,-100,4,2,0,70,0,0
52885,-100,4,2,0,70,0,0
53699,-83.3333333333333,4,2,0,80,0,0
73265,-100,4,2,0,70,0,0
83373,-100,4,2,0,70,0,0
83394,-100,4,2,1,5,0,0

[Colours]
Combo1 : 208,234,220
Combo2 : 128,234,21
Combo3 : 74,97,255
Combo4 : 255,40,105

[HitObjects]
42,51,13265,6,0,B|161:82|161:82|224:79|224:79|337:126|337:126|396:113,1,369,6|6,1:0|0:3,0:0:0:0:
485,30,14569,2,0,P|449:85|476:269,1,246,4|2,0:3|1:0,0:0:0:0:
242,358,15873,6,0,B|280:244|280:244|337:215|337:215|320:94|320:94|349:19,1,369,6|6,1:0|0:3,0:0:0:0:
225,4,17178,2,0,P|165:24|209:172,1,246,4|2,0:3|1:0,0:0:0:0:
49,366,18482,6,0,B|111:260|111:260|158:301|158:301|276:297|276:297|341:332,1,369,6|6,1:0|0:3,0:0:0:0:
449,368,19786,2,0,P|483:340|427:171,1,246,4|2,0:3|1:0,0:0:0:0:
245,17,21091,6,0,B|132:55|132:55|112:50|112:50|58:69,1,184.5,6|2,1:0|0:0,0:0:0:0:
12,87,21743,1,6,0:3:0:0:
57,275,22232,2,0,B|117:261|117:261|162:320,1,123,2|0,1:0|1:0,0:0:0:0:
187,361,22721,1,2,1:0:0:0:
272,273,23047,2,0,B|265:237|265:237|280:212|280:212|268:181|268:181|273:153|273:153|261:124|261:124|269:99|269:99,1,184.5,2|2,1:0|1:2,0:0:0:0:
238,45,23699,6,0,P|293:24|365:34,1,123,6|0,1:0|1:0,0:0:0:0:
464,87,24351,1,2,0:0:0:0:
397,190,24678,2,0,L|412:253,1,61.5,2|0,1:2|0:0,0:0:0:0:
467,274,25004,1,2,0:3:0:0:
442,330,25167,2,0,P|403:331|304:368,1,123
251,186,25982,2,0,L|266:122,1,61.5,0|0,1:0|0:0,0:0:0:0:
279,66,26308,5,6,1:0:0:0:
168,11,26634,1,2,1:2:0:0:
64,77,26960,1,2,0:0:0:0:
114,188,27286,2,0,L|53:226,1,61.5,2|0,1:2|0:0,0:0:0:0:
6,246,27612,1,2,0:3:0:0:
26,304,27775,2,0,P|56:334|135:328,1,123,2|2,0:0|0:0,0:0:0:0:
256,193,28591,1,0,1:0:0:0:
230,137,28754,5,2,0:0:0:0:
230,137,28917,2,0,P|250:85|314:54,1,123,6|0,1:0|1:0,0:0:0:0:
426,25,29569,1,2,0:0:0:0:
504,119,29895,1,2,1:2:0:0:
384,146,30221,1,2,0:3:0:0:
384,146,30384,2,0,P|368:189|397:267,1,123,2|0,0:0|0:0,0:0:0:0:
446,284,30873,1,2,0:0:0:0:
345,355,31199,1,2,1:2:0:0:
345,355,31362,6,0,B|305:309|245:305|221:366|163:370|121:320,1,246,2|2,0:0|0:0,0:0:0:0:
177,144,32504,2,0,P|161:103|29:77,2,184.5,2|2|2,1:0|0:0|0:0,0:0:0:0:
72,209,33808,1,0,1:0:0:0:
150,303,34134,6,0,P|209:318|273:276,1,123,6|0,1:0|1:0,0:0:0:0:
331,189,34786,1,6,0:3:0:0:
413,280,35113,2,0,L|428:343,1,61.5,2|0,1:2|0:0,0:0:0:0:
484,363,35439,1,6,0:3:0:0:
508,306,35602,2,0,P|507:267|470:168,1,123,2|0,0:0|0:0,0:0:0:0:
398,22,36417,2,0,L|338:7,1,61.5,0|0,1:0|0:0,0:0:0:0:
283,36,36743,5,6,1:0:0:0:
317,154,37069,1,2,1:2:0:0:
218,228,37395,1,6,0:3:0:0:
255,345,37721,2,0,L|194:383,1,61.5,2|0,1:2|0:0,0:0:0:0:
153,340,38047,1,6,0:3:0:0:
93,357,38210,2,0,P|82:298|28:250,1,123,2|0,0:0|0:0,0:0:0:0:
31,70,39026,1,0,1:0:0:0:
79,107,39189,5,2,0:0:0:0:
79,107,39352,2,0,P|140:97|186:53,1,123,6|2,1:0|1:2,0:0:0:0:
295,6,40004,1,6,3:0:0:0:
362,108,40330,1,2,1:2:0:0:
478,69,40656,1,4,0:0:0:0:
478,69,40819,2,0,L|495:203,1,123,2|2,0:0|0:0,0:0:0:0:
509,312,41471,1,6,3:0:0:0:
396,361,41797,6,0,B|350:321|346:261|407:237|411:179|361:137,1,246,2|2,0:0|0:0,0:0:0:0:
207,35,42939,2,0,P|166:51|140:183,1,184.5,6|4,1:2|3:0,0:0:0:0:
188,205,43591,1,4,1:0:0:0:
93,283,43917,1,6,1:2:0:0:
194,351,44243,1,14,3:0:0:0:
290,275,44569,6,0,P|340:286|413:314,1,123,6|6,1:0|3:0,0:0:0:0:
490,221,45221,2,0,P|461:198|421:54,2,184.5,2|4|2,1:0|0:0|0:0,0:0:0:0:
456,339,46525,1,2,1:2:0:0:
347,280,46851,2,0,P|317:291|295:321,1,61.5,4|4,0:3|0:3,0:0:0:0:
247,348,47178,6,0,P|257:297|269:143,2,184.5,6|2|2,1:0|0:0|0:0,0:0:0:0:
37,218,48808,1,4,1:0:0:0:
7,98,49134,1,6,1:2:0:0:
104,23,49460,2,0,L|181:43,1,61.5,14|4,3:0|0:3,0:0:0:0:
221,19,49786,6,0,P|231:66|184:152,1,123,6|4,1:0|0:3,0:0:0:0:
145,150,50275,1,0,1:0:0:0:
202,325,50764,1,6,1:2:0:0:
202,325,50928,1,2,0:0:0:0:
319,288,51254,1,2,1:2:0:0:
319,288,51417,1,6,3:0:0:0:
418,360,51743,2,0,L|484:343,1,61.5,8|8,3:0|3:0,0:0:0:0:
488,284,52069,2,0,L|429:253,1,61.5,8|8,3:0|3:0,0:0:0:0:
400,203,52395,5,6,1:0:0:0:
9,72,53699,6,0,P|61:50|116:111,1,147.599995495606,6|0,1:0|1:0,0:0:0:0:
97,241,54351,2,0,P|141:278|219:247,1,147.599995495606,4|2,3:0|1:2,0:0:0:0:
318,163,55004,2,0,P|316:117|307:11,1,147.599995495606,6|0,1:0|1:0,0:0:0:0:
437,41,55656,2,0,P|443:114|447:188,1,147.599995495606,4|2,3:0|1:2,0:0:0:0:
499,310,56308,6,0,P|462:290|375:351,1,147.599995495606,6|2,1:0|1:2,0:0:0:0:
248,366,56960,1,4,0:0:0:0:
250,299,57123,1,4,3:0:0:0:
285,242,57286,1,2,1:0:0:0:
397,171,57612,1,6,1:0:0:0:
322,61,57938,1,2,1:2:0:0:
256,73,58101,1,2,0:0:0:0:
62,25,58591,1,2,1:0:0:0:
62,25,58917,6,0,P|21:65|73:124,1,147.599995495606,6|0,1:0|1:0,0:0:0:0:
201,111,59569,2,0,P|249:157|208:210,1,147.599995495606,4|0,3:0|1:0,0:0:0:0:
106,295,60221,2,0,P|171:319|247:362,1,147.599995495606,6|0,1:0|1:0,0:0:0:0:
332,261,60873,1,4,3:0:0:0:
461,290,61199,1,0,1:0:0:0:
455,223,61362,1,2,0:0:0:0:
490,166,61525,6,0,P|505:120|426:54,1,147.599995495606,6|0,1:0|1:0,0:0:0:0:
323,110,62178,2,0,P|336:141|332:182,2,73.7999977478028,4|4|0,3:3|0:3|1:0,0:0:0:0:
228,16,62830,1,6,1:0:0:0:
120,94,63156,1,2,1:2:0:0:
68,52,63319,1,2,0:0:0:0:
33,248,63808,2,0,L|44:329,1,73.7999977478028,2|0,1:2|1:0,0:0:0:0:
92,365,64134,6,0,P|148:359|164:262,1,147.599995495606,6|0,1:0|1:0,0:0:0:0:
127,156,64786,2,0,P|141:87|209:71,1,147.599995495606,4|2,3:0|1:0,0:0:0:0:
332,20,65438,2,0,P|401:44|473:62,1,147.599995495606,6|2,1:0|1:2,0:0:0:0:
396,170,66091,2,0,P|341:183|245:216,1,147.599995495606,4|0,3:0|1:0,0:0:0:0:
222,269,66580,1,0,0:0:0:0:
247,330,66743,6,0,P|286:359|375:326,1,147.599995495606,6|0,1:0|1:0,0:0:0:0:
476,247,67395,2,0,P|504:286|508:334,2,73.7999977478028,4|4|0,0:0|3:0|1:0,0:0:0:0:
377,157,68047,1,6,1:0:0:0:
453,48,68373,1,2,1:2:0:0:
508,11,68536,1,2,0:0:0:0:
247,61,69188,1,0,0:0:0:0:
217,120,69351,6,0,P|167:88|92:40,1,147.599995495606,6|2,1:0|1:2,0:0:0:0:
31,66,69841,2,0,P|24:139|17:212,1,147.599995495606,4|4,0:0|0:3,0:0:0:0:
6,278,70330,1,2,1:2:0:0:
40,334,70493,2,0,P|81:340|159:245,1,147.599995495606,4|0,0:0|0:0,0:0:0:0:
170,215,70982,1,2,1:2:0:0:
170,215,71145,1,4,0:0:0:0:
277,21,71634,5,2,1:2:0:0:
336,41,71797,2,0,P|323:101|307:191,1,147.599995495606,4|0,0:0|0:0,0:0:0:0:
367,214,72286,1,2,1:2:0:0:
367,214,72449,2,0,P|354:274|338:364,1,147.599995495606,4|4,0:0|0:3,0:0:0:0:
405,384,72938,1,2,1:2:0:0:
405,384,73101,1,2,3:0:0:0:
483,108,73917,2,0,P|476:70|349:35,1,184.5,8|0,3:0|0:0,0:0:0:0:
310,67,74569,5,6,1:0:0:0:
198,15,74895,1,4,0:3:0:0:
92,78,75221,2,0,P|64:161|27:269,1,184.5,2|0,1:2|0:0,0:0:0:0:
8,309,75873,1,6,0:0:0:0:
246,370,76525,1,4,1:2:0:0:
286,253,76851,1,2,0:0:0:0:
207,157,77178,6,0,L|189:94,1,61.5,2|0,1:0|0:0,0:0:0:0:
223,46,77504,2,0,P|281:18|377:78,1,184.5,6|0,3:0|0:0,0:0:0:0:
377,136,78156,2,0,P|321:189|226:284,1,184.5,4|0,0:0|1:0,0:0:0:0:
394,373,79134,2,0,L|442:322,1,61.5,0|0,1:0|0:0,0:0:0:0:
495,311,79460,2,0,L|509:237,1,61.5,8|12,1:3|1:3,0:0:0:0:
461,208,79786,5,6,1:0:0:0:
507,94,80112,1,2,0:0:0:0:
400,32,80438,2,0,P|345:40|205:61,1,184.5,6|4,1:2|0:3,0:0:0:0:
167,22,81091,1,4,0:0:0:0:
45,235,81743,1,2,1:2:0:0:
107,340,82069,1,2,0:0:0:0:
212,276,82395,5,4,0:0:0:0:
328,316,82721,2,0,L|391:332,1,61.5,14|0,3:0|0:0,0:0:0:0:
422,280,83047,2,0,L|479:236,1,61.5,8|0,3:0|0:0,0:0:0:0:
461,181,83373,1,6,1:0:0:0:
256,192,83455,12,0,88917,0:0:0:0:
