osu file format v14

[General]
AudioFilename: audio.mp3
AudioLeadIn: 0
PreviewTime: 53482
Countdown: 0
SampleSet: Soft
StackLeniency: 0.7
Mode: 0
LetterboxInBreaks: 0
WidescreenStoryboard: 1

[Editor]
Bookmarks: 6514,18514,42514,48514,54514,78514,84534,96514,108514,114514,120514,144514,153514,159326,173014,198514,221034,230034
DistanceSpacing: 1
BeatDivisor: 4
GridSize: 32
TimelineZoom: 1

[Metadata]
Title:Azalea
TitleUnicode:アザレア
Artist:nano.RIPE
ArtistUnicode:nano.RIPE
Creator:Shirahane Suou
Version:Normal
Source:citrus
Tags:japanese anime opening op rock jrock 百合 yuri
BeatmapID:2769391
BeatmapSetID:1334552

[Difficulty]
HPDrainRate:3
CircleSize:3
OverallDifficulty:5
ApproachRate:5
SliderMultiplier:1
SliderTickRate:1

[Events]
//Background and Video events
0,0,"80696203_p3.jpg",0,0
//Break Periods
2,144729,152329
//Storyboard Layer 0 (Background)
//Storyboard Layer 1 (Fail)
//Storyboard Layer 2 (Pass)
//Storyboard Layer 3 (Foreground)
//Storyboard Layer 4 (Overlay)
//Storyboard Sound Samples

[TimingPoints]
-966,375,4,2,1,40,1,0
894,375,4,2,1,40,1,0
2019,375,4,2,1,40,1,0
6144,385.852090032154,4,2,1,40,1,0
6529,375,4,2,1,60,1,0
18529,-100,4,2,1,40,0,0
42529,-100,4,2,1,50,0,0
48529,-100,4,2,1,40,0,0
50029,-100,4,2,1,50,0,0
51529,-100,4,2,1,60,0,0
54529,-90.9090909090909,4,2,1,70,0,1
77591,-100,4,2,1,50,0,0
84529,-100,4,2,1,40,0,0
96529,-100,4,2,1,60,0,0
108529,-100,4,2,1,50,0,0
114529,-100,4,2,1,40,0,0
116029,-100,4,2,1,50,0,0
117529,-100,4,2,1,60,0,0
120529,-90.9090909090909,4,2,1,70,0,1
142841,-100,4,2,1,40,0,0
153529,-100,4,2,1,50,0,0
158029,-100,4,2,1,60,0,0
165529,-100,4,2,1,50,0,0
167029,-100,4,2,1,60,0,0
173029,-90.9090909090909,4,2,1,70,0,1
195997,-111.111111111111,4,2,1,40,0,0
198154,-100,4,2,1,60,0,0
221122,-100,4,2,2,5,0,0

[Colours]
Combo1 : 50,172,209
Combo2 : 255,175,88
Combo3 : 114,107,173
Combo4 : 221,148,168

[HitObjects]
96,275,534,6,0,L|146:275,1,50,12|8,3:3|0:3,0:0:0:0:
192,277,894,1,8,3:3:0:0:
277,224,1269,2,0,L|386:224,1,100,8|0,3:3|3:0,0:0:0:0:
473,249,2019,2,0,L|473:181,1,50,8|8,3:3|0:3,0:0:0:0:
471,148,2394,1,8,3:3:0:0:
397,80,2769,1,8,3:3:0:0:
317,141,3144,2,0,L|248:141,1,50,8|8,3:3|0:3,0:0:0:0:
222,164,3519,6,0,L|222:42,1,100,8|8,3:3|3:3,0:0:0:0:
143,2,4269,1,8,3:3:0:0:
65,65,4644,2,0,L|65:165,1,100,8|0,0:2|0:0,0:0:0:0:
72,218,5206,1,8,0:2:0:0:
72,218,5394,1,8,0:2:0:0:
164,256,5769,2,0,L|224:256,1,50,8|8,0:2|0:2,0:0:0:0:
255,231,6144,2,0,L|315:231,1,50,2|2,3:2|0:2,0:0:0:0:
349,258,6529,6,0,P|389:273|452:248,1,100,6|8,3:2|0:2,0:0:0:0:
475,221,7091,2,0,L|475:117,1,100,0|0,3:0|3:0,0:0:0:0:
477,70,7654,1,10,0:2:0:0:
394,13,8029,2,0,B|344:26|344:26|290:11,1,100,2|8,3:2|0:2,0:0:0:0:
251,14,8591,1,0,3:0:0:0:
251,14,8779,2,0,L|251:81,1,50,2|0,0:2|3:0,0:0:0:0:
253,114,9154,1,8,0:2:0:0:
195,195,9529,6,0,B|145:181|145:181|91:196,1,100,2|8,3:2|0:2,0:0:0:0:
49,204,10091,2,0,L|49:94,1,100,0|0,3:0|3:0,0:0:0:0:
47,53,10654,1,10,0:2:0:0:
133,3,11029,2,0,B|193:3|193:3|222:18|222:18|285:18,1,150,2|2,3:2|3:2,0:0:0:0:
391,118,12154,2,0,L|393:180,1,50,10|2,0:2|0:2,0:0:0:0:
393,218,12529,6,0,P|358:205|285:230,1,100,6|8,3:2|0:2,0:0:0:0:
261,252,13091,2,0,B|214:267|214:267|158:252,1,100,0|0,3:0|3:0,0:0:0:0:
117,237,13654,1,10,0:2:0:0:
69,148,14029,2,0,L|69:40,1,100,2|8,3:2|0:2,0:0:0:0:
108,16,14591,1,0,3:0:0:0:
108,16,14779,2,0,L|169:16,1,50,2|0,0:2|3:0,0:0:0:0:
208,17,15154,1,8,0:2:0:0:
253,106,15529,6,0,L|253:167,1,50,14|10,0:2|0:2,0:0:0:0:
153,154,16091,2,0,L|153:104,1,50,14|10,0:2|0:2,0:0:0:0:
56,111,16654,1,14,0:2:0:0:
56,111,16841,2,0,L|56:272,1,150,10|2,0:2|0:2,0:0:0:0:
124,333,17779,2,0,L|180:333,1,50,10|2,0:2|3:2,0:0:0:0:
209,297,18154,2,0,L|265:297,1,50,10|2,0:2|0:2,0:0:0:0:
300,325,18529,6,0,B|346:308|346:308|399:325,1,100,6|10,3:2|0:2,0:0:0:0:
442,338,19091,2,0,L|442:229,1,100,2|2,3:2|3:2,0:0:0:0:
442,187,19654,1,10,0:2:0:0:
367,120,20029,2,0,B|318:135|318:135|272:119,1,100,2|8,3:2|0:2,0:0:0:0:
230,91,20591,1,2,3:2:0:0:
161,164,20966,1,2,3:2:0:0:
161,164,21154,1,8,0:2:0:0:
215,248,21529,6,0,L|215:366,1,100,2|10,3:2|0:2,0:0:0:0:
174,376,22091,2,0,B|127:360|127:360|77:376,1,100,2|2,3:2|3:2,0:0:0:0:
29,382,22654,1,8,0:2:0:0:
2,285,23029,2,0,B|9:250|35:218|35:218|4:189|3:151,1,150,8|0,0:2|3:0,0:0:0:0:
109,47,24154,2,0,L|173:47,1,50,8|8,0:2|0:2,0:0:0:0:
200,75,24529,6,0,B|247:60|247:60|309:79,1,100,4|10,3:2|0:2,0:0:0:0:
331,109,25091,2,0,L|331:216,1,100,2|2,3:2|3:2,0:0:0:0:
331,259,25654,1,10,0:2:0:0:
374,349,26029,2,0,P|327:363|266:338,1,100,2|8,3:2|0:2,0:0:0:0:
239,318,26591,1,2,3:2:0:0:
162,381,26966,1,2,3:2:0:0:
162,381,27154,1,10,0:2:0:0:
87,314,27529,6,0,L|87:201,1,100,0|8,3:2|0:2,0:0:0:0:
86,164,28091,2,0,B|131:180|131:180|188:161,1,100,2|0,3:2|3:0,0:0:0:0:
229,154,28654,1,10,0:2:0:0:
308,214,29029,2,0,P|272:151|307:89,1,150,10|2,0:2|3:2,0:0:0:0:
258,8,29966,1,0,3:0:0:0:
258,8,30154,2,0,L|185:8,1,50,8|8,0:2|0:2,0:0:0:0:
160,0,30529,6,0,L|160:112,1,100,4|10,3:2|0:2,0:0:0:0:
179,145,31091,2,0,P|132:159|84:146,1,100,2|2,3:2|3:2,0:0:0:0:
37,126,31654,1,10,0:2:0:0:
2,219,32029,2,0,L|3:318,1,100,2|8,3:2|0:2,0:0:0:0:
31,360,32591,1,2,3:2:0:0:
119,309,32966,1,2,3:2:0:0:
119,309,33154,1,10,0:2:0:0:
202,364,33529,6,0,B|246:350|246:350|310:364,1,100,2|8,3:2|0:2,0:0:0:0:
345,378,34091,2,0,L|345:257,1,100,2|2,3:2|3:2,0:0:0:0:
344,227,34654,1,8,0:2:0:0:
299,137,35029,2,0,B|331:113|347:81|347:81|370:122|397:136,1,150,8|0,0:2|3:0,0:0:0:0:
486,256,36154,2,0,L|430:256,1,50,8|8,0:2|0:2,0:0:0:0:
411,299,36529,6,0,L|310:299,1,100,4|10,3:2|0:2,0:0:0:0:
268,272,37091,2,0,B|252:226|252:226|269:173,1,100,2|2,3:2|3:2,0:0:0:0:
299,137,37654,1,10,0:2:0:0:
227,67,38029,2,0,L|120:67,1,100,2|8,3:2|0:2,0:0:0:0:
77,67,38591,1,2,3:2:0:0:
20,150,38966,1,2,3:2:0:0:
20,150,39154,1,8,0:2:0:0:
90,220,39529,6,0,B|189:181|165:264|282:207,1,200,14|10,0:2|0:2,0:0:0:0:
423,157,40841,2,0,L|423:278,1,100,14|0,0:2|3:0,0:0:0:0:
434,310,41404,1,8,0:2:0:0:
434,310,41591,2,0,B|385:292|385:292|329:314,1,100,2|2,3:2|3:2,0:0:0:0:
298,338,42154,1,10,0:2:0:0:
223,271,42529,6,0,B|225:229|250:202|250:202|222:171|224:134,1,150,4|0,3:0|3:0,0:3:0:0:
168,57,43466,1,2,3:2:0:0:
168,57,43654,2,0,L|111:57,1,50,10|2,0:2|0:2,0:0:0:0:
70,74,44029,2,0,L|70:-7,2,75,0|8|2,3:0|0:2|3:2,0:0:0:0:
16,159,44966,1,2,3:2:0:0:
16,159,45154,1,10,0:2:0:0:
73,240,45529,6,0,B|133:240|133:240|157:253|157:253|222:253,1,150,2|2,3:2|3:2,0:0:0:0:
299,192,46466,2,0,L|352:192,1,50,2|8,3:2|0:2,0:0:0:0:
392,166,46841,2,0,B|423:213|423:213|407:305,1,150,6|8,3:2|0:2,0:0:0:0:
341,380,47779,1,10,0:2:0:0:
250,337,48154,2,0,L|195:337,1,50,10|2,0:2|3:2,0:0:0:0:
149,336,48529,6,0,L|149:233,1,100,4|0,3:0|3:0,0:0:0:0:
222,167,49279,1,2,3:2:0:0:
296,234,49654,1,2,3:2:0:0:
368,164,50029,2,0,L|368:50,1,100,0|0,3:0|3:0,0:0:0:0:
288,3,50779,1,2,3:2:0:0:
205,60,51154,2,0,L|154:60,1,50,2|10,3:2|0:2,0:0:0:0:
104,60,51529,5,0,3:0:0:0:
42,138,51904,2,0,L|42:195,1,50,8|8,0:2|0:2,0:0:0:0:
80,220,52279,2,0,L|80:277,1,50,8|8,0:2|0:2,0:0:0:0:
49,309,52654,1,10,0:2:0:0:
129,368,53029,2,0,B|196:333|196:333|276:365,1,150,14|14,0:2|0:2,0:0:0:0:
390,277,54154,1,2,3:2:0:0:
318,206,54529,6,0,B|297:157|297:157|317:105,1,110.000003356934,6|10,3:2|0:2,0:0:0:0:
337,53,55091,2,0,L|449:54,1,110.000003356934,2|2,3:2|3:2,0:0:0:0:
497,76,55654,2,0,L|497:133,1,55.0000016784668,8|2,0:2|0:2,0:0:0:0:
463,174,56029,2,0,L|463:289,1,110.000003356934,0|8,3:0|0:2,0:0:0:0:
497,326,56591,1,2,3:2:0:0:
404,382,56966,1,2,3:2:0:0:
404,382,57154,2,0,L|336:382,1,55.0000016784668,10|2,0:2|0:2,0:0:0:0:
301,354,57529,6,0,L|189:354,1,110.000003356934,2|10,3:2|0:2,0:0:0:0:
158,309,58091,2,0,B|176:257|176:257|158:206,1,110.000003356934,2|2,3:2|3:2,0:0:0:0:
118,167,58654,1,8,0:2:0:0:
187,81,59029,2,0,L|298:81,1,110.000003356934,0|8,3:0|0:2,0:0:0:0:
343,110,59591,2,0,L|343:226,1,110.000003356934,8|0,0:2|3:0,0:0:0:0:
307,262,60154,2,0,L|307:331,1,55.0000016784668,10|8,0:2|0:2,0:0:0:0:
343,357,60529,6,0,L|455:357,1,110.000003356934,6|10,3:2|0:2,0:0:0:0:
508,360,61091,1,2,3:2:0:0:
509,254,61466,1,0,3:0:0:0:
509,254,61654,2,0,L|451:254,1,55.0000016784668,8|2,0:2|0:2,0:0:0:0:
398,250,62029,2,0,B|383:198|383:198|401:145,1,110.000003356934,2|8,3:2|0:2,0:0:0:0:
422,94,62591,2,0,L|309:94,1,110.000003356934,2|2,3:2|3:2,0:0:0:0:
258,110,63154,1,8,0:2:0:0:
161,57,63529,6,0,B|141:110|141:110|159:162,1,110.000003356934,2|10,3:2|0:2,0:0:0:0:
187,207,64091,1,2,3:2:0:0:
277,269,64466,2,0,L|277:328,1,55.0000016784668,2|8,3:2|0:2,0:0:0:0:
237,362,64841,2,0,L|119:362,1,110.000003356934,6|0,3:2|3:0,0:0:0:0:
75,363,65404,1,8,0:2:0:0:
75,363,65591,2,0,B|97:316|97:316|77:261,1,110.000003356934,2|2,3:2|3:2,0:0:0:0:
31,229,66154,1,10,0:2:0:0:
96,140,66529,6,0,B|148:159|148:159|199:139,1,110.000003356934,6|10,3:2|0:2,0:0:0:0:
249,117,67091,2,0,L|249:242,1,110.000003356934,2|2,3:2|3:2,0:0:0:0:
231,279,67654,2,0,L|287:279,1,55.0000016784668,8|2,0:2|0:2,0:0:0:0:
335,254,68029,2,0,L|445:254,1,110.000003356934,0|8,3:0|0:2,0:0:0:0:
496,273,68591,1,2,3:2:0:0:
497,167,68966,1,2,3:2:0:0:
497,167,69154,2,0,L|497:105,1,55.0000016784668,10|2,0:2|0:2,0:0:0:0:
449,83,69529,6,0,B|399:100|399:100|344:81,1,110.000003356934,14|2,0:2|3:2,0:0:0:0:
295,56,70091,1,10,0:2:0:0:
201,113,70466,1,10,0:2:0:0:
260,205,70841,2,0,L|260:318,1,110.000003356934,14|0,0:2|3:0,0:0:0:0:
222,355,71404,1,8,0:2:0:0:
222,355,71591,2,0,L|101:355,1,110.000003356934,2|2,3:2|3:2,0:0:0:0:
62,329,72154,1,10,0:2:0:0:
7,233,72529,6,0,L|6:119,1,110.000003356934,14|10,0:2|0:2,0:0:0:0:
0,78,73091,1,2,3:2:0:0:
0,78,73279,2,0,L|112:78,1,110.000003356934,10|10,0:2|0:2,0:0:0:0:
154,120,73841,1,2,3:2:0:0:
154,120,74029,2,0,L|274:120,1,110.000003356934,10|10,0:2|0:2,0:0:0:0:
307,85,74591,1,2,3:2:0:0:
307,85,74779,1,10,0:2:0:0:
340,189,75154,2,0,L|339:244,1,55.0000016784668,10|2,0:2|3:2,0:0:0:0:
328,298,75529,6,0,B|379:278|379:278|430:296,1,110.000003356934,10|2,0:2|3:2,0:0:0:0:
484,324,76091,1,2,3:2:0:0:
484,324,76279,2,0,L|484:213,1,110.000003356934,10|10,0:2|0:2,0:0:0:0:
510,165,76841,5,14,0:2:0:0:
428,100,77216,1,10,0:2:0:0:
428,100,77404,1,14,0:2:0:0:
510,43,77779,1,10,0:2:0:0:
419,0,78154,2,0,L|352:0,1,50,10|2,0:2|3:2,0:0:0:0:
327,42,78529,6,0,B|290:46|259:72|259:72|230:46|191:42,1,150,14|2,0:2|3:2,0:0:0:0:
141,44,79279,1,14,0:2:0:0:
50,161,79841,1,2,3:2:0:0:
50,161,80029,2,0,B|110:161|110:161|134:177|134:177|204:177,1,150,14|2,0:2|3:2,0:0:0:0:
245,181,80779,1,14,0:2:0:0:
368,275,81341,1,2,3:2:0:0:
368,275,81529,6,0,L|368:173,1,100,6|0,3:2|3:0,0:0:0:0:
428,95,82279,1,0,3:0:0:0:
495,176,82654,1,2,3:2:0:0:
495,176,82841,2,0,L|495:333,1,150,14|2,0:2|3:2,0:0:0:0:
400,358,83779,2,0,L|348:358,1,50,10|2,0:2|3:2,0:0:0:0:
307,331,84154,2,0,L|255:331,1,50,10|2,0:2|3:2,0:0:0:0:
215,358,84529,6,0,L|111:357,1,100,6|10,3:2|0:2,0:0:0:0:
74,327,85091,1,2,3:2:0:0:
74,327,85279,2,0,B|96:283|96:283|74:218,1,100,2|10,0:2|0:2,0:0:0:0:
55,137,86029,2,0,L|173:137,1,100,2|8,3:2|0:2,0:0:0:0:
194,106,86591,2,0,P|234:90|301:120,1,100,2|2,3:2|3:2,0:0:0:0:
326,135,87154,1,10,0:2:0:0:
285,226,87529,6,0,L|285:334,1,100,2|8,3:2|0:2,0:0:0:0:
320,361,88091,2,0,B|366:341|366:341|415:362,1,100,2|2,3:2|3:2,0:0:0:0:
459,377,88654,1,8,0:2:0:0:
506,289,89029,2,0,B|497:252|468:225|468:225|498:200|502:156,1,150,8|0,0:2|3:2,0:0:0:0:
438,90,89966,1,0,3:0:0:0:
438,90,90154,2,0,L|380:90,1,50,8|8,0:2|0:2,0:0:0:0:
351,124,90529,6,0,B|306:141|306:141|249:121,1,100,4|10,3:2|0:2,0:0:0:0:
215,108,91091,1,2,3:2:0:0:
215,108,91279,2,0,L|215:219,1,100,2|10,0:2|0:2,0:0:0:0:
157,289,92029,2,0,P|133:301|61:284,1,100,2|8,3:2|0:2,0:0:0:0:
30,249,92591,2,0,L|30:138,1,100,2|2,3:2|3:2,0:0:0:0:
30,98,93154,1,8,0:2:0:0:
113,42,93529,6,0,B|159:60|159:60|224:41,1,100,0|8,3:2|0:2,0:0:0:0:
244,11,94091,2,0,L|343:11,1,100,0|2,3:2|3:2,0:0:0:0:
383,42,94654,1,10,0:2:0:0:
390,141,95029,2,0,B|414:173|446:189|446:189|405:212|391:239,1,150,10|2,0:2|3:2,0:0:0:0:
299,274,95966,1,0,3:0:0:0:
299,274,96154,2,0,L|299:206,1,50,8|8,0:2|0:2,0:0:0:0:
259,192,96529,6,0,L|158:192,1,100,4|10,3:0|0:2,0:0:0:0:
113,191,97091,1,2,3:2:0:0:
113,191,97279,2,0,B|130:144|130:144|110:90,1,100,2|10,3:2|0:2,0:0:0:0:
188,31,98029,2,0,L|297:31,1,100,2|8,3:2|0:2,0:0:0:0:
328,65,98591,1,2,3:2:0:0:
328,65,98779,2,0,L|328:124,1,50,0|2,3:0|3:2,0:0:0:0:
328,165,99154,1,10,0:2:0:0:
285,255,99529,6,0,P|320:271|376:255,1,100,2|8,3:2|0:2,0:0:0:0:
422,232,100091,1,2,3:2:0:0:
422,232,100279,2,0,L|422:336,1,100,2|8,3:2|0:2,0:0:0:0:
326,361,101029,2,0,B|272:353|272:353|240:369|240:369|162:358,1,150,8|0,0:2|3:0,0:0:0:0:
52,281,102154,2,0,L|52:227,1,50,8|8,0:2|0:2,0:0:0:0:
52,180,102529,6,0,P|83:194|149:175,1,100,4|10,3:2|0:2,0:0:0:0:
193,159,103091,1,2,3:2:0:0:
193,159,103279,2,0,L|193:259,1,100,2|10,3:2|0:2,0:0:0:0:
284,298,104029,2,0,P|331:282|377:299,1,100,2|8,3:2|0:2,0:0:0:0:
429,317,104591,1,2,3:2:0:0:
429,317,104779,2,0,L|429:261,1,50,0|2,3:0|3:2,0:0:0:0:
429,216,105154,1,10,0:2:0:0:
378,129,105529,6,0,B|331:146|331:146|284:129,1,100,0|8,3:0|0:2,0:3:0:0:
236,115,106091,1,2,3:2:0:0:
154,172,106466,2,0,L|153:232,1,50,2|8,3:2|0:2,0:0:0:0:
178,265,106841,2,0,L|70:265,1,100,6|0,3:2|3:0,0:0:0:0:
27,265,107404,1,8,0:2:0:0:
0,168,107779,2,0,L|0:103,1,50,10|2,0:2|3:2,0:0:0:0:
2,67,108154,2,0,L|55:67,1,50,10|2,0:2|3:2,0:0:0:0:
93,39,108529,6,0,B|125:45|154:78|154:78|178:46|217:38,1,150,4|0,3:0|3:0,0:0:0:0:
306,94,109466,1,2,3:2:0:0:
306,94,109654,2,0,L|306:151,1,50,10|2,0:2|0:2,0:0:0:0:
287,190,110029,2,0,P|259:200|209:184,2,75,0|8|2,3:0|0:2|3:2,0:0:0:0:
376,245,110966,1,2,3:2:0:0:
376,245,111154,1,10,0:2:0:0:
452,180,111529,6,0,B|452:105|452:105|421:74|384:81,1,150,2|2,3:2|3:2,0:0:0:0:
300,26,112466,2,0,L|241:27,1,50,2|8,3:2|0:2,0:0:0:0:
202,41,112841,2,0,B|227:89|227:89|202:191,1,150,6|8,3:2|0:2,0:0:0:0:
273,254,113779,1,10,0:2:0:0:
208,330,114154,2,0,L|149:330,1,50,10|10,0:2|0:2,0:0:0:0:
110,345,114529,6,0,L|110:245,1,100,4|0,3:0|3:0,0:0:0:0:
54,161,115279,1,2,3:2:0:0:
110,78,115654,1,2,3:2:0:0:
209,78,116029,2,0,L|318:78,1,100,0|0,3:0|3:0,0:0:0:0:
363,161,116779,1,2,3:2:0:0:
310,245,117154,2,0,L|310:303,1,50,2|10,3:2|0:2,0:0:0:0:
309,345,117529,5,0,3:0:0:0:
399,384,117904,2,0,L|448:384,1,50,8|8,0:2|0:2,0:0:0:0:
481,346,118279,2,0,L|481:297,1,50,8|8,0:2|0:2,0:0:0:0:
450,256,118654,1,10,0:2:0:0:
512,177,119029,2,0,B|470:169|445:141|445:141|427:170|383:176,1,150,14|14,0:2|0:2,0:0:0:0:
297,126,119966,2,0,L|297:70,2,50,10|10|10,0:2|0:2|0:2,0:0:0:0:
261,161,120529,6,0,B|208:144|208:144|156:161,1,110.000003356934,6|10,3:2|0:2,0:0:0:0:
104,179,121091,2,0,L|104:290,1,110.000003356934,2|2,3:2|3:2,0:0:0:0:
134,334,121654,2,0,L|192:334,1,55.0000016784668,8|2,0:2|0:2,0:0:0:0:
229,296,122029,2,0,P|258:281|330:296,1,110.000003356934,0|8,3:0|0:2,0:0:0:0:
376,326,122591,1,2,3:2:0:0:
458,252,122966,1,2,3:2:0:0:
458,252,123154,2,0,L|458:189,1,55.0000016784668,10|2,0:2|0:2,0:0:0:0:
428,150,123529,6,0,B|377:169|377:169|325:148,1,110.000003356934,2|10,3:2|0:2,0:0:0:0:
282,113,124091,2,0,L|172:113,1,110.000003356934,2|2,3:2|3:2,0:0:0:0:
129,149,124654,1,8,0:2:0:0:
198,234,125029,2,0,L|198:346,1,110.000003356934,0|8,3:0|0:2,0:0:0:0:
156,380,125591,2,0,P|133:369|51:385,1,110.000003356934,8|0,0:2|3:0,0:0:0:0:
0,366,126154,2,0,L|0:307,1,55.0000016784668,10|8,0:2|0:2,0:0:0:0:
34,267,126529,6,0,B|12:216|12:216|33:165,1,110.000003356934,6|10,3:2|0:2,0:3:0:0:
60,118,127091,1,2,3:2:0:0:
152,187,127466,1,0,3:0:0:0:
152,187,127654,2,0,L|214:187,1,55.0000016784668,8|2,0:2|0:2,0:0:0:0:
262,186,128029,2,0,P|244:148|268:81,1,110.000003356934,2|8,3:2|0:2,0:0:0:0:
294,40,128591,2,0,L|406:40,1,110.000003356934,2|2,3:2|3:2,0:0:0:0:
459,41,129154,1,8,0:2:0:0:
510,138,129529,6,0,L|510:252,1,110.000003356934,2|10,3:2|0:2,0:0:0:0:
510,303,130091,1,2,3:2:0:0:
407,341,130466,2,0,L|351:339,1,55.0000016784668,2|8,3:2|0:2,0:0:0:0:
323,292,130841,2,0,B|271:277|271:277|219:298,1,110.000003356934,6|0,3:2|3:0,0:0:0:0:
171,320,131404,1,8,0:2:0:0:
171,320,131591,2,0,L|171:209,1,110.000003356934,2|2,3:2|3:2,0:0:0:0:
172,154,132154,1,10,0:2:0:0:
224,57,132529,6,0,P|171:42|118:57,1,110.000003356934,6|10,3:2|0:2,0:0:0:0:
63,54,133091,2,0,L|63:166,1,110.000003356934,2|2,3:2|3:2,0:0:0:0:
38,213,133654,2,0,L|38:272,1,55.0000016784668,8|2,0:2|0:2,0:0:0:0:
63,317,134029,2,0,B|113:299|113:299|170:320,1,110.000003356934,0|8,3:0|0:2,0:0:0:0:
218,337,134591,1,2,3:2:0:0:
303,267,134966,1,2,3:2:0:0:
303,267,135154,2,0,L|303:206,1,55.0000016784668,10|2,0:2|0:2,0:0:0:0:
298,157,135529,6,0,B|349:175|349:175|402:157,1,110.000003356934,14|2,0:2|3:2,0:0:0:0:
455,146,136091,1,10,0:2:0:0:
511,51,136466,1,10,0:2:0:0:
412,1,136841,2,0,L|295:1,1,110.000003356934,14|0,0:2|3:0,0:0:0:0:
272,48,137404,1,8,0:2:0:0:
272,48,137591,2,0,L|155:48,1,110.000003356934,2|2,3:2|3:2,0:0:0:0:
126,5,138154,1,10,0:2:0:0:
70,99,138529,6,0,B|92:151|92:151|68:211,1,110.000003356934,14|10,0:2|0:2,0:0:0:0:
48,252,139091,1,2,3:2:0:0:
48,252,139279,2,0,L|161:252,1,110.000003356934,10|10,0:2|0:2,0:0:0:0:
204,291,139841,1,2,3:2:0:0:
204,291,140029,2,0,P|244:274|321:301,1,110.000003356934,10|10,0:2|0:2,0:0:0:0:
355,324,140591,1,2,3:2:0:0:
355,324,140779,1,10,0:2:0:0:
439,253,141154,2,0,L|439:196,1,55.0000016784668,10|2,0:2|3:2,0:0:0:0:
437,142,141529,6,0,B|384:163|384:163|335:142,1,110.000003356934,10|2,0:2|3:2,0:0:0:0:
290,121,142091,1,2,3:2:0:0:
290,121,142279,2,0,L|176:122,1,110.000003356934,10|10,0:2|0:2,0:0:0:0:
150,164,142841,6,0,B|188:199|188:199|154:301,1,150,14|2,0:2|0:2,0:0:0:0:
66,336,143779,2,0,P|49:296|75:238,1,100,2|2,0:2|0:2,0:0:0:0:
53,145,144529,5,12,0:3:0:0:
53,145,153529,6,0,L|154:145,1,100,6|8,3:2|0:2,0:0:0:0:
195,170,154091,2,0,B|176:217|176:217|193:274,1,100,6|0,3:2|3:2,0:0:0:0:
222,302,154654,1,8,0:2:0:0:
222,302,154841,2,0,B|276:297|276:297|306:310|306:310|374:303,1,150,6|8,3:2|0:2,0:0:0:0:
468,190,155966,2,0,L|468:133,1,50,0|8,3:0|0:2,0:0:0:0:
448,93,156341,6,0,B|406:89|376:67|376:67|352:91|309:94,1,150,14|0,0:2|3:0,0:0:0:0:
232,30,157279,1,2,3:2:0:0:
152,91,157654,1,0,3:0:0:0:
201,178,158029,2,0,L|200:290,1,100,10|8,0:2|0:2,0:0:0:0:
181,326,158591,1,10,0:2:0:0:
181,326,158779,2,0,L|113:326,1,50,8|10,0:2|0:2,0:0:0:0:
84,329,159154,1,10,0:2:0:0:
84,329,159341,5,10,0:2:0:0:
1,92,160279,6,0,B|69:116|69:116|142:89,1,150,14|14,0:2|0:2,0:0:0:0:
230,39,161216,1,0,3:0:0:0:
230,39,161404,2,0,B|244:87|244:87|229:152,1,100,8|10,0:2|0:2,0:0:0:0:
207,179,161966,1,2,3:2:0:0:
207,179,162154,1,10,0:2:0:0:
282,244,162529,6,0,B|330:261|330:261|375:243,1,100,6|10,3:2|0:2,0:0:0:0:
422,225,163091,2,0,L|422:125,1,100,2|2,3:2|3:2,0:0:0:0:
426,78,163654,1,8,0:2:0:0:
426,78,163841,2,0,B|346:62|366:110|279:86,1,150,6|8,3:2|0:2,0:0:0:0:
193,34,164779,1,10,0:2:0:0:
132,113,165154,2,0,L|132:173,1,50,10|10,0:2|0:2,0:0:0:0:
116,210,165529,6,0,L|222:210,1,100,4|0,3:0|3:0,0:0:0:0:
300,156,166279,1,2,3:2:0:0:
375,221,166654,1,2,3:2:0:0:
303,290,167029,2,0,L|203:290,1,100,8|8,0:2|0:2,0:0:0:0:
163,319,167591,1,10,0:2:0:0:
163,319,167779,2,0,L|93:319,1,50,10|10,0:2|0:2,0:0:0:0:
70,291,168154,2,0,L|70:221,1,50,0|0,3:2|3:0,0:0:0:0:
71,190,168529,5,10,0:2:0:0:
152,130,168904,1,0,3:0:0:0:
152,130,169091,2,0,L|259:130,1,100,8|2,0:2|3:2,0:0:0:0:
292,159,169654,1,10,0:2:0:0:
382,201,170029,6,0,B|396:174|437:151|437:151|405:135|381:103,1,150,14|14,0:2|0:2,0:0:0:0:
322,28,170966,1,8,0:2:0:0:
322,28,171154,2,0,L|256:28,1,50,8|8,0:2|0:2,0:0:0:0:
228,52,171529,2,0,L|148:52,2,75,6|2|6,3:2|3:2|3:2,0:0:0:0:
265,150,172466,1,2,3:2:0:0:
265,150,172654,2,0,L|265:211,1,50,10|2,0:2|0:2,0:0:0:0:
250,248,173029,6,0,B|299:229|299:229|354:250,1,110.000003356934,6|10,3:2|0:2,0:0:0:0:
375,299,173591,2,0,L|486:299,1,110.000003356934,2|2,3:2|3:2,0:0:0:0:
511,250,174154,2,0,L|511:194,1,55.0000016784668,8|2,0:2|0:2,0:0:0:0:
475,168,174529,2,0,P|452:113|480:59,1,110.000003356934,0|8,3:0|0:2,0:0:0:0:
509,30,175091,1,2,3:2:0:0:
406,5,175466,1,2,3:2:0:0:
406,5,175654,2,0,L|343:5,1,55.0000016784668,10|2,0:2|0:2,0:0:0:0:
309,40,176029,6,0,B|259:58|259:58|196:36,1,110.000003356934,2|10,3:2|0:2,0:0:0:0:
162,4,176591,2,0,L|162:121,1,110.000003356934,2|2,3:2|3:2,0:0:0:0:
205,147,177154,1,8,0:2:0:0:
154,244,177529,2,0,B|204:266|204:266|270:236,1,110.000003356934,0|8,3:0|0:2,0:0:0:0:
300,212,178091,2,0,L|300:322,1,110.000003356934,8|0,0:2|3:0,0:0:0:0:
289,376,178654,2,0,L|230:376,1,55.0000016784668,10|8,0:2|0:2,0:0:0:0:
183,354,179029,6,0,B|128:375|128:375|75:353,1,110.000003356934,6|10,3:2|0:2,0:0:0:0:
30,334,179591,1,2,3:2:0:0:
72,235,179966,1,0,3:0:0:0:
72,235,180154,2,0,L|72:177,1,55.0000016784668,8|2,0:2|0:2,0:0:0:0:
45,131,180529,2,0,P|81:146|155:124,1,110.000003356934,2|8,3:2|0:2,0:0:0:0:
182,87,181091,2,0,L|295:87,1,110.000003356934,2|2,3:2|3:2,0:0:0:0:
324,131,181654,1,8,0:2:0:0:
385,39,182029,6,0,B|433:20|433:20|488:41,1,110.000003356934,2|10,3:2|0:2,0:0:0:0:
509,91,182591,1,2,3:2:0:0:
459,189,182966,2,0,L|459:244,1,55.0000016784668,2|8,3:2|0:2,0:0:0:0:
459,299,183341,2,0,L|337:298,1,110.000003356934,6|0,3:2|3:0,0:0:0:0:
306,272,183904,1,8,0:2:0:0:
306,272,184091,2,0,B|254:292|254:292|201:270,1,110.000003356934,2|2,3:2|3:2,0:0:0:0:
154,247,184654,1,10,0:2:0:0:
223,161,185029,6,0,L|223:46,1,110.000003356934,6|10,3:2|0:2,0:0:0:0:
184,11,185591,2,0,B|134:30|134:30|74:9,1,110.000003356934,2|2,3:2|3:2,0:0:0:0:
39,47,186154,2,0,L|39:101,1,55.0000016784668,8|2,0:2|0:2,0:0:0:0:
72,145,186529,2,0,L|72:259,1,110.000003356934,0|8,3:0|0:2,0:0:0:0:
41,300,187091,1,2,3:2:0:0:
127,376,187466,1,2,3:2:0:0:
127,376,187654,2,0,L|186:376,1,55.0000016784668,10|2,0:2|0:2,0:0:0:0:
224,340,188029,6,0,B|203:290|203:290|224:237,1,110.000003356934,6|10,3:2|0:2,0:0:0:0:
248,189,188591,1,2,3:2:0:0:
320,271,188966,1,2,3:2:0:0:
393,189,189341,2,0,L|393:76,1,110.000003356934,6|0,3:2|3:0,0:0:0:0:
374,32,189904,1,8,0:2:0:0:
374,32,190091,2,0,B|424:13|424:13|478:32,1,110.000003356934,6|2,3:2|3:2,0:0:0:0:
510,76,190654,1,10,0:2:0:0:
509,185,191029,6,0,L|509:296,1,110.000003356934,14|10,0:2|0:2,0:0:0:0:
512,354,191591,1,2,3:2:0:0:
512,354,191779,2,0,B|458:337|458:337|402:360,1,110.000003356934,10|10,0:2|0:2,0:0:0:0:
363,338,192341,1,2,3:2:0:0:
363,338,192529,2,0,L|249:338,1,110.000003356934,10|10,0:2|0:2,0:0:0:0:
212,371,193091,1,2,3:2:0:0:
212,371,193279,1,10,0:2:0:0:
124,304,193654,2,0,L|124:245,1,55.0000016784668,10|2,0:2|3:2,0:0:0:0:
121,193,194029,6,0,P|167:174|223:192,1,110.000003356934,10|2,0:2|3:2,0:0:0:0:
267,159,194591,1,2,3:2:0:0:
267,159,194779,2,0,L|267:280,1,110.000003356934,10|10,0:2|0:2,0:0:0:0:
269,324,195341,5,14,0:2:0:0:
366,384,195716,1,10,0:2:0:0:
366,384,195904,1,14,0:2:0:0:
448,328,196279,1,2,0:2:0:0:
368,274,196654,2,0,B|356:224|390:187|390:187|362:116|362:116|398:72|374:18,1,269.999991760254,2|0,0:2|0:0,0:0:0:0:
289,56,198154,2,0,L|239:56,1,50,8|2,0:3|0:2,0:0:0:0:
188,56,198529,6,0,B|141:72|141:72|87:51,1,100,6|8,3:2|0:2,0:0:0:0:
45,40,199091,2,0,L|45:140,1,100,0|0,3:0|3:0,0:0:0:0:
64,186,199654,1,10,0:2:0:0:
16,274,200029,2,0,P|51:289|125:262,1,100,2|8,3:2|0:2,0:3:0:0:
158,256,200591,1,0,3:0:0:0:
158,256,200779,2,0,L|217:256,1,50,2|0,0:2|3:0,0:0:0:0:
252,279,201154,1,8,0:2:0:0:
320,207,201529,6,0,B|370:193|370:193|420:208,1,100,2|8,3:2|0:2,0:0:0:0:
461,227,202091,2,0,L|461:118,1,100,0|0,3:0|3:0,0:0:0:0:
455,77,202654,1,10,0:2:0:0:
372,20,203029,2,0,B|297:21|297:21|274:50|274:101,1,150,2|2,3:2|3:2,0:0:0:0:
344,223,204154,2,0,L|344:277,1,50,10|2,0:2|0:2,0:0:0:0:
308,308,204529,6,0,B|262:291|262:291|211:315,1,100,6|8,3:2|0:2,0:0:0:0:
168,328,205091,2,0,L|168:223,1,100,0|0,3:0|3:0,0:0:0:0:
170,177,205654,1,10,0:2:0:0:
254,123,206029,2,0,P|301:139|348:123,1,100,2|8,3:2|0:2,0:0:0:0:
385,91,206591,1,0,3:0:0:0:
385,91,206779,2,0,L|444:91,1,50,2|0,0:2|3:0,0:0:0:0:
484,97,207154,1,8,0:2:0:0:
510,193,207529,6,0,L|510:303,1,100,2|8,3:2|0:2,0:0:0:0:
474,327,208091,2,0,B|428:310|428:310|377:334,1,100,0|0,3:0|3:0,0:0:0:0:
338,357,208654,1,8,0:2:0:0:
261,292,209029,2,0,B|203:292|203:292|181:308|181:308|112:307,1,150,2|2,3:2|3:2,0:0:0:0:
45,244,209966,1,0,3:0:0:0:
45,244,210154,2,0,L|45:181,1,50,10|10,0:2|0:2,0:0:0:0:
10,158,210529,6,0,L|10:51,1,100,6|8,3:2|0:2,0:0:0:0:
41,19,211091,2,0,B|87:37|87:37|145:17,1,100,0|0,3:0|3:0,0:0:0:0:
182,5,211654,1,10,0:2:0:0:
242,85,212029,2,0,L|242:192,1,100,2|8,3:2|0:2,0:0:0:0:
225,234,212591,1,0,3:0:0:0:
225,234,212779,2,0,L|225:295,1,50,2|0,0:2|3:0,0:0:0:0:
225,334,213154,1,8,0:2:0:0:
315,375,213529,6,0,B|361:357|361:357|421:374,1,100,2|8,3:2|0:2,0:0:0:0:
462,365,214091,2,0,L|462:256,1,100,0|0,3:0|3:2,0:0:0:0:
463,214,214654,1,10,0:2:0:0:
365,190,215029,2,0,B|358:155|332:123|332:123|363:94|364:56,1,150,2|2,3:2|3:2,0:0:0:0:
223,3,216154,2,0,L|165:3,1,50,10|10,0:2|0:2,0:0:0:0:
141,41,216529,6,0,L|141:141,1,100,6|8,3:2|0:2,0:0:0:0:
155,188,217091,2,0,P|126:176|56:194,1,100,0|0,3:0|3:0,0:0:0:0:
30,229,217654,1,10,0:2:0:0:
107,291,218029,2,0,L|221:291,1,100,2|8,3:2|0:2,0:0:0:0:
254,270,218591,1,0,3:0:0:0:
254,270,218779,2,0,L|307:271,1,50,2|0,0:2|3:0,0:0:0:0:
349,293,219154,1,8,0:2:0:0:
414,217,219529,6,0,L|414:161,1,50,14|10,0:2|0:2,0:0:0:0:
321,128,220091,2,0,L|321:78,1,50,14|10,0:2|0:2,0:0:0:0:
222,60,220654,2,0,L|222:10,1,50,14|10,0:2|0:2,0:0:0:0:
256,192,221029,12,0,230029,0:0:0:0:
