osu file format v14

[General]
AudioFilename: audio.mp3
AudioLeadIn: 0
PreviewTime: 53482
Countdown: 0
SampleSet: Soft
StackLeniency: 0.5
Mode: 0
LetterboxInBreaks: 0
WidescreenStoryboard: 1

[Editor]
Bookmarks: 6514,18514,42514,48514,54514,78514,84534,96514,108514,114514,120514,144514,153514,159326,173014,198514,221034,230034
DistanceSpacing: 2
BeatDivisor: 4
GridSize: 32
TimelineZoom: 1

[Metadata]
Title:Azalea
TitleUnicode:アザレア
Artist:nano.RIPE
ArtistUnicode:nano.RIPE
Creator:Shirahane Suou
Version:Insane
Source:citrus
Tags:japanese anime opening op rock jrock 百合 yuri
BeatmapID:2764719
BeatmapSetID:1334552

[Difficulty]
HPDrainRate:5
CircleSize:4
OverallDifficulty:8
ApproachRate:8.7
SliderMultiplier:1.7
SliderTickRate:1

[Events]
//Background and Video events
0,0,"80696203_p3.jpg",0,0
//Break Periods
//Storyboard Layer 0 (Background)
//Storyboard Layer 1 (Fail)
//Storyboard Layer 2 (Pass)
//Storyboard Layer 3 (Foreground)
//Storyboard Layer 4 (Overlay)
//Storyboard Sound Samples

[TimingPoints]
-966,375,4,2,1,40,1,0
159,-125,4,2,1,40,0,0
894,375,4,2,1,40,1,0
894,-125,4,2,1,40,0,0
2019,375,4,2,1,40,1,0
2019,-125,4,2,1,40,0,0
6144,385.852090032154,4,2,1,40,1,0
6529,375,4,2,1,60,1,0
6529,-100,4,2,1,60,0,0
16841,-125,4,2,1,60,0,0
18529,-111.111111111111,4,2,1,40,0,0
39529,-133.333333333333,4,2,1,40,0,0
40279,-111.111111111111,4,2,1,40,0,0
42529,-111.111111111111,4,2,1,50,0,0
48529,-133.333333333333,4,2,1,40,0,0
50029,-111.111111111111,4,2,1,50,0,0
51529,-100,4,2,1,60,0,0
54529,-90.9090909090909,4,2,1,70,0,1
77591,-133.333333333333,4,2,1,50,0,0
78529,-100,4,2,1,50,0,0
81529,-133.333333333333,4,2,1,50,0,0
82841,-100,4,2,1,50,0,0
84529,-111.111111111111,4,2,1,40,0,0
96529,-100,4,2,1,60,0,0
108529,-111.111111111111,4,2,1,50,0,0
114529,-133.333333333333,4,2,1,40,0,0
116029,-111.111111111111,4,2,1,50,0,0
117529,-100,4,2,1,60,0,0
120529,-90.9090909090909,4,2,1,70,0,1
142841,-133.333333333333,4,2,1,40,0,0
153529,-111.111111111111,4,2,1,50,0,0
158029,-111.111111111111,4,2,1,60,0,0
165529,-125,4,2,1,50,0,0
167029,-100,4,2,1,60,0,0
173029,-90.9090909090909,4,2,1,70,0,1
195997,-285.714285714286,4,2,1,40,0,0
198154,-100,4,2,1,60,0,0
221122,-100,4,2,2,5,0,0

[Colours]
Combo1 : 50,172,209
Combo2 : 255,175,88
Combo3 : 114,107,173
Combo4 : 221,148,168

[HitObjects]
385,115,346,5,8,0:3:0:0:
385,115,440,1,8,0:3:0:0:
385,115,534,2,0,L|372:197,1,68,12|8,3:3|0:3,0:0:0:0:
292,315,894,2,0,L|333:303,2,34,8|8|8,3:3|0:3|0:3,0:0:0:0:
161,216,1268,2,0,P|190:193|257:202,1,102,8|8,3:3|0:3,0:0:0:0:
282,222,1643,1,0,3:0:0:0:
180,322,1830,1,8,0:3:0:0:
180,322,1924,1,8,0:3:0:0:
180,322,2019,6,0,L|112:312,1,68,8|8,3:3|0:3,0:0:0:0:
0,279,2394,2,0,L|7:313,2,34,8|8|8,3:3|0:3|0:3,0:0:0:0:
27,172,2768,2,0,L|67:166,3,34,8|8|8|8,3:3|0:3|0:3|0:3,0:0:0:0:
117,107,3143,1,8,3:3:0:0:
135,124,3236,1,8,0:3:0:0:
146,147,3330,1,8,0:3:0:0:
147,172,3424,1,8,0:3:0:0:
140,196,3518,6,0,L|153:293,1,68,8|8,3:3|0:3,0:0:0:0:
234,365,3893,2,0,L|240:316,3,34,8|8|8|8,3:3|0:3|0:3|0:3,0:0:0:0:
302,275,4268,2,0,L|297:241,3,34,8|8|8|8,3:3|0:3|0:3|0:3,0:0:0:0:
242,172,4643,6,0,P|274:155|313:158,1,68,8|0,0:2|0:0,0:0:0:0:
341,166,4924,1,8,0:2:0:0:
432,51,5111,1,8,0:2:0:0:
432,51,5205,1,8,0:2:0:0:
315,69,5393,1,8,0:2:0:0:
442,186,5580,1,8,0:2:0:0:
442,186,5674,1,8,0:2:0:0:
442,186,5768,2,0,L|433:237,3,34,8|8|8|8,0:2|0:2|0:2|0:2,0:0:0:0:
407,306,6144,5,2,3:2:0:0:
378,319,6240,1,2,0:2:0:0:
346,318,6336,1,2,0:2:0:0:
319,302,6433,1,2,0:2:0:0:
302,274,6529,6,0,L|314:136,1,127.5,6|0,3:2|3:0,0:0:0:0:
318,109,6904,1,8,0:2:0:0:
185,45,7091,1,0,3:0:0:0:
185,45,7185,2,0,L|193:145,1,85,8|0,0:2|0:0,0:0:0:0:
196,168,7466,1,0,3:0:0:0:
107,258,7654,2,0,B|66:266|66:266|13:248,1,85,10|2,0:2|0:2,0:0:0:0:
170,364,8029,6,0,P|210:329|293:340,1,127.5,2|0,3:2|3:0,0:0:0:0:
313,361,8404,1,8,0:2:0:0:
428,257,8591,2,0,P|370:261|362:204,1,127.5,0|0,3:0|0:0,0:0:0:0:
384,180,8966,1,0,3:0:0:0:
478,337,9154,2,0,P|442:359|400:361,1,85,8|2,0:2|0:2,0:0:0:0:
263,232,9529,6,0,L|276:98,1,127.5,2|0,3:2|3:0,0:0:0:0:
279,70,9904,1,8,0:2:0:0:
413,0,10091,1,0,3:0:0:0:
413,0,10185,2,0,P|392:39|401:85,1,85,0|8,3:0|0:2,0:0:0:0:
421,113,10466,1,0,3:0:0:0:
366,226,10654,2,0,P|407:221|443:241,1,85,10|2,0:2|0:2,0:0:0:0:
325,339,11029,6,0,L|228:322,1,85,2|0,3:2|0:0,0:0:0:0:
215,307,11310,2,0,L|167:319,1,42.5,2|8,3:2|0:2,0:0:0:0:
11,350,11591,2,0,P|64:360|36:271,1,170,2|0,3:2|3:0,0:0:0:0:
4,126,12154,5,10,0:2:0:0:
20,152,12247,1,2,0:2:0:0:
48,168,12341,1,2,0:2:0:0:
79,169,12435,1,2,0:2:0:0:
108,156,12529,6,0,P|150:124|235:146,1,127.5,6|0,3:2|3:0,0:0:0:0:
240,158,12904,1,8,0:2:0:0:
371,86,13091,2,0,L|356:181,1,85,0|0,3:0|0:0,0:0:0:0:
384,310,13466,1,0,3:0:0:0:
220,270,13654,2,0,P|257:250|298:257,1,85,10|2,0:2|0:2,0:0:0:0:
452,367,14029,6,0,P|406:375|391:300,1,127.5,2|0,3:2|3:0,0:0:0:0:
403,285,14404,1,8,0:2:0:0:
507,161,14591,2,0,B|474:178|451:195|451:195|424:180|393:172,1,127.5,0|8,3:0|0:2,0:0:0:0:
358,170,14966,1,0,3:0:0:0:
415,15,15154,2,0,P|439:48|441:90,1,85,8|0,0:2|0:0,0:0:0:0:
305,259,15529,5,14,0:2:0:0:
350,76,15716,1,10,0:2:0:0:
350,76,16091,5,14,0:2:0:0:
181,169,16279,1,10,0:2:0:0:
181,169,16654,5,14,0:2:0:0:
234,0,16841,1,10,0:2:0:0:
234,0,17404,5,2,0:2:0:0:
221,22,17497,1,2,0:2:0:0:
201,37,17591,1,2,0:2:0:0:
177,44,17685,1,2,0:2:0:0:
152,41,17779,2,0,L|95:49,3,34,10|2|2|2,0:2|3:2|3:2|3:2,0:0:0:0:
50,125,18154,2,0,L|107:133,3,34,10|2|2|2,0:2|0:2|0:2|0:2,0:0:0:0:
181,141,18529,6,0,L|162:264,1,114.749996498108,6|0,3:2|3:0,0:0:0:0:
158,291,18904,1,10,0:2:0:0:
248,349,19091,2,0,B|308:338|308:338|338:352|338:352|405:341,1,152.999995330811,2|2,3:2|3:2,0:0:0:0:
476,230,19654,2,0,P|431:237|395:213,1,76.4999976654053,10|2,0:2|0:2,0:0:0:0:
256,111,20029,6,0,P|305:144|304:218,1,114.749996498108,2|2,3:2|3:2,0:0:0:0:
300,236,20404,1,8,0:2:0:0:
183,262,20591,2,0,B|172:156|172:156|188:180|215:195,1,152.999995330811,2|2,3:2|3:2,0:0:0:0:
221,348,21154,2,0,P|185:361|148:354,1,76.4999976654053,8|2,0:2|0:2,0:0:0:0:
4,283,21529,6,0,P|44:293|92:232,1,114.749996498108,2|0,3:2|3:0,0:0:0:0:
94,207,21904,1,10,0:2:0:0:
20,109,22091,2,0,B|62:118|108:86|108:86|125:113|153:122,1,152.999995330811,2|2,3:2|3:2,0:0:0:0:
251,57,22654,1,8,0:2:0:0:
340,172,22841,1,2,3:2:0:0:
340,172,22935,1,0,3:0:0:0:
340,172,23029,6,0,L|248:155,1,76.4999976654053,8|0,0:2|0:0,0:0:0:0:
236,155,23310,2,0,L|248:206,1,38.2499988327027,0|0,3:0|0:0,0:0:0:0:
163,310,23591,2,0,P|235:298|285:352,1,152.999995330811,0|0,3:0|3:0,0:0:0:0:
379,257,24154,1,8,0:2:0:0:
512,374,24341,1,8,0:2:0:0:
512,374,24435,1,8,0:2:0:0:
512,374,24529,6,0,L|383:353,1,114.749996498108,4|0,3:2|3:0,0:0:0:0:
367,351,24904,1,10,0:2:0:0:
310,188,25091,2,0,P|374:151|444:177,1,152.999995330811,2|2,3:2|3:2,0:0:0:0:
512,76,25654,2,0,P|471:78|438:44,1,76.4999976654053,10|2,0:2|0:2,0:0:0:0:
284,19,26029,6,0,P|333:32|354:108,1,114.749996498108,2|2,3:2|3:2,0:0:0:0:
350,119,26404,1,8,0:2:0:0:
241,247,26591,2,0,B|263:144|263:144|271:170|285:185,1,152.999995330811,2|2,3:2|3:2,0:3:0:0:
407,263,27154,2,0,P|369:258|335:275,1,76.4999976654053,10|2,0:2|0:2,0:0:0:0:
191,359,27529,6,0,L|312:374,1,114.749996498108,0|0,3:2|3:0,0:0:0:0:
344,375,27904,1,8,0:2:0:0:
241,247,28091,2,0,B|182:240|182:240|154:258|154:258|89:251,1,152.999995330811,2|0,3:2|3:0,0:0:0:0:
11,148,28654,2,0,L|90:136,1,76.4999976654053,10|0,0:2|0:0,0:0:0:0:
205,31,29029,6,0,L|190:117,1,76.4999976654053,10|0,0:2|0:0,0:0:0:0:
175,130,29310,2,0,L|190:180,1,38.2499988327027,0|0,3:0|0:0,0:0:0:0:
334,216,29591,2,0,P|265:218|272:286,1,152.999995330811,2|0,3:2|3:0,0:3:0:0:
397,310,30154,1,8,0:2:0:0:
444,188,30341,1,8,0:2:0:0:
444,188,30435,1,8,0:2:0:0:
444,188,30529,6,0,L|428:66,1,114.749996498108,4|0,3:2|3:0,0:0:0:0:
416,38,30904,1,10,0:2:0:0:
326,119,31091,2,0,P|288:133|224:56,1,152.999995330811,2|2,3:2|3:2,0:0:0:0:
101,11,31654,2,0,P|128:38|128:80,1,76.4999976654053,10|2,0:2|0:2,0:0:0:0:
5,175,32029,6,0,L|133:192,1,114.749996498108,2|2,3:2|3:2,0:0:0:0:
148,205,32404,1,8,0:2:0:0:
244,296,32591,2,0,P|191:292|160:384,1,152.999995330811,2|2,3:2|3:2,0:0:0:0:
34,384,33154,2,0,P|57:339|45:292,1,76.4999976654053,10|2,0:2|0:2,0:0:0:0:
23,182,33529,6,0,P|53:221|133:213,1,114.749996498108,2|0,3:2|3:0,0:0:0:0:
143,206,33904,1,8,0:2:0:0:
219,69,34091,2,0,P|195:121|281:131,1,152.999995330811,2|2,3:2|3:2,0:0:0:0:
336,40,34654,1,8,0:2:0:0:
427,122,34841,1,2,3:2:0:0:
427,122,34935,1,0,3:0:0:0:
427,122,35029,6,0,L|409:208,1,76.4999976654053,8|0,0:2|0:0,0:0:0:0:
399,231,35310,2,0,L|453:210,1,38.2499988327027,0|0,3:0|0:0,0:0:0:0:
346,357,35591,2,0,P|308:308|215:331,1,152.999995330811,0|0,3:0|3:0,0:0:0:0:
151,208,36154,1,8,0:2:0:0:
69,312,36341,1,8,0:2:0:0:
69,312,36435,1,8,0:2:0:0:
69,312,36529,6,0,L|43:194,1,114.749996498108,4|0,3:2|3:0,0:0:0:0:
32,162,36904,1,10,0:2:0:0:
115,60,37091,2,0,P|167:110|235:84,1,152.999995330811,2|2,3:2|3:2,0:0:0:0:
355,5,37654,2,0,P|329:42|341:94,1,76.4999976654053,10|2,0:2|0:2,0:0:0:0:
433,184,38029,6,0,L|300:205,1,114.749996498108,2|2,3:2|3:2,0:0:0:0:
285,210,38404,1,8,0:2:0:0:
214,316,38591,2,0,P|284:304|315:369,1,152.999995330811,2|2,3:2|3:2,0:0:0:0:
438,369,39154,2,0,P|412:331|419:288,1,76.4999976654053,8|2,0:2|0:2,0:0:0:0:
437,271,39435,1,2,0:2:0:0:
437,271,39529,6,0,B|479:216|436:140|436:140|412:185,1,191.250007295609,14|2,0:2|0:2,0:0:0:0:
333,249,40279,6,0,L|238:239,1,76.4999976654053,10|0,0:2|0:0,0:0:0:0:
231,220,40560,2,0,L|136:230,1,76.4999976654053,10|0,0:2|3:0,0:0:0:0:
125,249,40841,6,0,B|80:220|80:220|102:116,1,152.999995330811,14|0,0:2|3:0,0:0:0:0:
167,22,41404,1,8,0:2:0:0:
294,111,41591,2,0,L|191:132,1,76.4999976654053,2|8,3:2|0:2,0:0:0:0:
187,143,41872,1,8,0:2:0:0:
187,143,41966,1,2,3:2:0:0:
278,11,42154,2,0,L|352:26,1,76.4999976654053,10|2,0:2|0:2,0:0:0:0:
500,89,42529,6,0,P|466:114|422:108,1,76.4999976654053,4|0,3:0|0:0,0:0:0:0:
398,108,42810,2,0,L|410:185,1,76.4999976654053,8|0,0:2|0:0,0:0:0:0:
442,210,43091,2,0,B|418:319|418:319|383:284,1,152.999995330811,0|2,3:0|3:2,0:0:0:0:
264,352,43654,2,0,L|359:369,1,76.4999976654053,10|2,0:2|0:2,0:0:0:0:
240,237,44029,6,0,P|197:226|164:239,1,76.4999976654053,0|0,3:0|0:0,0:0:0:0:
140,254,44310,2,0,L|118:168,1,76.4999976654053,8|0,0:2|0:0,0:0:0:0:
101,148,44591,2,0,P|148:156|178:66,1,152.999995330811,2|2,3:2|3:2,0:0:0:0:
42,75,45154,2,0,P|16:102|5:139,1,76.4999976654053,10|2,0:2|0:2,0:0:0:0:
46,299,45529,6,0,L|133:311,1,76.4999976654053,2|0,3:2|0:0,0:0:0:0:
151,282,45810,2,0,L|238:270,1,76.4999976654053,8|0,0:2|0:0,0:0:0:0:
255,296,46091,2,0,L|421:316,1,152.999995330811,2|2,3:2|3:2,0:0:0:0:
512,221,46654,1,8,0:2:0:0:
410,83,46841,6,0,B|367:123|367:123|400:225,1,152.999995330811,6|0,3:2|3:0,0:0:0:0:
495,114,47404,2,0,L|486:31,1,76.4999976654053,8|2,0:2|3:2,0:0:0:0:
449,3,47685,1,0,3:0:0:0:
449,3,47779,2,0,P|405:-6|358:15,1,76.4999976654053,10|2,0:2|3:2,0:0:0:0:
248,105,48154,1,10,0:2:0:0:
233,92,48247,1,8,0:2:0:0:
224,76,48341,1,2,3:2:0:0:
221,57,48435,1,0,3:0:0:0:
223,38,48529,6,0,L|142:54,1,63.7500024318696,4|0,3:0|0:0,0:0:0:0:
48,132,48904,2,0,L|129:148,1,63.7500024318696,0|2,3:0|0:2,0:0:0:0:
230,214,49279,2,0,L|149:230,1,63.7500024318696,2|2,3:2|0:2,0:0:0:0:
70,312,49654,2,0,L|151:328,1,63.7500024318696,2|2,3:2|0:2,0:0:0:0:
271,297,50029,6,0,L|258:379,1,76.4999976654053,0|2,3:0|0:2,0:0:0:0:
167,226,50404,2,0,L|154:144,1,76.4999976654053,0|2,3:0|0:2,0:0:0:0:
303,100,50779,2,0,L|291:175,1,76.4999976654053,2|2,3:2|0:2,0:0:0:0:
200,52,51154,1,2,3:2:0:0:
317,3,51341,1,10,0:2:0:0:
317,3,51435,1,8,0:2:0:0:
317,3,51529,6,0,L|410:15,1,85,0|0,3:0|0:0,0:0:0:0:
480,83,51904,2,0,L|467:143,3,42.5,8|8|8|8,0:2|0:2|0:2|0:2,0:0:0:0:
401,196,52279,1,8,0:2:0:0:
405,216,52372,1,8,0:2:0:0:
410,237,52466,1,8,0:2:0:0:
415,258,52560,1,8,0:2:0:0:
421,278,52654,2,0,L|414:326,3,42.5,10|2|2|2,0:2|0:2|0:2|0:2,0:0:0:0:
349,373,53029,5,14,0:2:0:0:
284,235,53310,5,10,0:2:0:0:
174,347,53591,6,0,B|122:374|60:331|60:331|112:307,1,170,14|2,0:2|0:2,0:0:0:0:
175,236,54154,2,0,L|158:134,1,85,2|2,3:2|0:2,0:0:0:0:
125,26,54529,6,0,P|165:66|246:50,1,140.25000428009,6|0,3:2|3:0,0:0:0:0:
264,18,54904,1,10,0:2:0:0:
418,128,55091,1,2,3:2:0:0:
418,128,55185,2,0,P|367:125|312:159,1,93.5000028533936,8|0,0:2|0:0,0:0:0:0:
309,177,55466,1,2,3:2:0:0:
476,266,55654,1,8,0:2:0:0:
351,384,55841,1,2,0:2:0:0:
351,384,55935,1,2,0:2:0:0:
351,384,56029,6,0,L|379:230,1,140.25000428009,0|0,3:0|3:0,0:0:0:0:
385,211,56404,1,8,0:2:0:0:
233,319,56591,1,2,3:2:0:0:
233,319,56685,2,0,L|139:304,1,93.5000028533936,8|0,0:2|0:0,0:0:0:0:
104,286,56966,1,2,3:2:0:0:
258,154,57154,1,10,0:2:0:0:
111,29,57341,1,2,0:2:0:0:
111,29,57435,1,2,0:2:0:0:
111,29,57529,6,0,L|156:174,1,140.25000428009,2|0,3:2|3:0,0:0:0:0:
168,199,57904,1,10,0:2:0:0:
308,76,58091,1,2,3:2:0:0:
308,76,58185,2,0,P|256:55|193:77,1,93.5000028533936,8|0,0:2|0:0,0:0:0:0:
180,84,58466,1,2,3:2:0:0:
333,210,58654,1,8,0:2:0:0:
443,49,58841,1,2,0:2:0:0:
443,49,58935,1,2,0:2:0:0:
443,49,59029,6,0,B|405:88|405:88|422:181,1,140.25000428009,0|0,3:0|3:0,0:0:0:0:
437,206,59404,1,8,0:2:0:0:
304,360,59591,1,8,0:2:0:0:
304,360,59685,2,0,L|315:298,1,46.7500014266968,0|0,3:0|0:0,0:0:0:0:
333,210,59872,1,8,0:2:0:0:
333,210,59966,1,0,3:0:0:0:
411,384,60154,1,10,0:2:0:0:
220,275,60341,1,8,0:2:0:0:
220,275,60435,1,8,0:2:0:0:
220,275,60529,6,0,P|170:263|101:335,1,140.25000428009,6|0,3:2|3:0,0:0:0:0:
100,347,60904,1,10,0:2:0:0:
8,172,61091,1,2,3:2:0:0:
8,172,61185,2,0,L|118:154,1,93.5000028533936,8|0,0:2|0:0,0:0:0:0:
133,149,61466,1,0,3:0:0:0:
59,0,61654,2,0,B|29:40|29:40|40:111,1,93.5000028533936,8|2,0:2|0:2,0:0:0:0:
141,245,62029,6,0,L|279:222,1,140.25000428009,2|0,3:2|3:0,0:0:0:0:
315,217,62404,1,8,0:2:0:0:
311,31,62591,1,2,3:2:0:0:
311,31,62685,2,0,B|268:24|268:24|228:54,1,93.5000028533936,8|0,0:2|0:0,0:0:0:0:
215,88,62966,1,2,3:2:0:0:
394,145,63154,1,8,0:2:0:0:
405,0,63342,1,2,0:2:0:0:
299,120,63529,6,0,L|318:260,1,140.25000428009,2|0,3:2|3:0,0:0:0:0:
327,294,63904,1,10,0:2:0:0:
160,360,64091,1,2,3:2:0:0:
160,360,64185,2,0,L|180:258,1,93.5000028533936,8|0,0:2|0:0,0:0:0:0:
189,221,64466,1,2,3:2:0:0:
62,325,64654,1,8,0:2:0:0:
257,384,64841,6,0,L|442:363,1,187.000005706787,6|0,3:2|3:0,0:0:0:0:
481,167,65404,1,8,0:2:0:0:
351,255,65591,1,2,3:2:0:0:
512,284,65779,1,8,0:2:0:0:
512,284,65872,1,8,0:2:0:0:
512,284,65966,1,2,3:2:0:0:
388,159,66154,1,10,0:2:0:0:
355,145,66247,1,8,0:2:0:0:
321,146,66341,1,10,0:2:0:0:
289,161,66435,1,8,0:2:0:0:
267,187,66529,6,0,P|212:228|146:215,1,140.25000428009,6|0,3:2|3:0,0:0:0:0:
117,188,66904,1,10,0:2:0:0:
211,12,67091,1,2,3:2:0:0:
211,12,67185,2,0,L|195:122,1,93.5000028533936,8|0,0:2|0:0,0:0:0:0:
194,141,67466,1,2,3:2:0:0:
121,0,67654,1,8,0:2:0:0:
305,64,67841,1,2,0:2:0:0:
305,64,67935,1,2,0:2:0:0:
305,64,68029,6,0,L|455:51,1,140.25000428009,0|0,3:0|3:0,0:0:0:0:
480,47,68404,1,8,0:2:0:0:
509,194,68591,1,2,3:2:0:0:
509,194,68685,2,0,B|469:169|469:169|403:178,1,93.5000028533936,0|8,3:0|0:2,0:0:0:0:
396,189,68966,1,2,3:2:0:0:
438,358,69154,2,0,L|454:259,1,93.5000028533936,10|2,0:2|0:2,0:0:0:0:
276,143,69529,6,0,L|299:288,1,140.25000428009,14|0,0:2|3:0,0:0:0:0:
308,312,69904,1,2,3:2:0:0:
124,384,70091,2,0,B|99:344|99:344|108:278,1,93.5000028533936,10|0,0:2|3:0,0:0:0:0:
179,134,70466,1,10,0:2:0:0:
196,317,70654,1,0,3:0:0:0:
47,218,70841,6,0,B|115:204|115:204|156:227|156:227|239:211,1,187.000005706787,14|0,0:2|3:0,0:0:0:0:
243,42,71404,2,0,L|145:28,1,93.5000028533936,8|2,0:2|3:2,0:0:0:0:
15,17,71779,1,8,0:2:0:0:
15,17,71872,1,8,0:2:0:0:
15,17,71966,2,0,L|35:84,1,46.7500014266968,2|0,3:2|0:0,0:0:0:0:
92,141,72154,1,10,0:2:0:0:
92,141,72247,1,8,0:2:0:0:
92,141,72341,2,0,L|72:208,1,46.7500014266968,2|0,3:2|0:0,0:0:0:0:
2,281,72529,5,14,0:2:0:0:
33,267,72622,1,2,0:2:0:0:
68,267,72716,1,2,0:2:0:0:
100,281,72810,1,2,0:2:0:0:
124,308,72904,2,0,L|135:376,3,46.7500014266968,10|2|2|2,0:2|0:2|3:2|0:2,0:0:0:0:
235,363,73279,1,10,0:2:0:0:
221,331,73372,1,2,0:2:0:0:
221,296,73466,1,2,3:2:0:0:
235,264,73560,1,2,0:2:0:0:
262,241,73654,2,0,L|330:230,3,46.7500014266968,10|2|2|2,0:2|0:2|3:2|0:2,0:0:0:0:
384,289,74029,5,10,0:2:0:0:
402,259,74122,1,2,0:2:0:0:
407,225,74216,1,2,0:2:0:0:
397,192,74310,1,2,0:2:0:0:
373,166,74404,2,0,L|360:104,3,46.7500014266968,10|2|2|2,0:2|0:2|3:2|0:2,0:0:0:0:
305,50,74779,1,10,0:2:0:0:
284,78,74872,1,2,0:2:0:0:
253,94,74966,1,2,3:2:0:0:
219,94,75060,1,2,0:2:0:0:
187,79,75154,2,0,L|174:21,3,46.7500014266968,10|2|2|2,0:2|0:2|3:2|0:2,0:0:0:0:
63,9,75529,5,10,0:2:0:0:
84,36,75622,1,2,0:2:0:0:
92,70,75716,1,2,0:2:0:0:
84,104,75810,1,2,0:2:0:0:
63,131,75903,1,2,3:2:0:0:
42,158,75997,1,2,0:2:0:0:
34,192,76091,1,2,3:2:0:0:
42,226,76185,1,2,0:2:0:0:
63,253,76279,6,0,L|120:242,1,46.7500014266968,10|0,0:2|0:0,0:0:0:0:
209,174,76466,2,0,L|163:165,1,46.7500014266968,10|0,0:2|0:0,0:0:0:0:
61,261,76654,2,0,L|118:250,1,46.7500014266968,10|0,0:2|0:0,0:0:0:0:
275,284,76841,6,0,B|233:264|194:270|194:270|188:296|163:316,1,140.25000428009,14|0,0:2|0:0,0:0:0:0:
138,346,77216,1,10,0:2:0:0:
306,191,77404,1,14,0:2:0:0:
306,191,77591,6,0,L|312:144,2,31.8750012159348,10|8|10,0:2|0:2|0:2,0:0:0:0:
358,272,77966,1,2,3:2:0:0:
402,188,78154,1,10,0:2:0:0:
432,180,78247,1,10,0:2:0:0:
463,184,78341,1,2,3:2:0:0:
491,199,78435,1,2,3:2:0:0:
510,225,78529,6,0,L|497:325,1,85,14|0,0:2|0:0,0:0:0:0:
480,335,78810,2,0,P|431:364|386:351,1,85,2|0,3:2|0:0,0:0:0:0:
369,350,79091,1,2,3:2:0:0:
248,251,79279,2,0,L|261:351,1,85,14|0,0:2|0:0,0:0:0:0:
234,372,79560,2,0,P|192:371|159:345,1,85,2|0,3:2|0:0,0:0:0:0:
144,309,79841,1,2,3:2:0:0:
221,156,80029,6,0,B|264:150|264:150|304:172,1,85,14|0,0:2|0:0,0:0:0:0:
333,188,80310,2,0,L|347:91,1,85,2|0,3:2|0:0,0:0:0:0:
349,68,80591,1,2,3:2:0:0:
209,5,80779,2,0,L|124:17,1,85,14|0,0:2|0:0,0:0:0:0:
87,28,81060,2,0,B|107:64|107:64|101:107,1,85,2|0,3:2|0:3,0:3:0:0:
90,146,81341,1,2,3:2:0:0:
117,278,81529,6,0,P|86:242|4:246,3,127.500004863739,6|0|0|2,3:2|3:0|3:0|3:2,0:0:0:0:
98,381,82841,6,0,L|201:361,1,85,14|0,0:2|0:0,0:0:0:0:
245,238,83216,1,8,0:2:0:0:
339,334,83404,1,2,3:2:0:0:
369,343,83497,1,2,0:2:0:0:
400,339,83591,1,2,3:2:0:0:
427,323,83685,1,2,3:2:0:0:
447,298,83779,2,0,L|439:235,3,42.5,10|2|2|2,0:2|0:2|3:2|0:2,0:0:0:0:
381,200,84154,2,0,L|389:137,3,42.5,10|10|2|2,0:2|0:2|3:2|3:2,0:0:0:0:
437,93,84529,6,0,B|409:75|382:65|382:65|358:83|334:86,1,114.749996498108,6|0,3:2|3:0,0:0:0:0:
301,79,84904,1,10,0:2:0:0:
209,174,85091,1,2,3:2:0:0:
209,174,85185,2,0,P|248:169|289:190,1,76.4999976654053,8|0,0:2|0:0,0:0:0:0:
298,214,85466,1,2,3:2:0:0:
237,336,85654,2,0,L|219:244,1,76.4999976654053,10|2,0:2|0:2,0:0:0:0:
349,313,86029,6,0,L|480:292,1,114.749996498108,2|2,3:2|3:2,0:0:0:0:
494,291,86404,1,8,0:2:0:0:
512,167,86591,1,2,3:2:0:0:
512,167,86685,2,0,B|477:181|477:181|426:167,1,76.4999976654053,8|0,0:2|0:0,0:0:0:0:
404,151,86966,1,2,3:2:0:0:
461,11,87154,2,0,L|470:88,1,76.4999976654053,10|2,0:2|0:2,0:0:0:0:
319,200,87529,6,0,B|304:147|304:147|332:86,1,114.749996498108,2|2,3:2|3:2,0:0:0:0:
347,73,87904,1,8,0:2:0:0:
247,1,88091,1,2,3:2:0:0:
247,1,88185,2,0,B|253:38|253:38|229:85,1,76.4999976654053,8|0,0:2|0:0,0:0:0:0:
218,101,88466,1,2,3:2:0:0:
148,29,88654,1,8,0:2:0:0:
89,137,88841,1,2,3:2:0:0:
89,137,88935,1,0,3:0:0:0:
89,137,89029,6,0,L|106:230,1,76.4999976654053,8|0,0:2|0:0,0:0:0:0:
123,240,89310,2,0,L|116:282,1,38.2499988327027,0|0,3:0|0:0,0:0:0:0:
0,351,89591,2,0,B|82:330|63:391|162:357,1,152.999995330811,0|0,3:0|3:0,0:0:0:0:
218,260,90154,1,8,0:2:0:0:
295,357,90341,1,8,0:2:0:0:
295,357,90435,1,8,0:2:0:0:
295,357,90529,6,0,P|337:369|401:306,1,114.749996498108,4|0,3:2|3:0,0:0:0:0:
409,305,90904,1,10,0:2:0:0:
344,172,91091,1,0,3:0:0:0:
344,172,91185,2,0,L|331:262,1,76.4999976654053,8|0,0:2|0:0,0:0:0:0:
328,280,91466,1,2,3:2:0:0:
450,205,91654,2,0,L|439:129,1,76.4999976654053,10|2,0:2|0:2,0:0:0:0:
265,0,92029,6,0,P|298:40|278:110,1,114.749996498108,2|2,3:2|3:2,0:0:0:0:
263,123,92404,1,8,0:2:0:0:
161,66,92591,1,2,3:2:0:0:
161,66,92685,2,0,L|148:146,1,76.4999976654053,8|0,0:2|0:0,0:0:0:0:
143,173,92966,1,2,3:2:0:0:
66,76,93154,2,0,L|78:0,1,76.4999976654053,8|2,0:2|0:2,0:0:0:0:
263,123,93529,6,0,L|243:243,1,114.749996498108,0|0,3:0|3:0,0:0:0:0:
239,271,93904,1,8,0:2:0:0:
142,370,94091,1,2,3:2:0:0:
142,370,94185,2,0,B|124:337|124:337|130:287,1,76.4999976654053,8|0,0:2|0:0,0:0:0:0:
148,262,94466,1,2,3:2:0:0:
44,166,94654,2,0,P|86:173|133:136,1,76.4999976654053,10|2,0:2|0:2,0:0:0:0:
237,43,95029,6,0,P|222:77|230:114,1,76.4999976654053,10|0,0:2|0:0,0:0:0:0:
253,141,95310,2,0,L|246:194,1,38.2499988327027,0|0,3:0|0:0,0:0:0:0:
129,298,95591,2,0,L|294:273,1,152.999995330811,2|0,3:2|3:0,0:0:0:0:
352,148,96154,1,8,0:2:0:0:
495,259,96341,1,8,0:2:0:0:
495,259,96435,1,8,0:2:0:0:
495,259,96529,6,0,P|451:252|388:324,1,127.5,4|0,3:0|3:0,0:0:0:0:
389,340,96904,1,10,0:2:0:0:
258,263,97091,1,2,3:2:0:0:
258,263,97185,1,8,0:2:0:0:
258,263,97279,2,0,L|278:368,1,85,2|2,3:2|3:2,0:0:0:0:
150,205,97654,2,0,L|130:310,1,85,10|2,0:2|0:2,0:0:0:0:
216,140,98029,6,0,P|156:158|101:128,1,127.5,2|2,3:2|3:2,0:0:0:0:
83,85,98404,1,8,0:2:0:0:
204,22,98591,1,2,3:2:0:0:
204,22,98685,1,8,0:2:0:0:
204,22,98779,2,0,L|320:40,1,85,0|2,3:0|3:2,0:0:0:0:
419,130,99154,1,10,0:2:0:0:
390,17,99341,1,2,0:2:0:0:
301,134,99529,6,0,L|325:270,1,127.5,2|0,3:2|3:0,0:0:0:0:
337,294,99904,1,8,0:2:0:0:
468,366,100091,1,2,3:2:0:0:
468,366,100185,1,8,0:2:0:0:
468,366,100279,2,0,P|486:309|473:278,1,85,2|2,3:2|3:2,0:0:0:0:
400,171,100654,2,0,P|457:189|488:176,1,85,8|2,0:2|0:2,0:0:0:0:
501,156,100935,1,2,0:2:0:0:
501,156,101029,6,0,L|481:68,1,85,8|0,0:2|0:0,0:0:0:0:
457,41,101310,2,0,L|468:-4,1,42.5,0|0,3:0|0:0,0:0:0:0:
358,67,101591,2,0,B|297:59|297:59|261:81|261:81|183:71,1,170,0|0,3:0|3:0,0:0:0:0:
30,125,102154,1,8,0:2:0:0:
94,4,102341,1,8,0:2:0:0:
94,4,102435,1,8,0:2:0:0:
94,4,102529,6,0,L|119:148,1,127.5,4|0,3:2|3:0,0:0:0:0:
121,166,102904,1,10,0:2:0:0:
21,284,103091,1,2,3:2:0:0:
21,284,103185,1,8,0:2:0:0:
21,284,103279,2,0,P|62:276|108:300,1,85,2|2,3:2|3:2,0:0:0:0:
215,384,103654,2,0,L|202:287,1,85,10|2,0:2|0:2,0:0:0:0:
339,165,104029,6,0,L|321:298,1,127.5,2|2,3:2|3:2,0:0:0:0:
313,325,104404,1,8,0:2:0:0:
161,220,104591,1,2,3:2:0:0:
161,220,104685,1,8,0:2:0:0:
161,220,104779,2,0,P|201:208|242:219,1,85,0|2,3:0|3:2,0:0:0:0:
317,65,105154,1,10,0:2:0:0:
209,114,105341,1,2,0:2:0:0:
313,325,105529,6,0,L|330:198,1,127.5,0|0,3:0|3:0,0:0:0:0:
339,165,105904,1,8,0:2:0:0:
477,242,106091,1,2,3:2:0:0:
477,242,106185,1,8,0:2:0:0:
477,242,106279,2,0,P|438:264|384:257,1,85,0|2,3:0|3:2,0:0:0:0:
512,159,106654,1,8,0:2:0:0:
464,355,106841,6,0,B|414:351|380:370|380:370|356:330|313:324,1,170,6|0,3:2|3:0,0:0:0:0:
153,230,107404,1,8,0:2:0:0:
211,378,107591,2,0,L|226:280,1,85,2|10,3:2|0:2,0:0:0:0:
243,257,107872,1,8,0:2:0:0:
243,257,107966,1,2,3:2:0:0:
120,338,108154,1,10,0:2:0:0:
89,346,108247,1,0,3:0:0:0:
58,341,108341,1,2,3:2:0:0:
32,323,108435,1,0,3:0:0:0:
17,296,108529,6,0,L|33:198,1,76.4999976654053,4|0,3:0|0:0,0:0:0:0:
31,182,108810,2,0,P|73:168|114:180,1,76.4999976654053,8|0,0:2|0:0,0:0:0:0:
132,150,109091,2,0,B|195:143|195:143|223:159|223:159|295:149,1,152.999995330811,0|2,3:0|3:2,0:0:0:0:
320,40,109654,2,0,L|230:53,1,76.4999976654053,10|2,0:2|0:2,0:0:0:0:
83,0,110029,6,0,L|70:90,1,76.4999976654053,0|0,3:0|0:0,0:0:0:0:
46,108,110310,2,0,L|59:198,1,76.4999976654053,8|0,0:2|0:0,0:0:0:0:
91,206,110591,2,0,P|47:206|53:302,1,152.999995330811,2|2,3:2|3:2,0:0:0:0:
145,367,111154,2,0,L|134:291,1,76.4999976654053,10|2,0:2|0:2,0:0:0:0:
236,167,111529,6,0,L|225:242,1,76.4999976654053,2|0,3:2|0:0,0:0:0:0:
236,282,111810,2,0,P|275:293|316:274,1,76.4999976654053,8|0,0:2|0:0,0:0:0:0:
328,260,112091,2,0,B|430:276|430:276|411:261|401:235,1,152.999995330811,2|2,3:2|3:2,0:0:0:0:
364,368,112654,1,8,0:2:0:0:
491,351,112841,6,0,B|531:310|531:310|508:195,1,152.999995330811,6|0,3:2|3:0,0:0:0:0:
400,101,113404,1,8,0:2:0:0:
420,267,113591,1,2,3:2:0:0:
497,121,113779,1,10,0:2:0:0:
342,187,113966,1,2,3:2:0:0:
341,22,114154,1,10,0:2:0:0:
366,8,114247,1,8,0:2:0:0:
394,2,114341,1,10,0:2:0:0:
422,5,114435,1,8,0:2:0:0:
449,16,114529,6,0,L|527:7,1,63.7500024318696,4|0,3:0|0:0,0:0:0:0:
434,128,114904,2,0,L|512:119,1,63.7500024318696,0|2,3:0|0:2,0:0:0:0:
419,240,115279,2,0,L|497:231,1,63.7500024318696,2|0,3:2|0:0,0:0:0:0:
404,352,115654,2,0,L|482:343,1,63.7500024318696,2|2,3:2|0:2,0:0:0:0:
315,292,116029,6,0,L|300:377,1,76.4999976654053,0|2,3:0|0:2,0:0:0:0:
197,234,116404,2,0,L|212:319,1,76.4999976654053,0|2,3:0|0:2,0:0:0:0:
237,149,116779,2,0,P|201:136|163:144,1,76.4999976654053,2|2,3:2|0:2,0:0:0:0:
55,226,117154,1,2,3:2:0:0:
30,95,117341,1,10,0:2:0:0:
30,95,117435,1,8,0:2:0:0:
30,95,117529,6,0,L|41:8,1,85,0|0,3:0|0:0,0:0:0:0:
199,27,117904,2,0,L|207:96,3,42.5,8|8|8|8,0:2|0:2|0:2|0:2,0:0:0:0:
163,144,118279,1,8,0:2:0:0:
182,153,118372,1,8,0:2:0:0:
202,157,118466,1,8,0:2:0:0:
223,156,118560,1,8,0:2:0:0:
244,150,118654,2,0,L|313:158,3,42.5,10|2|2|2,0:2|0:2|0:2|0:2,0:0:0:0:
354,216,119029,5,14,0:2:0:0:
286,63,119310,5,10,0:2:0:0:
254,251,119591,6,0,L|276:364,1,85,14|0,0:2|0:0,0:0:0:0:
425,291,119966,1,10,0:2:0:0:
442,269,120059,1,8,0:2:0:0:
453,243,120153,1,10,0:2:0:0:
457,215,120247,1,8,0:2:0:0:
452,187,120341,1,10,0:2:0:0:
440,161,120434,1,8,0:2:0:0:
421,141,120529,6,0,P|361:118|284:155,1,140.25000428009,6|0,3:2|3:0,0:0:0:0:
270,174,120904,1,10,0:2:0:0:
148,27,121091,1,2,3:2:0:0:
148,27,121185,2,0,B|180:63|180:63|171:117,1,93.5000028533936,8|0,0:2|0:0,0:0:0:0:
164,141,121466,1,2,3:2:0:0:
2,234,121654,1,8,0:2:0:0:
69,95,121841,1,2,0:2:0:0:
69,95,121935,1,2,0:2:0:0:
69,95,122029,6,0,L|92:250,1,140.25000428009,0|0,3:0|3:0,0:0:0:0:
98,269,122404,1,8,0:2:0:0:
273,328,122591,1,2,3:2:0:0:
273,328,122685,2,0,B|224:323|224:323|187:349,1,93.5000028533936,8|0,0:2|0:3,0:3:0:0:
166,376,122966,1,2,3:2:0:0:
225,205,123154,1,10,0:2:0:0:
369,362,123341,1,2,0:2:0:0:
369,362,123435,1,2,0:2:0:0:
369,362,123529,6,0,B|392:286|392:286|383:255|353:242,1,140.25000428009,2|0,3:2|3:0,0:0:0:0:
317,238,123904,1,10,0:2:0:0:
148,295,124091,1,2,3:2:0:0:
148,295,124185,2,0,L|247:311,1,93.5000028533936,8|0,0:2|0:0,0:0:0:0:
273,328,124466,1,2,3:2:0:0:
124,190,124654,1,8,0:2:0:0:
265,32,124841,1,2,0:2:0:0:
265,32,124935,1,2,0:2:0:0:
265,32,125029,6,0,L|235:169,1,140.25000428009,0|0,3:0|3:0,0:0:0:0:
225,205,125404,1,8,0:2:0:0:
44,108,125591,1,8,0:2:0:0:
44,108,125685,2,0,L|109:93,1,46.7500014266968,0|0,3:0|0:0,0:0:0:0:
177,75,125872,1,8,0:2:0:0:
177,75,125966,1,0,3:0:0:0:
8,212,126154,1,10,0:2:0:0:
160,365,126341,1,8,0:2:0:0:
160,365,126435,1,8,0:2:0:0:
160,365,126529,6,0,L|133:225,1,140.25000428009,6|0,3:2|3:0,0:0:0:0:
124,190,126904,1,10,0:2:0:0:
293,285,127091,1,2,3:2:0:0:
293,285,127185,2,0,L|385:270,1,93.5000028533936,8|0,0:2|0:0,0:0:0:0:
421,265,127466,1,0,3:0:0:0:
512,139,127654,2,0,B|463:144|463:144|426:118,1,93.5000028533936,8|2,0:2|0:2,0:3:0:0:
234,35,128029,6,0,B|278:18|278:18|262:124,1,140.25000428009,2|0,3:2|3:0,0:0:0:0:
260,145,128404,1,8,0:2:0:0:
122,22,128591,1,2,3:2:0:0:
122,22,128685,2,0,L|146:125,1,93.5000028533936,8|0,0:2|0:0,0:0:0:0:
155,145,128966,1,2,3:2:0:0:
26,40,129154,1,8,0:2:0:0:
218,45,129341,1,2,0:2:0:0:
50,181,129529,6,0,L|85:336,1,140.25000428009,2|0,3:2|3:0,0:0:0:0:
95,352,129904,1,10,0:2:0:0:
265,244,130091,1,2,3:2:0:0:
265,244,130185,2,0,B|223:221|223:221|161:229,1,93.5000028533936,8|0,0:2|0:0,0:0:0:0:
145,240,130466,1,2,3:2:0:0:
291,365,130654,1,8,0:2:0:0:
370,177,130841,6,0,B|347:61|347:61|318:42|281:63,1,187.000005706787,6|0,3:2|3:0,0:0:0:0:
117,158,131404,1,8,0:2:0:0:
265,244,131591,1,2,3:2:0:0:
186,73,131779,1,8,0:2:0:0:
186,73,131872,1,8,0:2:0:0:
186,73,131966,1,2,3:2:0:0:
43,234,132154,1,10,0:2:0:0:
71,254,132247,1,8,0:2:0:0:
104,263,132341,1,10,0:2:0:0:
139,258,132435,1,8,0:2:0:0:
169,240,132529,6,0,P|202:178|280:155,1,140.25000428009,6|0,3:2|3:0,0:0:0:0:
304,167,132904,1,10,0:2:0:0:
435,31,133091,1,2,3:2:0:0:
435,31,133185,2,0,L|423:140,1,93.5000028533936,8|0,0:2|0:0,0:0:0:0:
425,163,133466,1,2,3:2:0:0:
283,47,133654,1,8,0:2:0:0:
259,252,133841,1,2,0:2:0:0:
259,252,133935,1,2,0:2:0:0:
259,252,134029,6,0,B|345:220|345:220|356:241|380:252,1,140.25000428009,0|0,3:0|3:0,0:0:0:0:
416,258,134404,1,8,0:2:0:0:
265,154,134591,1,2,3:2:0:0:
265,154,134685,2,0,L|150:144,1,93.5000028533936,8|0,0:2|0:0,0:0:0:0:
130,145,134966,1,2,3:2:0:0:
30,300,135154,2,0,B|58:258|58:258|42:211,1,93.5000028533936,10|2,0:2|0:2,0:0:0:0:
0,35,135529,6,0,L|145:51,1,140.25000428009,14|0,0:2|3:0,0:0:0:0:
177,59,135904,1,2,3:2:0:0:
361,22,136091,2,0,B|312:15|312:15|274:46,1,93.5000028533936,10|0,0:2|3:0,0:0:0:0:
214,223,136466,1,10,0:2:0:0:
340,111,136654,1,0,3:0:0:0:
140,50,136841,6,0,B|108:56|89:94|89:94|120:210,1,187.000005706787,14|0,0:2|3:0,0:0:0:0:
305,285,137404,1,8,0:2:0:0:
166,334,137591,1,2,3:2:0:0:
291,197,137779,1,8,0:2:0:0:
324,194,137872,1,8,0:2:0:0:
358,207,137966,1,2,3:2:0:0:
383,231,138060,1,0,0:0:0:0:
398,262,138154,2,0,L|380:334,3,46.7500014266968,10|8|2|0,0:2|0:2|3:2|0:0,0:0:0:0:
286,369,138529,5,14,0:2:0:0:
252,380,138622,1,2,0:2:0:0:
218,377,138716,1,2,0:2:0:0:
186,361,138810,1,2,0:2:0:0:
166,334,138904,2,0,L|157:272,3,46.7500014266968,10|2|2|2,0:2|0:2|3:2|0:2,0:0:0:0:
89,227,139279,1,10,0:2:0:0:
114,202,139372,1,2,0:2:0:0:
146,190,139466,1,2,3:2:0:0:
181,191,139560,1,2,0:2:0:0:
212,206,139654,2,0,L|269:197,3,46.7500014266968,10|2|2|2,0:2|0:2|3:2|0:2,0:0:0:0:
350,108,140029,5,10,0:2:0:0:
316,117,140122,1,2,0:2:0:0:
281,114,140216,1,2,0:2:0:0:
250,98,140310,1,2,0:2:0:0:
227,73,140404,2,0,L|220:19,3,46.7500014266968,10|2|2|2,0:2|0:2|3:2|0:2,0:0:0:0:
125,0,140779,1,10,0:2:0:0:
129,34,140872,1,2,0:2:0:0:
134,69,140966,1,2,3:2:0:0:
138,104,141060,1,2,0:2:0:0:
143,139,141154,2,0,L|149:185,3,46.7500014266968,10|2|2|2,0:2|0:2|3:2|0:2,0:0:0:0:
87,253,141529,5,10,0:2:0:0:
116,271,141622,1,2,0:2:0:0:
150,278,141716,1,2,0:2:0:0:
184,271,141810,1,2,0:2:0:0:
214,253,141904,1,2,3:2:0:0:
244,235,141998,1,2,0:2:0:0:
278,228,142092,1,2,3:2:0:0:
312,235,142186,1,2,0:2:0:0:
341,253,142279,6,0,L|348:319,1,46.7500014266968,10|0,0:2|0:0,0:0:0:0:
268,384,142466,2,0,L|272:337,1,46.7500014266968,10|0,0:2|0:0,0:0:0:0:
184,271,142654,2,0,L|191:337,1,46.7500014266968,10|0,0:2|0:0,0:0:0:0:
85,354,142841,6,0,B|29:379|29:379|-1:308|47:258,1,191.250007295609,14|2,0:2|0:2,0:0:0:0:
184,136,143779,2,0,P|141:180|80:174,1,127.500004863739,2|2,0:2|0:2,0:0:0:0:
0,37,144529,5,12,0:3:0:0:
80,82,144716,1,8,0:3:0:0:
153,19,144904,2,0,P|194:5|272:47,2,127.500004863739,8|8|8,0:3|0:3|0:3,0:0:0:0:
121,208,146029,5,8,0:3:0:0:
195,152,146216,1,8,0:3:0:0:
276,210,146404,2,0,P|323:238|388:207,2,127.500004863739,8|8|8,0:3|0:3|0:3,0:0:0:0:
418,70,147529,5,12,0:3:0:0:
501,109,147716,1,8,0:3:0:0:
467,187,147904,2,0,L|489:330,1,127.500004863739,8|8,0:3|0:3,0:0:0:0:
410,384,148654,1,8,0:3:0:0:
356,314,148841,1,8,0:3:0:0:
356,314,148935,1,8,0:3:0:0:
356,314,149029,5,8,0:3:0:0:
304,236,149216,1,8,0:3:0:0:
242,300,149404,2,0,P|205:313|156:298,1,63.7500024318696,8|0,0:3|0:0,0:0:0:0:
112,245,149779,1,8,0:3:0:0:
208,167,149966,1,8,0:3:0:0:
208,167,150060,1,8,0:3:0:0:
208,167,150154,2,0,L|163:152,3,31.8750012159348,8|8|8|8,0:3|0:3|0:3|0:3,0:0:0:0:
103,133,150529,5,8,0:3:0:0:
176,74,150716,1,8,0:3:0:0:
92,33,150904,2,0,B|12:24|12:24|-9:47|-5:86,2,127.500004863739,8|8|8,0:3|0:3|0:3,0:0:0:0:
244,154,152029,5,8,0:3:0:0:
182,227,152216,1,8,0:3:0:0:
182,227,152310,1,8,0:3:0:0:
182,227,152404,2,0,L|192:279,3,31.8750012159348,8|8|8|8,0:3|0:3|0:3|0:3,0:0:0:0:
269,311,152779,2,0,L|275:279,3,31.8750012159348,8|8|8|8,0:3|0:3|0:3|0:3,0:0:0:0:
328,210,153154,1,8,0:2:0:0:
490,319,153529,6,0,P|447:304|376:348,1,114.749996498108,6|0,3:2|3:0,0:0:0:0:
374,370,153904,1,8,0:2:0:0:
452,216,154091,2,0,B|470:162|470:162|427:57,1,152.999995330811,6|0,3:2|3:2,0:0:0:0:
359,246,154654,1,8,0:2:0:0:
219,161,154841,6,0,B|279:150|279:150|310:165|310:165|384:152,1,152.999995330811,6|0,3:2|3:0,0:0:0:0:
235,62,155404,1,8,0:2:0:0:
130,186,155591,1,0,3:0:0:0:
130,186,155685,2,0,L|147:275,1,76.4999976654053,8|0,0:2|0:0,0:0:0:0:
150,295,155966,1,0,3:0:0:0:
219,161,156154,1,8,0:2:0:0:
24,170,156341,6,0,L|54:327,1,152.999995330811,14|0,0:2|0:0,0:0:0:0:
165,370,156904,2,0,L|150:294,1,76.4999976654053,0|0,3:0|3:0,0:0:0:0:
219,161,157279,2,0,L|294:175,1,76.4999976654053,2|0,3:2|3:0,0:3:0:0:
403,256,157654,2,0,L|327:270,1,76.4999976654053,0|0,3:0|3:0,0:3:0:0:
466,167,158029,5,10,0:2:0:0:
466,167,158216,1,8,0:2:0:0:
457,350,158404,1,8,0:2:0:0:
457,350,158591,1,10,0:2:0:0:
375,166,158779,1,8,0:2:0:0:
512,253,158966,1,10,0:2:0:0:
445,74,159154,1,10,0:2:0:0:
403,256,159341,5,10,0:2:0:0:
403,256,160279,6,0,L|299:244,1,76.4999976654053,14|0,0:2|0:0,0:0:0:0:
297,234,160560,2,0,L|193:246,1,76.4999976654053,10|0,0:2|3:0,0:0:0:0:
191,267,160841,2,0,B|151:231|151:231|170:132,1,152.999995330811,14|0,0:2|3:0,0:0:0:0:
234,23,161404,1,8,0:2:0:0:
323,112,161591,1,2,3:2:0:0:
323,112,161685,1,0,3:0:0:0:
323,112,161779,2,0,L|378:101,3,38.2499988327027,10|8|2|0,0:2|0:2|3:2|3:0,0:0:0:0:
421,45,162154,2,0,L|476:56,3,38.2499988327027,10|8|2|0,0:2|0:2|3:2|3:0,0:0:0:0:
512,125,162529,6,0,P|476:168|487:222,1,114.749996498108,6|0,3:2|3:0,0:0:0:0:
512,254,162904,1,10,0:2:0:0:
395,334,163091,1,2,3:2:0:0:
395,334,163185,2,0,L|306:322,1,76.4999976654053,8|0,0:2|0:0,0:0:0:0:
282,318,163466,1,2,3:2:0:0:
397,206,163654,1,8,0:2:0:0:
274,76,163841,6,0,L|306:243,1,152.999995330811,6|0,3:2|3:0,0:0:0:0:
360,58,164404,1,8,0:2:0:0:
208,161,164591,1,2,3:2:0:0:
234,0,164779,1,10,0:2:0:0:
324,142,164966,1,2,3:2:0:0:
162,76,165154,1,10,0:2:0:0:
134,70,165247,1,8,0:2:0:0:
105,72,165341,1,10,0:2:0:0:
79,84,165435,1,8,0:2:0:0:
58,103,165529,6,0,L|50:178,1,68,4|0,3:0|0:0,0:0:0:0:
137,287,165904,2,0,L|129:219,1,68,0|2,3:0|0:2,0:0:0:0:
46,98,166279,2,0,L|38:165,1,68,2|2,3:2|0:2,0:0:0:0:
146,293,166654,2,0,L|138:225,1,68,2|2,3:2|0:2,0:0:0:0:
230,133,167029,6,0,L|291:139,3,42.5,8|8|10|8,0:2|0:2|0:2|0:2,0:0:0:0:
334,194,167404,2,0,L|395:188,3,42.5,8|8|10|8,0:2|0:2|0:2|0:2,0:0:0:0:
454,132,167779,1,10,0:2:0:0:
436,143,167872,1,8,0:2:0:0:
421,158,167966,1,10,0:2:0:0:
410,176,168060,1,8,0:2:0:0:
405,197,168154,1,0,3:2:0:0:
404,218,168247,1,2,3:2:0:0:
410,239,168341,1,0,3:0:0:0:
420,257,168435,1,0,3:0:0:0:
434,273,168529,6,0,L|423:369,1,85,10|0,0:2|3:0,0:0:0:0:
313,219,168904,1,0,3:0:0:0:
218,343,169091,2,0,L|314:332,1,85,8|2,0:2|3:2,0:0:0:0:
335,313,169372,1,0,3:0:0:0:
335,313,169466,1,2,3:2:0:0:
207,235,169654,2,0,L|114:245,1,85,10|2,0:2|0:2,0:0:0:0:
0,93,170029,5,14,0:2:0:0:
156,147,170310,5,10,0:2:0:0:
16,281,170591,6,0,L|29:192,1,85,14|0,0:2|0:0,0:0:0:0:
106,53,170966,1,8,0:2:0:0:
131,40,171059,1,8,0:2:0:0:
159,36,171153,1,8,0:2:0:0:
187,41,171247,1,8,0:2:0:0:
212,53,171341,1,8,0:2:0:0:
233,72,171434,1,8,0:2:0:0:
247,96,171529,6,0,L|231:205,1,85,6|8,3:2|0:2,0:0:0:0:
212,213,171810,2,0,L|228:322,1,85,2|8,3:2|0:2,0:0:0:0:
248,326,172091,1,6,3:2:0:0:
344,244,172279,1,8,0:2:0:0:
374,234,172372,1,0,3:0:0:0:
405,237,172466,1,2,3:2:0:0:
434,251,172560,1,0,3:0:0:0:
455,273,172654,2,0,P|427:310|381:317,1,85,10|2,0:2|0:2,0:0:0:0:
296,160,173029,6,0,P|358:131|427:141,1,140.25000428009,6|0,3:2|3:0,0:0:0:0:
458,161,173404,1,10,0:2:0:0:
274,286,173591,1,2,3:2:0:0:
274,286,173685,2,0,L|172:274,1,93.5000028533936,8|0,0:2|0:0,0:0:0:0:
146,270,173966,1,2,3:2:0:0:
0,155,174154,1,8,0:2:0:0:
129,22,174341,1,2,0:2:0:0:
129,22,174435,1,2,0:2:0:0:
129,22,174529,6,0,L|97:175,1,140.25000428009,0|0,3:0|3:0,0:0:0:0:
89,195,174904,1,8,0:2:0:0:
0,352,175091,1,2,3:2:0:0:
0,352,175185,2,0,B|42:331|42:331|93:341,1,93.5000028533936,8|0,0:2|0:0,0:0:0:0:
122,354,175466,1,2,3:2:0:0:
203,184,175654,1,10,0:2:0:0:
335,290,175841,1,2,0:2:0:0:
335,290,175935,1,2,0:2:0:0:
335,290,176029,6,0,P|276:276|219:344,1,140.25000428009,2|0,3:2|3:0,0:0:0:0:
216,367,176404,1,10,0:2:0:0:
415,351,176591,1,2,3:2:0:0:
415,351,176685,2,0,B|439:310|439:310|426:249,1,93.5000028533936,8|0,0:2|0:0,0:0:0:0:
413,233,176966,1,2,3:2:0:0:
253,144,177154,1,8,0:2:0:0:
377,2,177341,1,2,0:2:0:0:
377,2,177435,1,2,0:2:0:0:
377,2,177529,6,0,L|349:156,1,140.25000428009,0|0,3:0|3:0,0:0:0:0:
343,172,177904,1,8,0:2:0:0:
204,290,178091,1,8,0:2:0:0:
204,290,178185,2,0,L|283:302,1,46.7500014266968,0|0,3:0|0:0,0:0:0:0:
334,313,178372,1,8,0:2:0:0:
334,313,178466,1,0,3:0:0:0:
253,144,178654,1,10,0:2:0:0:
91,244,178841,1,8,0:2:0:0:
91,244,178935,1,8,0:2:0:0:
91,244,179029,6,0,B|-5:225|-5:225|15:216|27:198,1,140.25000428009,6|0,3:2|3:0,0:0:0:0:
36,167,179404,1,10,0:2:0:0:
92,356,179591,1,2,3:2:0:0:
92,356,179685,2,0,L|196:338,1,93.5000028533936,8|0,0:2|0:0,0:0:0:0:
221,332,179966,1,0,3:0:0:0:
333,183,180154,2,0,B|289:194|289:194|246:173,1,93.5000028533936,8|2,0:2|0:2,0:0:0:0:
82,54,180529,6,0,L|229:33,1,140.25000428009,2|0,3:2|3:0,0:0:0:0:
254,24,180904,1,8,0:2:0:0:
432,71,181091,1,2,3:2:0:0:
432,71,181185,2,0,B|388:60|388:60|345:81,1,93.5000028533936,8|0,0:2|0:0,0:0:0:0:
305,100,181466,1,2,3:2:0:0:
372,283,181654,1,8,0:2:0:0:
409,161,181841,1,2,0:2:0:0:
240,234,182029,6,0,L|90:222,1,140.25000428009,2|0,3:2|3:0,0:0:0:0:
67,218,182404,1,10,0:2:0:0:
159,19,182591,1,2,3:2:0:0:
159,19,182685,2,0,B|186:59|186:59|176:104,1,93.5000028533936,8|0,0:2|0:0,0:0:0:0:
166,140,182966,1,2,3:2:0:0:
73,0,183154,1,8,0:2:0:0:
269,102,183341,6,0,B|336:90|336:90|378:105|378:105|452:91,1,187.000005706787,6|0,3:2|3:0,0:0:0:0:
324,188,183904,1,8,0:2:0:0:
395,10,184091,1,2,3:2:0:0:
441,198,184279,1,8,0:2:0:0:
441,198,184372,1,8,0:2:0:0:
441,198,184466,1,2,3:2:0:0:
269,102,184654,1,10,0:2:0:0:
235,92,184747,1,8,0:2:0:0:
201,99,184841,1,10,0:2:0:0:
174,120,184935,1,8,0:2:0:0:
160,152,185029,6,0,L|182:294,1,140.25000428009,6|0,3:2|3:0,0:0:0:0:
189,321,185404,1,10,0:2:0:0:
349,233,185591,1,2,3:2:0:0:
349,233,185685,2,0,L|336:337,1,93.5000028533936,8|0,0:2|0:0,0:0:0:0:
337,358,185966,1,2,3:2:0:0:
249,189,186154,1,8,0:2:0:0:
442,286,186341,1,2,0:2:0:0:
442,286,186435,1,2,0:2:0:0:
442,286,186529,6,0,P|486:235|470:169,1,140.25000428009,0|0,3:0|3:0,0:0:0:0:
459,136,186904,1,8,0:2:0:0:
283,107,187091,1,2,3:2:0:0:
283,107,187185,2,0,B|329:117|329:117|377:91,1,93.5000028533936,8|0,0:2|0:0,0:0:0:0:
392,69,187466,1,2,3:2:0:0:
247,0,187654,1,10,0:2:0:0:
172,190,187841,1,2,0:2:0:0:
172,190,187935,1,2,0:2:0:0:
172,190,188029,6,0,L|188:333,1,140.25000428009,6|0,3:2|3:0,0:0:0:0:
193,364,188404,1,10,0:2:0:0:
51,247,188591,1,2,3:2:0:0:
51,247,188685,2,0,B|35:202|35:202|58:144,1,93.5000028533936,0|0,3:0|0:0,0:0:0:0:
64,128,188966,1,2,3:2:0:0:
221,258,189154,1,8,0:2:0:0:
287,64,189341,6,0,B|223:21|157:56|157:56|183:61|199:80,1,187.000005706787,6|0,3:2|3:0,0:0:0:0:
324,213,189904,1,8,0:2:0:0:
429,28,190091,2,0,B|401:26|379:4|379:4|399:132,1,187.000005706787,6|2,3:2|3:2,0:0:0:0:
464,343,190654,1,10,0:2:0:0:
496,171,190841,1,2,3:2:0:0:
365,303,191029,5,14,0:2:0:0:
331,312,191122,1,2,0:2:0:0:
296,308,191216,1,2,0:2:0:0:
266,292,191310,1,2,0:2:0:0:
244,265,191404,2,0,P|242:241|246:218,3,46.7500014266968,10|2|2|2,0:2|0:2|3:2|0:2,0:0:0:0:
321,165,191779,1,10,0:2:0:0:
295,141,191872,1,2,0:2:0:0:
263,128,191966,1,2,3:2:0:0:
228,129,192060,1,2,0:2:0:0:
196,142,192154,2,0,P|172:145|149:144,3,46.7500014266968,10|2|2|2,0:2|0:2|3:2|0:2,0:0:0:0:
32,149,192529,5,10,0:2:0:0:
61,169,192622,1,2,0:2:0:0:
80,198,192716,1,2,0:2:0:0:
86,232,192810,1,2,0:2:0:0:
78,266,192904,2,0,L|89:328,3,46.7500014266968,10|2|2|2,0:2|0:2|3:2|0:2,0:0:0:0:
162,370,193279,1,10,0:2:0:0:
181,341,193372,1,2,0:2:0:0:
210,322,193466,1,2,3:2:0:0:
245,319,193560,1,2,0:2:0:0:
278,330,193654,2,0,L|340:319,3,46.7500014266968,10|2|2|2,0:2|0:2|3:2|0:2,0:0:0:0:
406,253,194029,5,10,0:2:0:0:
371,251,194122,1,2,0:2:0:0:
341,234,194216,1,2,0:2:0:0:
322,205,194310,1,2,0:2:0:0:
320,170,194404,1,2,3:2:0:0:
334,138,194497,1,2,0:2:0:0:
361,117,194591,1,2,3:2:0:0:
395,110,194685,1,2,0:2:0:0:
428,121,194779,6,0,L|496:111,1,46.7500014266968,10|0,0:2|0:0,0:0:0:0:
391,25,194966,2,0,L|344:31,1,46.7500014266968,10|0,0:2|0:0,0:0:0:0:
439,127,195154,2,0,L|507:117,1,46.7500014266968,10|0,0:2|0:0,0:0:0:0:
383,12,195341,6,0,L|200:38,1,140.25000428009,14|0,0:2|0:0,0:0:0:0:
205,40,195716,1,10,0:2:0:0:
315,237,195904,1,14,0:2:0:0:
246,164,196279,5,2,0:2:0:0:
170,212,196654,6,0,B|124:281|169:350|169:350|174:319|206:290,1,208.249993644715,2|0,0:2|0:0,0:0:0:0:
262,355,198154,5,8,0:3:0:0:
290,369,198247,1,2,0:2:0:0:
321,370,198341,1,2,0:2:0:0:
351,359,198435,1,2,0:2:0:0:
372,336,198529,6,0,P|387:274|361:216,1,127.5,6|0,3:2|3:0,0:0:0:0:
335,189,198904,1,8,0:2:0:0:
198,298,199091,1,0,3:0:0:0:
198,298,199185,2,0,L|91:284,1,85,8|0,0:2|0:0,0:0:0:0:
72,279,199466,1,0,3:0:0:0:
0,148,199654,2,0,B|40:156|40:156|80:137,1,85,10|0,0:2|0:0,0:0:0:0:
208,0,200029,6,0,P|165:48|175:118,1,127.5,2|0,3:2|3:0,0:0:0:0:
192,135,200404,1,8,0:2:0:0:
357,85,200591,1,0,3:0:0:0:
357,85,200685,2,0,B|323:63|323:63|277:63,1,85,8|0,0:2|0:0,0:0:0:0:
249,77,200966,1,0,3:0:0:0:
281,237,201154,2,0,L|297:142,1,85,8|0,0:2|0:0,0:0:0:0:
423,4,201529,6,0,L|441:130,1,127.5,2|0,3:2|3:0,0:0:0:0:
446,165,201904,1,8,0:2:0:0:
383,278,202091,1,0,3:0:0:0:
383,278,202185,2,0,B|418:254|418:254|463:264,1,85,8|0,0:2|0:0,0:0:0:0:
495,279,202466,1,0,3:0:0:0:
365,372,202654,2,0,L|278:358,1,85,10|0,0:2|0:0,0:0:0:0:
138,286,203029,6,0,L|223:275,1,85,2|0,3:2|0:0,0:0:0:0:
248,261,203310,2,0,L|256:217,1,42.5,2|8,3:2|0:2,0:0:0:0:
160,132,203591,1,2,3:2:0:0:
160,132,203685,2,0,P|205:139|247:106,1,85,8|0,0:2|0:0,0:0:0:0:
254,91,203966,1,0,3:0:0:0:
97,51,204154,5,10,0:2:0:0:
71,69,204247,1,2,0:2:0:0:
54,96,204341,1,2,0:2:0:0:
50,127,204435,1,2,0:2:0:0:
59,157,204529,6,0,L|77:291,1,127.5,6|0,3:2|3:0,0:0:0:0:
90,315,204904,1,8,0:2:0:0:
262,221,205091,1,0,3:0:0:0:
262,221,205185,2,0,B|222:198|222:198|159:204,1,85,8|0,0:2|0:0,0:0:0:0:
150,215,205466,1,0,3:0:0:0:
191,376,205654,2,0,L|203:290,1,85,10|0,0:2|0:0,0:0:0:0:
370,384,206029,6,0,L|349:259,1,127.5,2|0,3:2|3:0,0:0:0:0:
345,228,206404,1,8,0:2:0:0:
457,138,206591,1,0,3:0:0:0:
457,138,206685,2,0,L|441:234,1,85,8|0,0:2|0:0,0:0:0:0:
436,256,206966,1,0,3:0:0:0:
399,58,207154,2,0,P|432:40|481:44,1,85,8|0,0:2|0:0,0:0:0:0:
360,142,207529,6,0,L|214:126,1,127.5,2|0,3:2|3:0,0:0:0:0:
200,125,207904,1,8,0:2:0:0:
75,45,208091,1,0,3:0:0:0:
75,45,208185,2,0,B|104:74|104:74|96:117,1,85,8|0,0:2|0:0,0:0:0:0:
84,147,208466,1,0,3:0:0:0:
184,260,208654,2,0,L|98:275,1,85,8|0,0:2|0:0,0:0:0:0:
269,370,209029,6,0,L|286:279,1,85,2|0,3:2|0:0,0:0:0:0:
300,256,209310,2,0,L|284:211,1,42.5,2|8,3:2|0:2,0:0:0:0:
187,91,209591,1,2,3:2:0:0:
187,91,209685,2,0,L|233:103,1,42.5,0|0,3:0|3:0,0:0:0:0:
307,128,209872,1,8,0:2:0:0:
307,128,209966,1,0,3:0:0:0:
426,8,210154,5,10,0:2:0:0:
401,27,210247,1,10,0:2:0:0:
387,55,210341,1,10,0:2:0:0:
386,87,210435,1,10,0:2:0:0:
400,116,210529,6,0,P|439:164|413:238,1,127.5,6|0,3:2|3:0,0:0:0:0:
398,245,210904,1,8,0:2:0:0:
268,324,211091,1,0,3:0:0:0:
268,324,211185,2,0,B|310:317|310:317|355:338,1,85,8|0,0:2|0:0,0:0:0:0:
370,352,211466,1,0,3:0:0:0:
193,383,211654,2,0,B|165:350|165:350|171:300,1,85,10|0,0:2|0:0,0:0:0:0:
269,180,212029,6,0,L|126:204,1,127.5,2|0,3:2|3:0,0:0:0:0:
108,209,212404,1,8,0:2:0:0:
19,82,212591,1,0,3:0:0:0:
19,82,212685,2,0,B|57:103|57:103|109:93,1,85,8|0,0:2|0:0,0:0:0:0:
127,88,212966,1,0,3:0:0:0:
244,0,213154,2,0,L|228:92,1,85,8|0,0:2|0:0,0:0:0:0:
344,220,213529,6,0,B|347:188|367:164|367:164|339:127|341:104,1,127.5,2|0,3:2|3:0,0:0:0:0:
339,61,213904,1,8,0:2:0:0:
498,150,214091,1,0,3:0:0:0:
498,150,214185,2,0,L|482:239,1,85,8|0,0:2|0:0,0:0:0:0:
474,269,214466,1,0,3:0:0:0:
360,363,214654,2,0,P|373:322|347:274,1,85,10|0,0:2|0:0,0:0:0:0:
216,191,215029,6,0,L|232:278,1,85,2|0,3:2|0:0,0:0:0:0:
252,295,215310,2,0,L|240:346,1,42.5,2|8,3:2|0:2,0:0:0:0:
57,331,215591,1,2,3:2:0:0:
57,331,215685,2,0,P|97:302|145:308,1,85,8|0,0:2|0:0,0:0:0:0:
160,322,215966,1,0,3:0:0:0:
19,237,216154,5,10,0:2:0:0:
2,210,216247,1,2,0:2:0:0:
0,178,216341,1,10,0:2:0:0:
14,150,216435,1,10,0:2:0:0:
39,131,216529,6,0,L|188:145,1,127.5,6|0,3:2|3:0,0:0:0:0:
201,148,216904,1,8,0:2:0:0:
308,261,217091,1,0,3:0:0:0:
308,261,217185,2,0,L|211:275,1,85,8|0,0:2|0:0,0:0:0:0:
192,288,217466,1,0,3:0:0:0:
316,384,217654,2,0,B|351:362|351:362|412:370,1,85,10|0,0:2|0:0,0:0:0:0:
510,233,218029,6,0,P|468:249|397:199,1,127.5,2|0,3:2|3:0,0:0:0:0:
384,173,218404,1,8,0:2:0:0:
448,40,218591,2,0,L|465:144,1,85,0|2,3:0|0:2,0:0:0:0:
470,158,218872,1,8,0:2:0:0:
470,158,218966,1,0,3:0:0:0:
296,232,219154,1,8,0:2:0:0:
335,80,219341,1,0,3:0:0:0:
335,80,219435,1,0,3:0:0:0:
335,80,219529,5,14,0:2:0:0:
396,278,219716,1,10,0:2:0:0:
396,278,220091,5,14,0:2:0:0:
244,161,220279,1,10,0:2:0:0:
244,161,220654,5,14,0:2:0:0:
305,359,220841,1,10,0:2:0:0:
256,192,221029,12,0,230029,0:0:0:0:
