osu file format v14

[General]
AudioFilename: audio.mp3
AudioLeadIn: 0
PreviewTime: 53482
Countdown: 0
SampleSet: Soft
StackLeniency: 0.7
Mode: 0
LetterboxInBreaks: 0
WidescreenStoryboard: 1

[Editor]
Bookmarks: 6514,18514,42514,48514,54514,78514,84534,96514,108514,114514,120514,144514,153514,159326,173014,198514,221034,230034
DistanceSpacing: 1.4
BeatDivisor: 4
GridSize: 32
TimelineZoom: 1

[Metadata]
Title:Azalea
TitleUnicode:アザレア
Artist:nano.RIPE
ArtistUnicode:nano.RIPE
Creator:Shirahane Suou
Version:Hard
Source:citrus
Tags:japanese anime opening op rock jrock 百合 yuri
BeatmapID:2769390
BeatmapSetID:1334552

[Difficulty]
HPDrainRate:4
CircleSize:3.5
OverallDifficulty:6.5
ApproachRate:7.5
SliderMultiplier:1.4
SliderTickRate:1

[Events]
//Background and Video events
0,0,"80696203_p3.jpg",0,0
//Break Periods
2,144729,152704
//Storyboard Layer 0 (Background)
//Storyboard Layer 1 (Fail)
//Storyboard Layer 2 (Pass)
//Storyboard Layer 3 (Foreground)
//Storyboard Layer 4 (Overlay)
//Storyboard Sound Samples

[TimingPoints]
-966,375,4,2,1,40,1,0
159,-111.111111111111,4,2,1,40,0,0
894,375,4,2,1,40,1,0
894,-111.111111111111,4,2,1,40,0,0
2019,375,4,2,1,40,1,0
2019,-111.111111111111,4,2,1,40,0,0
6144,385.852090032154,4,2,1,40,1,0
6144,-111.111111111111,4,2,1,40,0,0
6529,375,4,2,1,60,1,0
6529,-111.111111111111,4,2,1,60,0,0
18529,-111.111111111111,4,2,1,40,0,0
42529,-111.111111111111,4,2,1,50,0,0
48529,-111.111111111111,4,2,1,40,0,0
50029,-111.111111111111,4,2,1,50,0,0
51529,-111.111111111111,4,2,1,60,0,0
54529,-100,4,2,1,70,0,1
77591,-111.111111111111,4,2,1,50,0,0
84529,-111.111111111111,4,2,1,40,0,0
96529,-111.111111111111,4,2,1,60,0,0
108529,-111.111111111111,4,2,1,50,0,0
114529,-111.111111111111,4,2,1,40,0,0
116029,-111.111111111111,4,2,1,50,0,0
117529,-111.111111111111,4,2,1,60,0,0
120529,-100,4,2,1,70,0,1
142841,-133.333333333333,4,2,1,40,0,0
153529,-111.111111111111,4,2,1,50,0,0
158029,-111.111111111111,4,2,1,60,0,0
165529,-111.111111111111,4,2,1,50,0,0
167029,-111.111111111111,4,2,1,60,0,0
173029,-100,4,2,1,70,0,1
195997,-133.333333333333,4,2,1,40,0,0
198154,-111.111111111111,4,2,1,60,0,0
221122,-111.111111111111,4,2,2,5,0,0

[Colours]
Combo1 : 50,172,209
Combo2 : 255,175,88
Combo3 : 114,107,173
Combo4 : 221,148,168

[HitObjects]
149,104,346,5,8,0:3:0:0:
149,104,440,1,8,0:3:0:0:
149,104,534,2,0,L|149:180,1,62.9999980773926,12|8,3:3|0:3,0:0:0:0:
204,236,894,2,0,L|204:275,2,31.4999990386963,8|8|8,3:3|0:3|0:3,0:0:0:0:
260,167,1269,2,0,P|299:152|357:171,1,94.499997116089,8|8,3:3|0:3,0:0:0:0:
444,257,1831,1,8,0:3:0:0:
444,257,1925,1,8,0:3:0:0:
444,257,2019,6,0,L|444:330,1,62.9999980773926,8|8,3:3|0:3,0:0:0:0:
368,353,2394,2,0,L|368:401,2,31.4999990386963,8|8|8,3:3|0:3|0:3,0:0:0:0:
287,331,2769,2,0,L|287:283,3,31.4999990386963,8|8|8|8,3:3|0:3|0:3|0:3,0:0:0:0:
301,261,3144,2,0,L|301:213,3,31.4999990386963,8|8|8|8,3:3|0:3|0:3|0:3,0:0:0:0:
265,209,3519,6,0,B|190:209,1,62.9999980773926,8|8,3:3|0:3,0:0:0:0:
139,270,3894,2,0,L|139:314,2,31.4999990386963,8|8|8,3:3|0:3|0:3,0:0:0:0:
77,206,4269,2,0,L|77:162,2,31.4999990386963,8|8|8,3:3|0:3|0:3,0:0:0:0:
16,270,4644,6,0,L|16:356,1,62.9999980773926,8|0,0:2|0:0,0:0:0:0:
39,370,4925,2,0,L|114:371,1,62.9999980773926,8|8,0:2|0:2,0:0:0:0:
139,347,5206,1,8,0:2:0:0:
219,382,5394,1,8,0:2:0:0:
275,316,5581,1,8,0:2:0:0:
275,316,5675,1,8,0:2:0:0:
275,316,5769,2,0,L|274:268,3,31.4999990386963,8|8|8|8,0:2|0:2|0:2|0:2,0:0:0:0:
250,249,6144,6,0,L|250:200,3,31.4999990386963,2|2|2|2,3:2|0:2|0:2|0:2,0:0:0:0:
278,183,6529,6,0,P|335:160|392:183,1,125.999996154785,6|8,3:2|0:2,0:0:0:0:
468,134,7091,1,0,3:0:0:0:
468,134,7185,2,0,P|483:169|464:239,1,94.499997116089,8|0,0:2|3:0,0:0:0:0:
401,273,7654,2,0,L|326:274,1,62.9999980773926,10|2,0:2|0:2,0:0:0:0:
269,329,8029,6,0,P|292:272|268:216,1,125.999996154785,2|8,3:2|0:2,0:0:0:0:
208,151,8591,2,0,P|264:174|320:150,1,125.999996154785,0|0,3:0|3:0,0:0:0:0:
373,78,9154,1,8,0:2:0:0:
212,5,9529,6,0,L|83:5,1,125.999996154785,2|8,3:2|0:2,0:0:0:0:
26,70,10091,2,0,P|46:94|38:168,1,94.499997116089,0|8,3:0|0:2,0:0:0:0:
25,194,10466,1,0,3:0:0:0:
66,268,10654,2,0,L|149:268,1,62.9999980773926,10|2,0:2|0:2,0:0:0:0:
205,223,11029,6,0,L|306:222,1,94.499997116089,2|2,3:2|3:2,0:0:0:0:
343,224,11404,1,8,0:2:0:0:
410,167,11591,2,0,P|386:223|410:280,1,125.999996154785,2|0,3:2|3:0,0:0:0:0:
423,368,12154,2,0,L|383:368,3,31.4999990386963,10|2|2|2,0:2|0:2|0:2|0:2,0:0:0:0:
352,347,12529,6,0,B|292:369|292:369|212:339,1,125.999996154785,6|8,3:2|0:2,0:0:0:0:
163,304,13091,2,0,L|163:168,1,125.999996154785,0|0,3:0|3:0,0:0:0:0:
222,119,13654,2,0,P|253:109|288:116,1,62.9999980773926,10|2,0:2|0:2,0:0:0:0:
317,194,14029,6,0,P|368:216|440:184,1,125.999996154785,2|8,3:2|0:2,0:0:0:0:
510,155,14591,2,0,L|510:27,1,125.999996154785,0|0,3:0|3:0,0:0:0:0:
425,2,15154,1,8,0:2:0:0:
304,130,15529,5,14,0:2:0:0:
304,130,15716,1,10,0:2:0:0:
157,31,16091,1,14,0:2:0:0:
157,31,16279,1,10,0:2:0:0:
95,196,16654,1,14,0:2:0:0:
95,196,16841,2,0,L|95:328,1,125.999996154785,10|0,0:2|0:0,0:0:0:0:
169,370,17404,2,0,L|203:370,3,31.4999990386963,2|2|2|2,0:2|0:2|0:2|0:2,0:0:0:0:
234,341,17779,2,0,L|268:341,3,31.4999990386963,10|2|2|2,0:2|3:2|3:2|3:2,0:0:0:0:
303,363,18154,2,0,L|337:363,3,31.4999990386963,10|2|2|2,0:2|0:2|0:2|0:2,0:0:0:0:
370,337,18529,6,0,P|390:300|347:206,1,125.999996154785,6|10,3:2|0:2,0:0:0:0:
305,162,19091,1,2,3:2:0:0:
157,256,19466,1,2,3:2:0:0:
157,256,19654,2,0,L|157:181,1,62.9999980773926,10|2,0:2|0:2,0:0:0:0:
98,127,20029,6,0,B|157:151|157:151|229:121,1,125.999996154785,2|8,3:2|0:2,0:0:0:0:
282,71,20591,1,2,3:2:0:0:
426,182,20966,1,2,3:2:0:0:
426,182,21154,2,0,L|354:182,1,62.9999980773926,8|2,0:2|0:2,0:0:0:0:
275,193,21529,6,0,L|275:319,1,125.999996154785,2|10,3:2|0:2,0:0:0:0:
208,376,22091,1,2,3:2:0:0:
76,267,22466,1,2,3:2:0:0:
76,267,22654,2,0,L|76:204,1,62.9999980773926,8|2,0:2|3:2,0:0:0:0:
76,187,22935,1,0,3:0:0:0:
76,170,23029,6,0,B|120:151|120:151|172:173,1,94.499997116089,8|0,0:2|3:0,0:0:0:0:
272,235,23591,2,0,L|272:100,1,125.999996154785,0|0,3:0|3:0,0:0:0:0:
332,44,24154,1,8,0:2:0:0:
405,110,24341,1,8,0:2:0:0:
405,110,24435,1,8,0:2:0:0:
405,110,24529,6,0,L|405:236,1,125.999996154785,4|10,3:2|0:2,0:0:0:0:
405,323,25091,1,2,3:2:0:0:
240,380,25466,1,2,3:2:0:0:
240,380,25654,2,0,P|248:348|234:309,1,62.9999980773926,10|2,0:2|0:2,0:0:0:0:
203,239,26029,6,0,L|71:239,1,125.999996154785,2|8,3:2|0:2,0:0:0:0:
5,188,26591,1,2,3:2:0:0:
139,73,26966,1,2,3:2:0:0:
139,73,27154,2,0,L|139:138,1,62.9999980773926,10|2,0:2|0:2,0:0:0:0:
223,160,27529,6,0,L|223:34,1,125.999996154785,0|8,3:2|0:2,0:0:0:0:
307,8,28091,1,2,3:2:0:0:
430,134,28466,1,0,3:0:0:0:
430,134,28654,2,0,L|357:134,1,62.9999980773926,10|0,0:2|0:0,0:0:0:0:
312,203,29029,6,0,L|332:302,1,94.499997116089,10|0,0:2|3:0,0:0:0:0:
440,368,29591,2,0,B|470:335|470:335|452:244,1,125.999996154785,2|0,3:2|3:0,0:0:0:0:
427,171,30154,1,8,0:2:0:0:
490,110,30341,1,8,0:2:0:0:
490,110,30435,1,8,0:2:0:0:
490,110,30529,6,0,P|455:85|376:100,1,125.999996154785,4|10,3:2|0:2,0:0:0:0:
337,177,31091,1,2,3:2:0:0:
208,66,31466,1,2,3:2:0:0:
208,66,31654,2,0,L|208:133,1,62.9999980773926,10|2,0:2|0:2,0:0:0:0:
162,204,32029,6,0,L|162:335,1,125.999996154785,2|8,3:2|0:2,0:0:0:0:
238,373,32591,1,2,3:2:0:0:
338,227,32966,1,2,3:2:0:0:
338,227,33154,2,0,P|370:221|412:237,1,62.9999980773926,10|2,0:2|0:2,0:0:0:0:
467,284,33529,6,0,P|444:226|467:170,1,125.999996154785,2|8,3:2|0:2,0:3:0:0:
506,90,34091,1,2,3:2:0:0:
346,26,34466,1,2,3:2:0:0:
346,26,34654,2,0,L|346:97,1,62.9999980773926,8|2,0:2|3:2,0:0:0:0:
350,103,34935,1,0,3:0:0:0:
353,116,35029,6,0,B|309:130|309:130|258:112,1,94.499997116089,8|0,0:2|3:0,0:0:0:0:
143,54,35591,2,0,P|165:112|145:170,1,125.999996154785,0|0,3:0|3:0,0:0:0:0:
77,227,36154,1,8,0:2:0:0:
149,294,36341,1,8,0:2:0:0:
149,294,36435,1,8,0:2:0:0:
149,294,36529,6,0,L|281:294,1,125.999996154785,4|10,3:2|0:2,0:0:0:0:
347,243,37091,1,2,3:2:0:0:
225,115,37466,1,2,3:2:0:0:
225,115,37654,2,0,L|224:44,1,62.9999980773926,10|2,0:2|0:2,0:0:0:0:
299,5,38029,6,0,P|341:27|420:-5,1,125.999996154785,2|8,3:2|0:2,2:0:0:0:
492,39,38591,1,2,3:2:0:0:
381,177,38966,1,2,3:2:0:0:
381,177,39154,2,0,L|381:258,1,62.9999980773926,8|2,0:2|0:2,0:0:0:0:
387,254,39435,1,2,0:2:0:0:
392,266,39529,6,0,B|323:259|323:259|284:285|284:285|182:270,1,188.999994232178,14|2,0:2|0:2,0:0:0:0:
131,310,40279,2,0,P|122:271|136:238,1,62.9999980773926,10|0,0:2|0:0,0:0:0:0:
153,213,40560,2,0,L|153:142,1,62.9999980773926,10|0,0:2|3:0,0:0:0:0:
153,105,40841,6,0,P|112:83|26:119,1,125.999996154785,14|0,0:2|3:0,0:0:0:0:
0,182,41404,2,0,L|0:264,1,62.9999980773926,8|2,0:2|3:2,0:0:0:0:
56,308,41779,2,0,L|117:308,3,31.4999990386963,8|8|2|0,0:2|0:2|3:2|0:0,0:0:0:0:
131,310,42154,1,10,0:2:0:0:
277,211,42529,6,0,L|277:307,1,94.499997116089,4|8,3:0|0:2,0:0:0:0:
407,285,43091,2,0,L|407:133,1,125.999996154785,0|2,3:0|3:2,0:0:0:0:
348,92,43654,2,0,P|313:86|280:96,1,62.9999980773926,10|2,0:2|0:2,0:0:0:0:
207,54,44029,6,0,B|193:99|193:99|208:150,1,94.499997116089,0|8,3:0|0:2,0:0:0:0:
174,272,44591,2,0,P|203:288|301:265,1,125.999996154785,2|2,3:2|3:2,0:0:0:0:
354,205,45154,1,10,0:2:0:0:
479,329,45529,6,0,B|433:315|433:315|382:330,1,94.499997116089,2|8,3:2|0:2,0:0:0:0:
262,368,46091,2,0,L|129:368,1,125.999996154785,2|2,3:2|3:2,0:0:0:0:
81,298,46654,1,8,0:2:0:0:
9,348,46841,6,0,P|39:295|16:239,1,125.999996154785,6|0,3:2|3:0,0:0:0:0:
1,144,47404,2,0,P|39:152|78:132,1,62.9999980773926,8|2,0:2|3:2,0:0:0:0:
97,118,47685,1,0,3:0:0:0:
97,118,47779,2,0,L|174:118,1,62.9999980773926,10|2,0:2|3:2,0:0:0:0:
235,163,48154,2,0,L|279:163,3,31.4999990386963,10|8|2|0,0:2|0:2|3:2|3:0,0:0:0:0:
304,140,48529,5,4,3:0:0:0:
471,195,48904,1,0,3:0:0:0:
416,362,49279,1,2,3:2:0:0:
249,307,49654,1,2,3:2:0:0:
304,140,50029,5,0,3:0:0:0:
137,85,50404,1,0,3:0:0:0:
82,252,50779,1,2,3:2:0:0:
249,307,51154,2,0,L|249:236,1,62.9999980773926,2|10,3:2|0:2,0:0:0:0:
267,203,51435,1,8,0:2:0:0:
267,203,51529,6,0,L|399:203,1,125.999996154785,0|8,3:0|0:2,0:0:0:0:
462,149,52091,1,8,0:2:0:0:
462,149,52185,1,8,0:2:0:0:
462,149,52279,2,0,L|462:94,3,31.4999990386963,8|8|8|8,0:2|0:2|0:2|0:2,0:0:0:0:
432,84,52654,2,0,L|377:84,3,31.4999990386963,10|2|2|2,0:2|0:2|0:2|0:2,0:0:0:0:
365,110,53029,5,14,0:2:0:0:
256,33,53310,5,10,0:2:0:0:
196,151,53591,6,0,L|217:294,1,125.999996154785,14|2,0:2|0:2,0:0:0:0:
237,361,54154,1,2,3:2:0:0:
418,344,54529,6,0,B|445:280|445:280|409:200,1,140,6|10,3:2|0:2,0:0:0:0:
372,142,55091,1,2,3:2:0:0:
372,142,55185,2,0,P|330:159|259:123,1,105,8|2,0:2|3:2,0:0:0:0:
211,76,55654,2,0,P|174:68|132:81,1,70,8|2,0:2|0:2,0:0:0:0:
84,145,56029,6,0,B|94:198|94:198|79:227|79:227|93:293,1,140,0|8,3:0|0:2,0:0:0:0:
159,338,56591,1,2,3:2:0:0:
159,338,56685,2,0,B|206:319|206:319|260:338,1,105,8|2,0:2|3:2,0:0:0:0:
338,378,57154,1,10,0:2:0:0:
393,308,57341,1,2,0:2:0:0:
393,308,57435,1,2,0:2:0:0:
393,308,57529,6,0,L|393:162,1,140,2|10,3:2|0:2,0:0:0:0:
347,95,58091,1,2,3:2:0:0:
347,95,58185,2,0,P|376:80|456:109,1,105,8|2,0:2|3:2,0:0:0:0:
497,169,58654,1,8,0:2:0:0:
393,308,59029,6,0,L|265:308,1,105,0|0,3:0|3:0,0:0:0:0:
242,306,59404,1,8,0:2:0:0:
188,233,59591,2,0,L|188:156,1,70,8|0,0:2|0:0,0:0:0:0:
187,117,59872,1,8,0:2:0:0:
187,117,59966,1,0,3:0:0:0:
123,51,60154,1,10,0:2:0:0:
66,122,60341,1,8,0:2:0:0:
66,122,60435,1,8,0:2:0:0:
66,122,60529,6,0,L|66:282,1,140,6|10,3:2|0:2,0:0:0:0:
123,338,61091,1,2,3:2:0:0:
123,338,61185,2,0,B|172:319|172:319|236:341,1,105,8|0,0:2|3:0,0:0:0:0:
307,367,61654,2,0,P|316:332|299:293,1,70,8|2,0:2|0:2,0:0:0:0:
241,235,62029,6,0,P|302:263|364:234,1,140,2|8,3:2|0:2,0:0:0:0:
438,181,62591,1,2,3:2:0:0:
438,181,62685,2,0,B|457:232|457:232|438:288,1,105,8|2,0:2|3:2,0:0:0:0:
400,361,63154,1,8,0:2:0:0:
312,336,63341,1,2,0:2:0:0:
312,336,63435,1,0,0:0:0:0:
312,336,63529,6,0,B|254:336|254:336|229:354|229:354|164:354,1,140,2|10,3:2|0:2,0:0:0:0:
112,298,64091,1,2,3:2:0:0:
112,298,64185,2,0,B|128:250|128:250|109:199,1,105,8|2,0:2|3:2,0:0:0:0:
63,120,64654,1,8,0:2:0:0:
143,77,64841,6,0,B|212:52|200:112|277:79,1,140,6|0,3:2|3:0,0:0:0:0:
363,51,65404,1,8,0:2:0:0:
368,138,65591,1,2,3:2:0:0:
299,195,65779,1,8,0:2:0:0:
299,195,65872,1,8,0:2:0:0:
299,195,65966,1,2,3:2:0:0:
382,222,66154,2,0,L|431:221,3,35,10|8|10|8,0:2|0:2|0:2|0:2,0:0:0:0:
461,229,66529,6,0,P|488:166|461:104,1,140,6|10,3:2|0:2,0:0:0:0:
412,33,67091,1,2,3:2:0:0:
412,33,67185,2,0,B|363:52|363:52|303:32,1,105,8|2,0:2|3:2,0:0:0:0:
229,0,67654,2,0,L|229:85,1,70,8|2,0:2|0:2,0:0:0:0:
279,146,68029,6,0,L|279:288,1,140,0|8,3:0|0:2,0:0:0:0:
210,345,68591,1,2,3:2:0:0:
210,345,68685,2,0,B|161:325|161:325|102:352,1,105,0|2,3:0|3:2,0:0:0:0:
24,365,69154,2,0,L|24:293,1,70,10|2,0:2|0:2,0:0:0:0:
27,203,69529,6,0,P|70:223|134:190,1,105,14|0,0:2|3:0,0:0:0:0:
152,170,69904,1,2,3:2:0:0:
110,89,70091,2,0,L|110:8,1,70,10|0,0:2|3:0,0:0:0:0:
201,22,70466,2,0,L|201:92,1,70,10|0,0:2|3:0,0:0:0:0:
256,164,70841,6,0,B|281:142|319:141|319:141|342:168|382:167,1,140,14|0,0:2|3:0,0:0:0:0:
436,92,71404,1,8,0:2:0:0:
381,19,71591,2,0,P|340:10|288:26,1,70,2|8,3:2|0:2,0:0:0:0:
273,31,71872,1,8,0:2:0:0:
273,31,71966,1,2,3:2:0:0:
201,92,72154,2,0,L|201:131,2,35,10|8|2,0:2|0:2|3:2,0:0:0:0:
112,70,72529,6,0,L|112:149,1,70,14|2,0:2|0:2,0:0:0:0:
83,176,72810,1,2,0:2:0:0:
83,176,72904,2,0,L|83:255,1,70,10|2,0:2|3:2,0:0:0:0:
148,309,73279,2,0,B|181:319|181:319|228:304,1,70,10|2,0:2|3:2,0:0:0:0:
247,276,73560,1,2,0:2:0:0:
247,276,73654,2,0,B|280:266|280:266|327:281,1,70,10|2,0:2|3:2,0:0:0:0:
401,300,74029,6,0,L|401:210,1,70,10|2,0:2|0:2,0:0:0:0:
431,196,74310,1,2,0:2:0:0:
431,196,74404,2,0,L|431:106,1,70,10|2,0:2|3:2,0:0:0:0:
378,51,74779,2,0,B|342:40|342:40|292:56,1,70,10|2,0:2|3:2,0:0:0:0:
270,62,75060,1,2,0:2:0:0:
270,62,75154,2,0,L|270:132,1,70,10|2,0:2|3:2,0:0:0:0:
222,210,75529,5,10,0:2:0:0:
206,217,75622,1,2,0:2:0:0:
188,219,75716,1,2,0:2:0:0:
171,217,75810,1,2,0:2:0:0:
155,210,75904,2,0,P|118:201|75:221,1,70,2|2,3:2|3:2,0:0:0:0:
2,241,76279,1,10,0:2:0:0:
1,331,76466,1,10,0:2:0:0:
72,384,76654,1,10,0:2:0:0:
149,336,76841,6,0,P|212:310|275:337,1,140,14|10,0:2|0:2,0:0:0:0:
354,382,77404,1,14,0:2:0:0:
428,331,77591,1,10,0:2:0:0:
428,331,77685,1,8,0:2:0:0:
428,331,77779,1,10,0:2:0:0:
359,270,77966,1,2,3:2:0:0:
422,208,78154,2,0,L|461:208,3,31.4999990386963,10|10|2|2,0:2|0:2|3:2|3:2,0:0:0:0:
492,187,78529,6,0,P|506:152|471:82,2,94.499997116089,14|2|2,0:2|3:2|3:2,0:0:0:0:
416,141,79279,2,0,P|401:96|417:53,2,94.499997116089,14|2|2,0:2|3:2|3:2,0:0:0:0:
357,206,80029,2,0,L|255:206,2,94.499997116089,14|2|2,0:2|3:2|3:2,0:0:0:0:
418,269,80779,2,0,L|520:269,2,94.499997116089,14|2|2,0:2|3:2|3:2,0:0:0:0:
366,340,81529,5,6,3:2:0:0:
263,206,81904,1,0,3:0:0:0:
151,342,82279,1,0,3:0:0:0:
34,209,82654,1,2,3:2:0:0:
85,137,82841,6,0,L|211:137,1,125.999996154785,14|8,0:2|0:2,0:0:0:0:
263,206,83404,2,0,L|297:206,3,31.4999990386963,2|2|2|2,3:2|0:2|3:2|3:2,0:0:0:0:
334,186,83779,2,0,L|368:186,3,31.4999990386963,10|2|2|2,0:2|0:2|3:2|0:2,0:0:0:0:
404,205,84154,2,0,L|438:205,3,31.4999990386963,10|10|2|2,0:2|0:2|3:2|3:2,0:0:0:0:
476,188,84529,6,0,L|476:57,1,125.999996154785,6|10,3:2|0:2,0:0:0:0:
408,14,85091,1,2,3:2:0:0:
408,14,85185,2,0,B|364:28|364:28|315:13,1,94.499997116089,8|2,0:2|3:2,0:0:0:0:
229,6,85654,2,0,L|229:79,1,62.9999980773926,10|2,0:2|0:2,0:0:0:0:
274,144,86029,6,0,L|274:274,1,125.999996154785,2|8,3:2|0:2,0:0:0:0:
209,329,86591,1,2,3:2:0:0:
209,329,86685,2,0,B|161:312|161:312|108:332,1,94.499997116089,8|2,0:2|3:2,0:0:0:0:
46,375,87154,1,10,0:2:0:0:
117,202,87529,6,0,P|60:225|2:202,1,125.999996154785,2|8,3:2|0:2,0:0:0:0:
61,138,88091,1,2,3:2:0:0:
61,138,88185,2,0,L|61:41,1,94.499997116089,8|2,0:2|3:2,0:0:0:0:
144,14,88654,2,0,L|144:83,1,62.9999980773926,8|2,0:2|3:2,0:0:0:0:
172,117,88935,1,0,3:0:0:0:
172,117,89029,6,0,B|216:104|216:104|280:122,1,94.499997116089,8|0,0:2|3:0,0:0:0:0:
377,51,89591,2,0,L|377:189,1,125.999996154785,0|0,3:0|3:0,0:0:0:0:
313,239,90154,1,8,0:2:0:0:
385,306,90341,1,8,0:2:0:0:
385,306,90435,1,8,0:2:0:0:
385,306,90529,6,0,L|525:306,1,125.999996154785,4|10,3:0|0:2,0:0:0:0:
512,221,91091,1,0,3:0:0:0:
512,221,91185,2,0,L|400:220,1,94.499997116089,8|2,0:2|3:2,0:0:0:0:
356,156,91654,2,0,L|356:74,1,62.9999980773926,10|2,0:2|0:2,0:0:0:0:
413,26,92029,6,0,B|353:6|353:6|280:31,1,125.999996154785,2|8,3:2|0:2,0:0:0:0:
212,61,92591,1,2,3:2:0:0:
212,61,92685,2,0,L|212:174,1,94.499997116089,8|2,0:2|3:2,0:0:0:0:
212,243,93154,1,8,0:2:0:0:
348,355,93529,6,0,P|319:306|352:232,1,125.999996154785,0|8,3:0|0:2,0:0:0:0:
390,173,94091,1,2,3:2:0:0:
390,173,94185,2,0,L|495:173,1,94.499997116089,8|2,0:2|3:2,0:0:0:0:
512,257,94654,2,0,L|450:257,1,62.9999980773926,10|2,0:2|0:2,0:0:0:0:
419,289,94935,1,0,0:0:0:0:
419,289,95029,6,0,B|405:334|405:334|420:383,1,94.499997116089,10|0,0:2|3:0,0:0:0:0:
287,379,95591,2,0,B|306:322|306:322|284:258,1,125.999996154785,2|0,3:2|3:0,0:0:0:0:
243,181,96154,1,8,0:2:0:0:
171,226,96341,1,8,0:2:0:0:
171,226,96435,1,8,0:2:0:0:
171,226,96529,6,0,L|42:226,1,125.999996154785,4|10,3:0|0:2,0:0:0:0:
11,150,97091,1,2,3:2:0:0:
11,150,97185,2,0,B|27:106|27:106|6:49,1,94.499997116089,8|2,0:2|3:2,0:0:0:0:
78,4,97654,2,0,L|166:4,1,62.9999980773926,10|2,0:2|0:2,0:0:0:0:
209,60,98029,6,0,B|270:40|270:40|338:64,1,125.999996154785,2|8,3:2|0:2,0:0:0:0:
407,18,98591,1,2,3:2:0:0:
407,18,98685,2,0,P|419:57|395:119,1,94.499997116089,8|2,0:2|3:2,0:0:0:0:
352,177,99154,2,0,L|352:250,1,62.9999980773926,10|2,0:2|0:2,0:0:0:0:
411,305,99529,6,0,B|442:274|442:274|442:178,1,125.999996154785,2|8,3:2|0:2,0:0:0:0:
493,122,100091,1,2,3:2:0:0:
493,122,100185,2,0,B|452:98|452:98|398:108,1,94.499997116089,8|2,0:2|3:2,0:0:0:0:
352,177,100654,2,0,L|266:177,1,62.9999980773926,8|2,0:2|0:2,0:0:0:0:
201,163,101029,6,0,B|182:121|182:121|204:69,1,94.499997116089,8|0,0:2|3:0,0:0:0:0:
289,177,101591,2,0,L|289:314,1,125.999996154785,0|0,3:0|3:0,0:0:0:0:
230,368,102154,1,8,0:2:0:0:
170,312,102341,1,8,0:2:0:0:
170,312,102435,1,8,0:2:0:0:
170,312,102529,6,0,L|25:311,1,125.999996154785,4|10,3:2|0:2,0:0:0:0:
1,234,103091,1,2,3:2:0:0:
1,234,103185,2,0,B|16:188|16:188|3:143,1,94.499997116089,8|2,0:2|3:2,0:0:0:0:
52,69,103654,2,0,L|125:69,1,62.9999980773926,10|2,0:2|0:2,0:0:0:0:
179,130,104029,6,0,B|155:188|155:188|176:247,1,125.999996154785,2|8,3:2|0:2,0:0:0:0:
254,300,104591,1,2,3:2:0:0:
254,300,104685,2,0,L|356:300,1,94.499997116089,8|2,0:2|3:2,0:0:0:0:
417,244,105154,2,0,P|425:214|417:183,1,62.9999980773926,10|2,0:2|0:2,0:0:0:0:
357,118,105529,6,0,B|300:144|300:144|233:118,1,125.999996154785,0|8,3:0|0:2,0:0:0:0:
170,76,106091,1,2,3:2:0:0:
170,76,106185,2,0,P|155:118|173:173,1,94.499997116089,8|2,0:2|3:2,0:0:0:0:
218,237,106654,1,8,0:2:0:0:
172,312,106841,6,0,P|117:299|132:245,1,125.999996154785,6|0,3:2|3:0,0:0:0:0:
218,237,107404,2,0,L|304:238,1,62.9999980773926,8|2,0:2|3:2,0:0:0:0:
360,297,107779,1,10,0:2:0:0:
360,297,107872,1,8,0:2:0:0:
360,297,107966,1,2,3:2:0:0:
420,233,108154,2,0,L|420:190,3,31.4999990386963,10|0|2|0,0:2|3:0|3:2|3:0,0:0:0:0:
417,157,108529,6,0,B|373:171|373:171|315:155,1,94.499997116089,4|8,3:0|0:2,0:0:0:0:
232,65,109091,2,0,B|197:70|174:87|174:87|150:70|115:64,1,125.999996154785,0|2,3:0|3:2,0:0:0:0:
32,32,109654,2,0,P|24:62|31:93,1,62.9999980773926,10|2,0:2|0:2,0:0:0:0:
92,155,110029,6,0,L|92:258,1,94.499997116089,0|8,3:0|0:2,0:0:0:0:
191,336,110591,2,0,P|222:316|314:342,1,125.999996154785,2|2,3:2|3:2,0:0:0:0:
382,379,111154,1,10,0:2:0:0:
493,242,111529,2,0,P|449:257|402:236,1,94.499997116089,2|8,3:2|0:2,0:0:0:0:
303,157,112091,2,0,B|333:150|333:150|307:244,1,125.999996154785,2|2,3:2|3:2,0:0:0:0:
244,304,112654,1,8,0:2:0:0:
179,243,112841,6,0,B|155:221|120:219|120:219|102:239|65:243,1,125.999996154785,6|0,3:2|3:0,0:0:0:0:
7,175,113404,2,0,P|3:144|15:115,1,62.9999980773926,8|2,0:2|3:2,0:0:0:0:
76,51,113779,1,10,0:2:0:0:
76,51,113966,1,2,3:2:0:0:
148,102,114154,2,0,L|195:102,3,31.4999990386963,10|8|10|8,0:2|0:2|0:2|0:2,0:0:0:0:
216,77,114529,5,4,3:0:0:0:
285,239,114904,1,0,3:0:0:0:
123,308,115279,1,2,3:2:0:0:
54,146,115654,1,2,3:2:0:0:
216,77,116029,5,0,3:0:0:0:
285,239,116404,1,0,3:0:0:0:
447,170,116779,1,2,3:2:0:0:
378,8,117154,2,0,L|297:21,1,62.9999980773926,2|10,3:2|0:2,0:0:0:0:
271,19,117435,1,8,0:2:0:0:
271,19,117529,6,0,P|279:81|286:144,1,125.999996154785,0|8,3:0|0:2,0:0:0:0:
356,214,118091,1,8,0:2:0:0:
356,214,118185,1,8,0:2:0:0:
356,214,118279,2,0,L|350:259,3,31.4999990386963,8|8|8|8,0:2|0:2|0:2|0:2,0:0:0:0:
345,288,118654,2,0,L|313:292,3,31.4999990386963,10|2|2|2,0:2|0:2|0:2|0:2,0:3:0:0:
272,276,119029,5,14,0:2:0:0:
173,364,119310,5,10,0:2:0:0:
123,241,119591,6,0,L|133:171,1,62.9999980773926,14|0,0:2|0:0,0:0:0:0:
155,99,119966,1,10,0:2:0:0:
155,99,120060,1,8,0:2:0:0:
155,99,120154,2,0,L|198:99,3,31.4999990386963,10|8|10|8,0:2|0:2|0:2|0:2,0:0:0:0:
221,127,120529,6,0,B|283:104|283:104|357:131,1,140,6|10,3:2|0:2,0:0:0:0:
430,185,121091,1,2,3:2:0:0:
430,185,121185,2,0,L|430:304,1,105,8|2,0:2|3:2,0:0:0:0:
357,345,121654,2,0,P|327:336|280:351,1,70,8|2,0:2|0:2,0:0:0:0:
199,332,122029,6,0,P|261:319|248:257,1,140,0|8,3:0|0:2,0:0:0:0:
176,209,122591,1,2,3:2:0:0:
176,209,122685,2,0,B|126:225|126:225|67:207,1,105,8|2,0:2|3:2,0:0:0:0:
17,139,123154,1,10,0:2:0:0:
74,70,123341,1,2,0:2:0:0:
74,70,123435,1,2,0:2:0:0:
74,70,123529,6,0,B|130:65|130:65|155:74|155:74|211:67,1,140,2|10,3:2|0:2,0:0:0:0:
292,22,124091,1,2,3:2:0:0:
292,22,124185,2,0,P|333:8|401:34,1,105,8|2,0:2|3:2,0:0:0:0:
449,94,124654,1,8,0:2:0:0:
492,270,125029,6,0,B|443:253|443:253|380:273,1,105,0|0,3:0|3:0,0:0:0:0:
360,301,125404,1,8,0:2:0:0:
276,335,125591,2,0,B|262:301|262:301|274:269,1,70,8|0,0:2|0:0,0:0:0:0:
295,231,125872,1,8,0:2:0:0:
295,231,125966,1,0,3:0:0:0:
227,169,126154,1,10,0:2:0:0:
165,235,126341,1,8,0:2:0:0:
165,235,126435,1,8,0:2:0:0:
165,235,126529,6,0,P|103:262|34:226,1,140,6|10,3:2|0:2,0:0:0:0:
5,156,127091,1,2,3:2:0:0:
5,156,127185,2,0,L|5:51,1,105,8|0,0:2|3:0,0:0:0:0:
87,10,127654,2,0,B|120:21|120:21|161:10,1,70,8|2,0:2|0:2,0:0:0:0:
236,51,128029,6,0,L|236:195,1,140,2|8,3:2|0:2,0:0:0:0:
294,267,128591,1,2,3:2:0:0:
294,267,128685,2,0,B|341:248|341:248|407:272,1,105,8|2,0:2|3:2,0:0:0:0:
473,309,129154,1,8,0:2:0:0:
407,370,129341,1,2,0:2:0:0:
407,370,129435,1,2,0:2:0:0:
407,370,129529,6,0,B|351:370|351:370|325:384|325:384|264:384,1,140,2|10,3:2|0:2,0:0:0:0:
194,333,130091,1,2,3:2:0:0:
194,333,130185,2,0,L|194:224,1,105,8|2,0:2|3:2,0:0:0:0:
247,153,130654,1,8,0:2:0:0:
298,227,130841,6,0,B|331:231|360:253|360:253|386:231|425:226,1,140,6|0,3:2|3:0,0:0:0:0:
370,152,131404,1,8,0:2:0:0:
447,104,131591,1,2,3:2:0:0:
389,38,131779,1,8,0:2:0:0:
389,38,131872,1,8,0:2:0:0:
389,38,131966,1,2,3:0:0:0:
307,78,132154,2,0,L|267:78,3,35,10|8|10|8,0:2|0:2|0:2|0:2,0:0:0:0:
237,50,132529,6,0,L|97:50,1,140,6|10,3:2|0:2,0:0:0:0:
33,115,133091,1,2,3:2:0:0:
33,115,133185,2,0,B|51:166|51:166|29:234,1,105,8|2,0:2|3:2,0:0:0:0:
97,281,133654,2,0,L|166:281,1,70,8|2,0:2|0:2,0:0:0:0:
234,219,134029,6,0,P|204:280|233:341,1,140,0|8,3:0|0:2,0:0:0:0:
322,378,134591,1,2,3:2:0:0:
322,378,134685,2,0,L|427:378,1,105,8|2,0:2|3:2,0:0:0:0:
479,303,135154,2,0,L|479:227,1,70,10|2,0:2|0:2,0:0:0:0:
427,157,135529,6,0,B|380:175|380:175|308:150,1,105,14|0,0:2|3:0,0:0:0:0:
282,152,135904,1,2,3:2:0:0:
204,105,136091,2,0,B|166:97|166:97|128:108,1,70,10|0,0:2|3:0,0:0:0:0:
135,197,136466,2,0,B|172:204|172:204|210:193,1,70,10|0,0:2|3:0,0:0:0:0:
282,152,136841,6,0,P|298:91|247:22,1,140,14|0,0:2|3:0,0:0:0:0:
204,105,137404,1,8,0:2:0:0:
131,50,137591,2,0,P|93:42|54:56,1,70,2|8,3:2|0:2,0:0:0:0:
27,75,137872,1,8,0:2:0:0:
27,75,137966,1,2,3:2:0:0:
81,148,138154,2,0,L|124:148,2,35,10|8|2,0:2|0:2|3:2,0:0:0:0:
27,222,138529,6,0,L|27:312,1,70,14|2,0:2|0:2,0:0:0:0:
29,341,138810,1,2,0:2:0:0:
29,341,138904,2,0,L|99:341,1,70,10|2,0:2|3:2,0:0:0:0:
178,296,139279,2,0,L|248:296,1,70,10|2,0:2|3:2,0:0:0:0:
293,319,139560,1,2,0:2:0:0:
293,319,139654,2,0,L|363:319,1,70,10|2,0:2|3:2,0:0:0:0:
424,251,140029,6,0,B|411:218|411:218|427:176,1,70,10|2,0:2|0:2,0:0:0:0:
441,145,140310,1,2,0:2:0:0:
441,145,140404,2,0,L|357:145,1,70,10|2,0:2|3:2,0:0:0:0:
284,114,140779,2,0,B|271:146|271:146|287:188,1,70,10|2,0:2|3:2,0:0:0:0:
301,220,141060,1,2,0:2:0:0:
301,220,141154,2,0,L|217:220,1,70,10|2,0:2|3:2,0:0:0:0:
151,174,141529,5,10,0:2:0:0:
135,167,141622,1,2,0:2:0:0:
117,165,141716,1,2,0:2:0:0:
100,167,141810,1,2,0:2:0:0:
84,174,141904,2,0,P|47:183|4:163,1,70,2|2,3:2|3:2,0:0:0:0:
11,82,142279,1,10,0:2:0:0:
80,23,142466,1,10,0:2:0:0:
156,73,142654,1,10,0:2:0:0:
230,25,142841,6,0,B|274:25|302:52|302:52|323:26|373:24,1,157.500006008148,14|2,0:2|0:2,0:0:0:0:
468,123,143779,2,0,L|468:228,1,105.000004005432,2|2,0:2|0:2,0:0:0:0:
374,328,144529,5,12,0:3:0:0:
374,328,153529,6,0,L|374:194,1,125.999996154785,6|8,3:2|0:2,0:0:0:0:
321,131,154091,2,0,P|263:108|205:130,1,125.999996154785,6|0,3:2|3:2,0:0:0:0:
140,190,154654,1,8,0:2:0:0:
208,245,154841,6,0,B|197:295|197:295|209:318|209:318|197:374,1,125.999996154785,6|0,3:2|3:0,0:0:0:0:
114,339,155404,2,0,L|51:339,1,62.9999980773926,8|0,0:2|3:0,0:0:0:0:
7,332,155685,2,0,L|7:269,1,62.9999980773926,8|0,0:2|0:0,0:0:0:0:
4,224,155966,1,0,3:0:0:0:
62,157,156154,1,8,0:2:0:0:
124,218,156341,6,0,P|159:238|247:203,1,125.999996154785,14|0,0:2|0:0,0:0:0:0:
301,156,156904,1,0,3:0:0:0:
161,47,157279,2,0,L|88:47,1,62.9999980773926,2|0,3:2|3:0,0:0:0:0:
97,135,157654,2,0,L|160:135,1,62.9999980773926,0|0,3:0|3:0,0:0:0:0:
237,89,158029,5,10,0:2:0:0:
237,89,158216,1,8,0:2:0:0:
301,156,158404,1,8,0:2:0:0:
301,156,158591,1,10,0:2:0:0:
355,86,158779,1,8,0:2:0:0:
434,124,158966,1,10,0:2:0:0:
433,212,159154,1,10,0:2:0:0:
365,267,159341,5,10,0:2:0:0:
365,267,160279,2,0,L|283:256,1,62.9999980773926,14|0,0:2|0:0,0:0:0:0:
265,234,160560,2,0,L|183:245,1,62.9999980773926,10|0,0:2|3:0,0:0:0:0:
179,280,160841,6,0,B|120:302|120:302|48:275,1,125.999996154785,14|0,0:2|3:0,0:0:0:0:
16,203,161404,2,0,L|16:126,1,62.9999980773926,8|2,0:2|3:2,0:0:0:0:
70,70,161779,2,0,L|70:28,2,31.4999990386963,10|8|2,0:2|0:2|3:2,0:0:0:0:
129,135,162154,2,0,L|129:177,2,31.4999990386963,10|8|2,0:2|0:2|3:2,0:0:0:0:
188,70,162529,6,0,P|246:48|304:70,1,125.999996154785,6|10,3:2|0:2,0:0:0:0:
363,135,163091,2,0,L|363:264,1,125.999996154785,2|2,3:2|3:2,0:0:0:0:
299,322,163654,1,8,0:2:0:0:
363,381,163841,6,0,L|499:381,1,125.999996154785,6|0,3:2|3:0,0:0:0:0:
508,294,164404,2,0,L|443:294,1,62.9999980773926,8|2,0:2|3:2,0:0:0:0:
363,261,164779,1,10,0:2:0:0:
476,126,165154,2,0,L|476:89,3,31.4999990386963,10|8|10|8,0:2|0:2|0:2|0:2,0:0:0:0:
450,58,165529,5,4,3:0:0:0:
302,154,165904,1,0,3:0:0:0:
206,6,166279,1,2,3:2:0:0:
58,102,166654,1,2,3:2:0:0:
133,261,167029,6,0,L|185:261,3,31.4999990386963,8|8|10|8,0:2|0:2|0:2|0:2,0:0:0:0:
202,238,167404,2,0,L|254:238,3,31.4999990386963,8|8|10|8,0:2|0:2|0:2|0:2,0:0:0:0:
270,262,167779,2,0,L|322:262,3,31.4999990386963,10|8|10|8,0:2|0:2|0:2|0:2,0:0:0:0:
339,239,168154,2,0,B|372:249|372:249|407:239,1,62.9999980773926,0|0,3:2|3:0,0:0:0:0:
476,197,168529,6,0,L|476:322,1,125.999996154785,10|0,0:2|3:0,0:0:0:0:
404,373,169091,2,0,P|347:349|291:373,1,125.999996154785,8|2,0:2|3:2,0:0:0:0:
218,323,169654,2,0,L|218:257,1,62.9999980773926,10|2,0:2|0:2,0:0:0:0:
217,171,170029,5,14,0:2:0:0:
126,75,170310,5,10,0:2:0:0:
35,171,170591,6,0,L|35:245,1,62.9999980773926,14|0,0:2|0:0,0:0:0:0:
114,293,170966,1,8,0:2:0:0:
114,293,171060,1,8,0:2:0:0:
114,293,171154,2,0,L|114:335,3,31.4999990386963,8|8|8|8,0:2|0:2|0:2|0:2,0:0:0:0:
120,368,171529,6,0,L|198:368,1,62.9999980773926,6|8,3:2|0:2,0:0:0:0:
215,338,171810,2,0,L|293:338,1,62.9999980773926,2|8,3:2|0:2,0:0:0:0:
310,368,172091,1,6,3:2:0:0:
374,307,172279,2,0,L|374:256,3,31.4999990386963,8|0|2|0,0:2|3:0|3:2|3:0,0:0:0:0:
374,231,172654,1,10,0:2:0:0:
256,74,173029,6,0,L|256:214,1,140,6|10,3:2|0:2,0:0:0:0:
183,266,173591,1,2,3:2:0:0:
183,266,173685,2,0,B|131:252|131:252|81:265,1,105,8|2,0:2|3:2,0:0:0:0:
5,214,174154,2,0,L|5:144,1,70,8|2,0:2|0:2,0:0:0:0:
76,86,174529,6,0,B|132:86|132:86|154:98|154:98|213:98,1,140,0|8,3:0|0:2,0:0:0:0:
289,47,175091,1,2,3:2:0:0:
289,47,175185,2,0,B|306:98|306:98|283:160,1,105,8|2,0:2|3:2,0:0:0:0:
225,211,175654,1,10,0:2:0:0:
291,287,175841,1,2,0:2:0:0:
291,287,175935,1,2,0:2:0:0:
291,287,176029,6,0,L|441:287,1,140,2|10,3:2|0:2,0:0:0:0:
467,206,176591,1,2,3:2:0:0:
467,206,176685,2,0,L|358:206,1,105,8|2,0:2|3:2,0:0:0:0:
291,147,177154,1,8,0:2:0:0:
449,57,177529,6,0,P|409:72|334:39,1,105,0|0,3:0|3:0,0:0:0:0:
317,25,177904,1,8,0:2:0:0:
237,68,178091,2,0,B|200:79|200:79|162:64,1,70,8|0,0:2|0:0,0:0:0:0:
134,49,178372,1,8,0:2:0:0:
134,49,178466,1,0,3:0:0:0:
75,119,178654,1,10,0:2:0:0:
141,195,178841,1,8,0:2:0:0:
141,195,178935,1,8,0:2:0:0:
141,195,179029,6,0,L|141:336,1,140,6|10,3:2|0:2,0:0:0:0:
226,379,179591,1,2,3:2:0:0:
226,379,179685,2,0,P|260:363|325:380,1,105,8|0,0:2|3:0,0:0:0:0:
404,336,180154,2,0,P|412:298|394:253,1,70,8|2,0:2|0:2,0:0:0:0:
344,199,180529,6,0,P|405:227|467:200,1,140,2|8,3:2|0:2,0:0:0:0:
512,123,181091,1,2,3:2:0:0:
512,123,181185,2,0,P|475:106|407:144,1,105,8|2,0:2|3:2,0:0:0:0:
342,76,181654,1,8,0:2:0:0:
270,127,181841,1,2,0:2:0:0:
270,127,181935,1,2,0:2:0:0:
270,127,182029,6,0,B|203:102|203:102|121:133,1,140,2|10,3:2|0:2,0:0:0:0:
66,81,182591,1,2,3:2:0:0:
66,81,182685,2,0,P|47:128|65:176,1,105,8|2,0:2|3:2,0:0:0:0:
33,262,183154,1,8,0:2:0:0:
106,315,183341,6,0,P|167:344|229:317,1,140,6|0,3:2|3:0,0:0:0:0:
317,340,183904,1,8,0:2:0:0:
392,289,184091,1,2,3:2:0:0:
394,205,184279,1,8,0:2:0:0:
394,205,184372,1,8,0:2:0:0:
394,205,184466,1,2,3:2:0:0:
314,244,184654,2,0,L|277:244,3,35,10|8|10|8,0:2|0:2|0:2|0:2,0:0:0:0:
245,213,185029,6,0,L|100:213,1,140,6|10,3:2|0:2,0:0:0:0:
29,261,185591,1,2,3:2:0:0:
29,261,185685,2,0,P|11:212|33:158,1,105,8|2,0:2|3:2,0:0:0:0:
74,85,186154,2,0,L|148:85,1,70,8|2,0:2|0:2,0:0:0:0:
228,119,186529,6,0,B|297:94|285:154|362:121,1,140,0|8,3:0|0:2,0:0:0:0:
443,75,187091,1,2,3:2:0:0:
443,75,187185,2,0,P|462:116|437:176,1,105,8|2,0:2|3:2,0:0:0:0:
409,254,187654,2,0,L|409:326,1,70,10|2,0:2|0:2,0:0:0:0:
321,350,188029,6,0,L|321:219,1,105,6|0,3:2|3:0,0:0:0:0:
321,199,188404,1,10,0:2:0:0:
248,144,188591,2,0,P|215:160|169:149,1,70,2|0,3:2|0:0,0:0:0:0:
144,144,188872,1,0,3:0:0:0:
144,144,188966,1,2,3:2:0:0:
75,83,189154,1,8,0:2:0:0:
148,29,189341,6,0,L|301:29,1,140,6|0,3:2|3:0,0:0:0:0:
373,64,189904,1,8,0:2:0:0:
346,150,190091,2,0,B|341:184|317:213|317:213|345:241|349:274,1,140,6|2,3:2|3:2,0:3:0:0:
320,360,190654,2,0,P|356:369|394:354,1,70,10|2,0:2|3:2,0:0:0:0:
465,313,191029,6,0,L|465:232,1,70,14|2,0:2|0:2,0:0:0:0:
441,210,191310,1,2,0:2:0:0:
441,210,191404,2,0,L|441:129,1,70,10|2,0:2|3:2,0:0:0:0:
469,53,191779,2,0,P|433:44|394:57,1,70,10|2,0:2|3:2,0:0:0:0:
369,84,192060,1,2,0:2:0:0:
369,84,192154,2,0,L|299:84,1,70,10|2,0:2|3:2,0:0:0:0:
238,15,192529,6,0,L|168:15,1,70,10|2,0:2|0:2,0:0:0:0:
135,47,192810,1,2,0:2:0:0:
135,47,192904,2,0,P|126:84|147:129,1,70,10|2,0:2|3:2,0:0:0:0:
204,173,193279,2,0,P|212:210|191:255,1,70,10|2,0:2|3:2,0:0:0:0:
169,269,193560,1,2,0:2:0:0:
169,269,193654,2,0,L|99:269,1,70,10|2,0:2|3:2,0:0:0:0:
11,295,194029,5,10,0:2:0:0:
4,279,194122,1,2,0:2:0:0:
4,261,194216,1,2,0:2:0:0:
4,244,194310,1,2,0:2:0:0:
11,228,194404,2,0,P|20:191|0:148,1,70,2|2,3:2|3:2,0:0:0:0:
0,71,194779,1,10,0:2:0:0:
56,0,194966,1,10,0:2:0:0:
147,0,195154,1,10,0:2:0:0:
203,70,195341,6,0,L|203:221,1,140,14|10,0:2|0:2,0:0:0:0:
203,301,195904,1,14,0:2:0:0:
317,375,196279,5,2,0:2:0:0:
411,274,196654,6,0,B|467:143|358:56|358:56|374:132|336:172,1,367.500014019013,2|0,0:2|0:0,0:0:0:0:
262,217,198154,6,0,L|216:217,3,31.4999990386963,8|2|2|2,0:3|0:2|0:2|0:2,0:0:0:0:
186,216,198529,6,0,P|161:159|184:102,1,125.999996154785,6|8,3:2|0:2,0:0:0:0:
256,49,199091,1,0,3:0:0:0:
256,49,199185,2,0,L|368:49,1,94.499997116089,8|0,0:2|3:0,0:0:0:0:
434,22,199654,2,0,P|441:60|428:89,1,62.9999980773926,10|0,0:2|0:0,0:0:0:0:
386,157,200029,6,0,L|386:289,1,125.999996154785,2|8,3:2|0:2,0:0:0:0:
427,366,200591,1,0,3:0:0:0:
427,366,200685,2,0,P|386:378|326:358,1,94.499997116089,8|0,0:2|3:0,0:0:0:0:
274,304,201154,1,8,0:2:0:0:
115,381,201529,6,0,P|137:342|93:250,1,125.999996154785,2|8,3:2|0:2,0:0:0:0:
48,223,202091,1,0,3:0:0:0:
48,223,202185,2,0,L|48:125,1,94.499997116089,8|0,0:2|3:0,0:0:0:0:
118,75,202654,2,0,L|187:75,1,62.9999980773926,10|0,0:2|0:0,0:0:0:0:
250,129,203029,6,0,B|232:172|232:172|260:242,1,94.499997116089,2|2,3:2|3:2,0:0:0:0:
262,258,203404,1,8,0:2:0:0:
205,325,203591,2,0,P|262:302|319:325,1,125.999996154785,2|0,3:2|3:0,0:0:0:0:
407,338,204154,2,0,L|407:293,3,31.4999990386963,10|2|2|2,0:2|0:2|0:2|0:2,0:0:0:0:
430,269,204529,6,0,L|430:131,1,125.999996154785,6|8,3:2|0:2,0:0:0:0:
426,55,205091,1,0,3:0:0:0:
426,55,205185,2,0,B|380:70|380:70|326:54,1,94.499997116089,8|0,0:2|3:0,0:0:0:0:
252,27,205654,2,0,L|252:103,1,62.9999980773926,10|0,0:2|0:0,0:0:0:0:
311,155,206029,6,0,B|252:136|252:136|190:156,1,125.999996154785,2|8,3:2|0:2,0:0:0:0:
119,113,206591,1,0,3:0:0:0:
119,113,206685,2,0,P|103:148|132:214,1,94.499997116089,8|0,0:2|3:0,0:0:0:0:
175,266,207154,1,8,0:2:0:0:
311,155,207529,6,0,L|311:21,1,125.999996154785,2|8,3:2|0:2,0:0:0:0:
229,10,208091,1,0,3:0:0:0:
229,10,208185,2,0,L|229:110,1,94.499997116089,8|0,0:2|3:0,0:0:0:0:
192,185,208654,2,0,P|160:191|123:181,1,62.9999980773926,8|0,0:2|0:0,0:0:0:0:
44,165,209029,6,0,P|61:130|37:75,1,94.499997116089,2|2,3:2|3:2,0:0:0:0:
19,43,209404,1,8,0:2:0:0:
98,5,209591,2,0,L|180:5,1,62.9999980773926,2|0,3:2|3:0,0:0:0:0:
209,9,209872,1,8,0:2:0:0:
209,9,209966,1,0,3:0:0:0:
256,83,210154,2,0,L|256:129,3,31.4999990386963,10|10|10|10,0:2|0:2|0:2|0:2,0:0:0:0:
232,151,210529,6,0,L|232:281,1,125.999996154785,6|8,3:2|0:2,0:0:0:0:
239,368,211091,1,0,3:0:0:0:
239,368,211185,2,0,B|283:354|283:354|329:369,1,94.499997116089,8|0,0:2|3:0,0:0:0:0:
416,355,211654,2,0,P|408:310|425:286,1,62.9999980773926,10|0,0:2|0:0,0:0:0:0:
437,210,212029,6,0,B|374:187|383:236|315:211,1,125.999996154785,2|8,3:2|0:2,0:0:0:0:
285,133,212591,1,0,3:0:0:0:
285,133,212685,2,0,L|285:36,1,94.499997116089,8|0,0:2|3:0,0:0:0:0:
365,2,213154,1,8,0:2:0:0:
456,152,213529,6,0,L|456:297,1,125.999996154785,2|8,3:2|0:2,0:0:0:0:
497,361,214091,1,0,3:0:0:0:
497,361,214185,2,0,P|452:375|409:359,1,94.499997116089,8|0,0:2|3:0,0:0:0:0:
348,294,214654,2,0,L|280:294,1,62.9999980773926,10|0,0:2|0:0,0:0:0:0:
217,351,215029,6,0,B|171:336|171:336|127:350,1,94.499997116089,2|2,3:2|3:2,0:0:0:0:
86,367,215404,1,8,0:2:0:0:
18,310,215591,2,0,L|18:166,1,125.999996154785,2|0,3:2|3:0,0:0:0:0:
68,111,216154,2,0,L|68:69,3,31.4999990386963,10|2|10|10,0:2|0:2|0:2|0:2,0:0:0:0:
58,36,216529,6,0,B|119:56|119:56|183:35,1,125.999996154785,6|8,3:2|0:2,0:0:0:0:
262,6,217091,1,0,3:0:0:0:
262,6,217185,2,0,L|262:109,1,94.499997116089,8|0,0:2|3:0,0:0:0:0:
224,180,217654,2,0,L|224:248,1,62.9999980773926,10|0,0:2|0:0,0:0:0:0:
273,316,218029,6,0,P|307:296|398:329,1,125.999996154785,2|8,3:2|0:2,0:0:0:0:
470,357,218591,1,0,3:0:0:0:
470,357,218685,2,0,B|485:310|485:310|463:254,1,94.499997116089,0|0,0:0|3:0,0:0:0:0:
404,206,219154,2,0,L|404:116,1,62.9999980773926,8|0,0:2|3:0,0:0:0:0:
405,58,219529,5,14,0:2:0:0:
405,58,219716,1,10,0:2:0:0:
294,195,220091,1,14,0:2:0:0:
294,195,220279,1,10,0:2:0:0:
219,40,220654,1,14,0:2:0:0:
219,40,220841,1,10,0:2:0:0:
256,192,221029,12,0,230029,0:0:0:0:
