osu file format v14

[General]
AudioFilename: audio.mp3
AudioLeadIn: 0
PreviewTime: 53482
Countdown: 0
SampleSet: Soft
StackLeniency: 0.5
Mode: 0
LetterboxInBreaks: 0
WidescreenStoryboard: 1

[Editor]
Bookmarks: 6514,18514,42514,48514,54514,78514,81529,84534,96514,108514,114514,120514,144514,153514,159326,173014,198514,221034,230034
DistanceSpacing: 2
BeatDivisor: 4
GridSize: 32
TimelineZoom: 1

[Metadata]
Title:Azalea
TitleUnicode:アザレア
Artist:nano.RIPE
ArtistUnicode:nano.RIPE
Creator:Shirahane Suou
Version:Expert
Source:citrus
Tags:japanese anime opening op rock jrock 百合 yuri
BeatmapID:2764718
BeatmapSetID:1334552

[Difficulty]
HPDrainRate:6
CircleSize:4
OverallDifficulty:9
ApproachRate:9
SliderMultiplier:2
SliderTickRate:1

[Events]
//Background and Video events
0,0,"80696203_p3.jpg",0,0
//Break Periods
//Storyboard Layer 0 (Background)
//Storyboard Layer 1 (Fail)
//Storyboard Layer 2 (Pass)
//Storyboard Layer 3 (Foreground)
//Storyboard Layer 4 (Overlay)
//Storyboard Sound Samples

[TimingPoints]
-966,375,4,2,1,40,1,0
159,-125,4,2,1,40,0,0
894,375,4,2,1,40,1,0
894,-125,4,2,1,40,0,0
2019,375,4,2,1,40,1,0
2019,-125,4,2,1,40,0,0
6144,385.852090032154,4,2,1,40,1,0
6529,375,4,2,1,60,1,0
6529,-100,4,2,1,60,0,0
16841,-125,4,2,1,60,0,0
18529,-111.111111111111,4,2,1,40,0,0
39529,-133.333333333333,4,2,1,40,0,0
40279,-100,4,2,1,40,0,0
42529,-100,4,2,1,50,0,0
48529,-166.666666666667,4,2,1,40,0,0
49279,-142.857142857143,4,2,1,40,0,0
50029,-125,4,2,1,50,0,0
50779,-111.111111111111,4,2,1,50,0,0
51529,-100,4,2,1,60,0,0
54154,-250,4,2,1,60,0,0
54529,-76.9230769230769,4,2,1,70,0,1
77591,-133.333333333333,4,2,1,50,0,0
78529,-90.9090909090909,4,2,1,50,0,0
79279,-100,4,2,1,50,0,0
80029,-111.111111111111,4,2,1,50,0,0
80779,-133.333333333333,4,2,1,50,0,0
81529,-100,4,2,1,50,0,0
84529,-111.111111111111,4,2,1,40,0,0
96529,-90.9090909090908,4,2,1,60,0,0
108529,-100,4,2,1,50,0,0
114529,-166.666666666667,4,2,1,40,0,0
115279,-142.857142857143,4,2,1,40,0,0
116029,-125,4,2,1,50,0,0
116779,-111.111111111111,4,2,1,50,0,0
117529,-100,4,2,1,60,0,0
120529,-76.9230769230769,4,2,1,70,0,1
142841,-133.333333333333,4,2,1,40,0,0
153529,-111.111111111111,4,2,1,50,0,0
158029,-111.111111111111,4,2,1,60,0,0
159341,-999.99999999999,4,2,1,60,0,0
160279,-100,4,2,1,60,0,0
165529,-125,4,2,1,50,0,0
166279,-111.111111111111,4,2,1,50,0,0
167029,-100,4,2,1,60,0,0
168529,-90.9090909090909,4,2,1,60,0,0
173029,-76.9230769230769,4,2,1,70,0,1
195997,-285.714285714286,4,2,1,40,0,0
198154,-100,4,2,1,60,0,0
221122,-100,4,2,2,5,0,0

[Colours]
Combo1 : 50,172,209
Combo2 : 255,175,88
Combo3 : 114,107,173
Combo4 : 221,148,168

[HitObjects]
150,126,346,5,8,0:3:0:0:
150,126,440,1,8,0:3:0:0:
150,126,534,2,0,L|166:240,1,80,12|8,3:3|0:3,0:0:0:0:
238,321,894,1,8,3:3:0:0:
238,321,987,1,8,0:3:0:0:
238,321,1081,1,8,0:3:0:0:
345,205,1269,2,0,P|294:185|247:206,1,80,8|0,3:3|0:0,0:0:0:0:
249,205,1550,2,0,L|313:225,1,40,8|0,0:3|3:0,0:0:0:0:
378,372,1831,1,8,0:3:0:0:
378,372,1925,1,8,0:3:0:0:
378,372,2019,5,8,3:3:0:0:
420,258,2206,1,8,0:3:0:0:
285,336,2394,1,8,3:3:0:0:
285,336,2487,1,8,0:3:0:0:
285,336,2581,1,8,0:3:0:0:
181,274,2769,2,0,L|140:280,3,40,8|8|8|8,3:3|0:3|0:3|0:3,0:0:0:0:
112,301,3144,5,8,3:3:0:0:
88,281,3237,1,8,0:3:0:0:
78,253,3331,1,8,0:3:0:0:
84,223,3425,1,8,0:3:0:0:
105,202,3519,6,0,P|123:167|113:128,1,80,8|8,3:3|0:3,0:0:0:0:
0,137,3894,1,8,3:3:0:0:
0,137,3987,1,8,0:3:0:0:
0,137,4081,2,0,L|15:205,1,40,8|8,0:3|0:3,0:0:0:0:
49,273,4269,2,0,L|89:281,1,40,8|8,3:3|0:3,0:0:0:0:
200,349,4456,2,0,L|161:357,1,40,8|8,0:3|0:3,0:0:0:0:
274,213,4644,6,0,L|294:310,1,80,8|0,0:2|0:0,0:0:0:0:
383,372,4925,2,0,L|395:315,1,40,8|0,0:2|0:0,0:0:0:0:
421,211,5112,1,8,0:2:0:0:
421,211,5206,2,0,L|372:221,1,40,8|0,0:2|0:0,0:0:0:0:
268,101,5394,2,0,L|316:111,1,40,8|0,0:2|0:0,0:0:0:0:
482,31,5581,1,8,0:2:0:0:
482,31,5675,1,8,0:2:0:0:
482,31,5769,1,8,0:2:0:0:
463,47,5862,1,8,0:2:0:0:
451,69,5956,1,8,0:2:0:0:
449,93,6050,1,8,0:2:0:0:
457,117,6144,5,2,3:2:0:0:
494,148,6240,1,2,0:2:0:0:
512,194,6336,1,2,0:2:0:0:
506,243,6433,1,2,0:2:0:0:
476,283,6529,6,0,P|427:272|377:264,1,100,6|0,3:2|0:0,0:0:0:0:
321,216,6810,1,0,3:0:0:0:
321,216,6904,1,8,0:2:0:0:
224,384,7091,1,0,3:0:0:0:
224,384,7185,2,0,L|200:263,1,100,8|0,0:2|0:0,0:0:0:0:
160,220,7466,1,0,3:0:0:0:
329,323,7654,1,10,0:2:0:0:
129,384,7841,1,2,0:2:0:0:
129,384,7935,1,2,0:2:0:0:
129,384,8029,6,0,L|27:366,1,100,2|0,3:2|0:0,0:0:0:0:
0,301,8310,1,0,3:0:0:0:
0,301,8404,1,8,0:2:0:0:
139,128,8591,2,0,P|163:170|160:219,1,100,0|2,3:0|0:2,0:0:0:0:
12,96,8966,1,0,3:0:0:0:
194,21,9154,1,8,0:2:0:0:
69,202,9341,1,2,0:2:0:0:
69,202,9435,1,2,0:2:0:0:
69,202,9529,6,0,P|79:250|88:300,1,100,2|0,3:2|0:0,0:0:0:0:
115,381,9810,1,0,3:0:0:0:
115,381,9904,1,8,0:2:0:0:
264,211,10091,1,0,3:0:0:0:
264,211,10185,2,0,P|258:234|254:260,1,50,0|0,3:0|0:0,0:0:0:0:
207,384,10372,1,8,0:2:0:0:
207,384,10466,2,0,P|202:359|197:335,1,50,0|0,3:0|0:0,0:0:0:0:
161,236,10654,1,10,0:2:0:0:
358,297,10841,1,2,0:2:0:0:
358,297,10935,1,2,0:2:0:0:
358,297,11029,6,0,L|469:281,1,100,2|0,3:2|0:0,0:0:0:0:
480,256,11310,2,0,L|542:268,1,50,2|8,3:2|0:2,0:0:0:0:
388,108,11591,2,0,P|362:150|368:198,1,100,2|0,3:2|0:0,0:0:0:0:
512,77,11966,1,0,3:0:0:0:
302,8,12154,5,10,0:2:0:0:
252,3,12247,1,2,0:2:0:0:
209,26,12341,1,2,0:2:0:0:
184,68,12435,1,2,0:2:0:0:
186,118,12529,6,0,P|194:163|200:218,1,100,6|0,3:2|0:0,0:0:0:0:
211,299,12810,1,0,3:0:0:0:
211,299,12904,1,8,0:2:0:0:
12,235,13091,2,0,P|53:208|102:208,1,100,0|0,3:0|0:0,0:0:0:0:
304,320,13466,1,0,3:0:0:0:
136,384,13654,1,10,0:2:0:0:
287,209,13841,1,2,0:2:0:0:
287,209,13935,1,2,0:2:0:0:
287,209,14029,6,0,P|336:214|374:245,1,100,2|0,3:2|0:0,0:0:0:0:
416,316,14310,1,0,3:0:0:0:
416,316,14404,1,8,0:2:0:0:
510,140,14591,2,0,P|460:153|404:124,1,100,0|2,3:0|0:2,0:0:0:0:
362,85,14872,1,8,0:2:0:0:
362,85,14966,1,0,3:0:0:0:
188,198,15154,2,0,P|237:201|287:208,1,100,8|0,0:2|0:0,0:0:0:0:
122,98,15529,5,14,0:2:0:0:
294,334,15716,1,10,0:2:0:0:
294,352,16091,5,14,0:2:0:0:
248,66,16279,1,10,0:2:0:0:
256,43,16654,5,14,0:2:0:0:
48,259,16841,2,0,B|132:228|117:295|209:259,1,160,10|0,0:2|0:0,0:0:0:0:
365,121,17404,1,2,0:2:0:0:
319,141,17497,1,2,0:2:0:0:
293,183,17591,1,2,0:2:0:0:
292,231,17685,1,2,0:2:0:0:
319,274,17779,5,10,0:2:0:0:
341,262,17872,1,2,3:2:0:0:
366,251,17966,1,2,3:2:0:0:
389,241,18060,1,2,3:2:0:0:
412,232,18154,5,10,0:2:0:0:
414,219,18247,1,2,0:2:0:0:
416,207,18341,1,2,0:2:0:0:
418,195,18435,1,2,0:2:0:0:
421,182,18529,6,0,L|393:23,1,134.999995880127,6|0,3:2|3:0,0:0:0:0:
377,22,18904,1,10,0:2:0:0:
208,116,19091,2,0,L|324:135,1,89.9999972534181,2|2,3:2|0:2,0:0:0:0:
408,271,19466,1,2,3:2:0:0:
262,330,19654,1,10,0:2:0:0:
302,228,19841,1,2,0:2:0:0:
485,317,20029,6,0,P|421:303|373:347,1,134.999995880127,2|2,3:2|3:2,0:0:0:0:
368,384,20404,1,8,0:2:0:0:
488,216,20591,2,0,L|472:127,1,89.9999972534181,2|0,3:2|0:0,0:0:0:0:
282,104,20966,1,2,3:2:0:0:
399,0,21154,2,0,L|383:88,1,89.9999972534181,8|2,0:2|0:2,0:0:0:0:
257,235,21529,6,0,P|300:197|385:211,1,134.999995880127,2|0,3:2|3:0,0:0:0:0:
401,228,21904,1,10,0:2:0:0:
258,356,22091,2,0,L|144:340,1,89.9999972534181,2|0,3:2|0:0,0:0:0:0:
0,222,22466,1,2,3:2:0:0:
136,241,22654,1,8,0:2:0:0:
37,384,22841,1,2,3:2:0:0:
37,384,22935,1,0,3:0:0:0:
37,384,23029,6,0,L|46:317,1,44.999998626709,8|8,0:2|0:2,0:0:0:0:
136,241,23310,2,0,L|123:151,1,89.9999972534181,0|0,3:0|0:0,0:0:0:0:
29,116,23591,2,0,P|114:126|167:58,1,179.999994506836,0|0,3:0|3:0,0:0:0:0:
338,170,24154,1,8,0:2:0:0:
275,0,24341,1,8,0:2:0:0:
275,0,24435,1,8,0:2:0:0:
275,0,24529,6,0,L|251:132,1,134.999995880127,4|0,3:2|3:0,0:0:0:0:
243,172,24904,1,10,0:2:0:0:
439,86,25091,2,0,L|351:72,1,89.9999972534181,2|2,3:2|0:2,0:0:0:0:
501,180,25466,1,2,3:2:0:0:
512,20,25654,1,10,0:2:0:0:
374,166,25841,1,2,0:2:0:0:
511,319,26029,6,0,P|454:284|388:293,1,134.999995880127,2|2,3:2|3:2,0:0:0:0:
357,326,26404,1,8,0:2:0:0:
189,225,26591,2,0,L|303:205,1,89.9999972534181,2|0,3:2|0:0,0:0:0:0:
174,350,26966,1,2,3:2:0:0:
87,166,27154,2,0,L|68:263,1,89.9999972534181,10|2,0:2|0:2,0:0:0:0:
167,87,27529,6,0,B|129:60|129:60|41:69,1,134.999995880127,0|0,3:2|3:0,0:0:0:0:
8,97,27904,1,8,0:2:0:0:
187,189,28091,2,0,L|301:169,1,89.9999972534181,2|2,3:2|0:2,0:0:0:0:
467,142,28466,1,0,3:0:0:0:
373,0,28654,2,0,L|353:114,1,89.9999972534181,10|0,0:2|0:0,0:0:0:0:
370,266,29029,6,0,L|377:221,1,44.999998626709,10|8,0:2|0:2,0:0:0:0:
512,327,29310,2,0,L|424:342,1,89.9999972534181,0|0,3:0|0:0,0:0:0:0:
340,354,29591,2,0,P|383:361|423:342,1,89.9999972534181,2|2,3:2|0:2,0:0:0:0:
286,191,29966,1,0,3:0:0:0:
191,384,30154,1,8,0:2:0:0:
63,237,30341,1,8,0:2:0:0:
63,237,30435,1,8,0:2:0:0:
63,237,30529,6,0,L|222:265,1,134.999995880127,4|0,3:2|3:0,0:3:0:0:
230,270,30904,1,10,0:2:0:0:
302,83,31091,2,0,L|213:97,1,89.9999972534181,2|2,3:2|0:2,0:0:0:0:
38,8,31466,1,2,3:2:0:0:
139,164,31654,1,10,0:2:0:0:
161,0,31841,1,2,0:2:0:0:
30,152,32029,6,0,L|48:319,1,134.999995880127,2|2,3:2|3:2,0:0:0:0:
54,323,32404,1,8,0:2:0:0:
200,384,32591,2,0,L|212:295,1,89.9999972534181,2|0,3:2|0:0,0:0:0:0:
292,125,32966,1,2,3:2:0:0:
411,220,33154,2,0,B|372:244|372:244|328:242,1,89.9999972534181,10|2,0:2|0:2,0:3:0:0:
60,173,33529,6,0,P|103:128|177:133,1,134.999995880127,2|0,3:2|3:0,0:0:0:0:
200,151,33904,1,8,0:2:0:0:
271,343,34091,2,0,L|157:327,1,89.9999972534181,2|2,3:2|0:2,0:0:0:0:
0,237,34466,1,2,3:2:0:0:
51,384,34654,1,8,0:2:0:0:
151,239,34841,1,2,3:2:0:0:
151,239,34935,1,0,3:0:0:0:
151,239,35029,6,0,L|137:187,1,44.999998626709,8|8,0:2|0:2,0:0:0:0:
280,30,35310,2,0,L|258:133,1,89.9999972534181,0|0,3:0|0:0,0:0:0:0:
265,222,35591,2,0,L|470:189,1,179.999994506836,0|0,3:0|3:0,0:0:0:0:
262,118,36154,1,8,0:2:0:0:
385,0,36341,1,8,0:2:0:0:
385,0,36435,1,8,0:2:0:0:
385,0,36529,6,0,L|362:132,1,134.999995880127,4|0,3:2|3:0,0:0:0:0:
349,169,36904,1,10,0:2:0:0:
164,86,37091,2,0,L|183:195,1,89.9999972534181,2|2,3:2|0:2,0:0:0:0:
102,350,37466,1,2,3:2:0:0:
221,265,37654,1,10,0:2:0:0:
95,240,37841,1,2,0:2:0:0:
213,372,38029,6,0,L|346:349,1,134.999995880127,2|2,3:2|3:2,0:0:0:0:
386,343,38404,1,8,0:2:0:0:
340,147,38591,2,0,L|320:261,1,89.9999972534181,2|0,3:2|0:0,0:0:0:0:
489,350,38966,1,2,3:2:0:0:
437,216,39154,1,8,0:2:0:0:
221,265,39341,1,2,0:2:0:0:
221,265,39435,1,2,0:2:0:0:
221,265,39529,6,0,B|97:217|118:303|2:259,1,225.000008583069,14|2,0:2|0:2,0:0:0:0:
78,136,40279,6,0,L|66:184,1,50,10|0,0:2|0:0,0:0:0:0:
167,384,40560,2,0,L|153:324,1,50,10|0,0:2|0:0,0:0:0:0:
221,265,40747,1,0,3:0:0:0:
221,265,40841,6,0,P|274:306|356:291,1,150,14|0,0:2|0:0,0:0:0:0:
382,280,41216,1,0,3:0:0:0:
330,104,41404,2,0,L|307:207,1,100,8|2,0:2|3:2,0:0:0:0:
118,260,41779,1,8,0:2:0:0:
109,223,41872,1,8,0:2:0:0:
101,186,41966,1,2,3:2:0:0:
93,150,42060,1,0,0:0:0:0:
85,113,42154,2,0,P|136:93|187:108,1,100,10|2,0:2|0:2,0:0:0:0:
353,264,42529,6,0,P|310:280|257:259,1,100,4|0,3:0|0:0,0:0:0:0:
263,140,42810,2,0,P|309:123|355:141,1,100,8|0,0:2|0:0,0:0:0:0:
309,202,43091,2,0,L|313:47,1,150,0|0,3:0|0:0,0:0:0:0:
315,12,43466,1,2,3:2:0:0:
466,159,43654,2,0,L|468:59,1,100,10|2,0:2|0:2,0:0:0:0:
353,264,44029,6,0,P|398:262|442:297,1,100,0|0,3:0|0:0,0:0:0:0:
458,384,44310,2,0,P|433:345|442:289,1,100,8|0,0:2|0:0,0:0:0:0:
510,234,44591,2,0,P|488:274|436:294,1,100,2|2,3:2|0:2,0:0:0:0:
264,253,44966,1,2,3:2:0:0:
381,79,45154,2,0,L|368:179,1,100,10|2,0:2|0:2,0:0:0:0:
251,373,45529,6,0,P|206:385|155:359,1,100,2|0,3:2|0:0,0:0:0:0:
173,244,45810,2,0,P|220:231|264:253,1,100,8|0,0:2|0:0,0:0:0:0:
213,308,46091,2,0,L|203:158,1,150,2|0,3:2|0:0,0:0:0:0:
200,122,46466,1,2,3:2:0:0:
87,315,46654,1,8,0:2:0:0:
301,176,46841,6,0,B|377:167|377:167|419:190|419:190|520:177,1,200,6|0,3:2|3:0,0:0:0:0:
355,276,47404,1,8,0:2:0:0:
458,97,47591,1,2,3:2:0:0:
458,97,47685,1,0,3:0:0:0:
458,97,47779,1,10,0:2:0:0:
467,289,47966,1,2,3:2:0:0:
335,94,48154,1,10,0:2:0:0:
298,85,48247,1,8,0:2:0:0:
262,91,48341,1,2,3:2:0:0:
230,110,48435,1,0,3:0:0:0:
209,141,48529,6,0,L|220:218,1,59.9999981689454,4|0,3:0|0:0,0:0:0:0:
316,323,48904,2,0,L|324:263,1,59.9999981689454,0|2,3:0|0:2,0:0:0:0:
160,281,49279,6,0,L|229:290,1,69.9999978637696,2|2,3:2|0:2,0:0:0:0:
380,170,49654,2,0,L|310:179,1,69.9999978637696,2|2,3:2|0:2,0:0:0:0:
138,373,50029,6,0,L|228:385,1,80,0|2,3:0|0:2,0:0:0:0:
228,130,50404,2,0,L|148:141,1,80,0|2,3:0|0:2,0:0:0:0:
483,244,50779,6,0,L|500:154,1,89.9999972534181,2|2,3:2|0:2,0:0:0:0:
325,264,51154,1,2,3:2:0:0:
508,365,51341,1,10,0:2:0:0:
508,365,51435,1,8,0:2:0:0:
508,365,51529,6,0,P|459:341|392:367,1,100,0|0,3:0|0:0,0:0:0:0:
257,155,51904,1,8,0:2:0:0:
285,136,51997,1,8,0:2:0:0:
317,130,52091,1,8,0:2:0:0:
350,136,52185,1,8,0:2:0:0:
379,156,52278,1,8,0:2:0:0:
406,174,52372,1,8,0:2:0:0:
439,181,52466,1,8,0:2:0:0:
472,175,52560,1,8,0:2:0:0:
500,156,52654,2,0,L|511:100,1,50,10|2,0:2|0:2,0:0:0:0:
381,0,52841,2,0,L|390:49,1,50,2|2,0:2|0:2,0:0:0:0:
317,229,53029,5,14,0:2:0:0:
486,13,53310,5,10,0:2:0:0:
218,127,53591,6,0,P|140:92|202:34,1,200,14|2,0:2|0:2,0:0:0:0:
40,134,54154,6,0,P|28:109|36:64,1,60,2|0,3:2|0:2,0:0:0:0:
65,143,54529,6,0,L|84:271,1,129.999994049073,6|0,3:2|0:0,0:0:0:0:
104,352,54810,1,0,3:0:0:0:
104,352,54904,1,10,0:2:0:0:
248,147,55091,1,2,3:2:0:0:
248,147,55185,2,0,P|308:125|369:142,1,129.999994049073,8|0,0:2|0:0,0:0:0:0:
432,192,55466,1,2,3:2:0:0:
202,282,55654,1,8,0:2:0:0:
298,18,55841,1,2,0:2:0:0:
298,18,55935,1,2,0:2:0:0:
298,18,56029,6,0,L|443:34,1,129.999994049073,0|0,3:0|0:0,0:0:0:0:
508,50,56310,1,0,3:0:0:0:
508,50,56404,1,8,0:2:0:0:
370,263,56591,1,2,3:2:0:0:
370,263,56685,2,0,P|335:209|344:146,1,129.999994049073,8|0,0:2|0:0,0:0:0:0:
414,113,56966,1,2,3:2:0:0:
419,365,57154,1,10,0:2:0:0:
220,196,57341,1,2,0:2:0:0:
220,196,57435,1,2,0:2:0:0:
220,196,57529,6,0,B|154:185|154:185|99:216,1,129.999994049073,2|0,3:2|0:0,0:0:0:0:
36,268,57810,1,0,3:0:0:0:
36,268,57904,1,10,0:2:0:0:
312,354,58091,1,2,3:2:0:0:
312,354,58185,2,0,L|333:214,1,129.999994049073,8|0,0:2|0:0,0:0:0:0:
344,146,58466,1,2,3:2:0:0:
170,307,58654,1,8,0:2:0:0:
56,72,58841,1,2,0:2:0:0:
56,72,58935,1,2,0:2:0:0:
56,72,59029,6,0,B|122:83|122:83|177:52,1,129.999994049073,0|0,3:0|0:0,0:0:0:0:
246,20,59310,1,0,3:0:0:0:
246,20,59404,1,8,0:2:0:0:
408,156,59591,1,8,0:2:0:0:
408,156,59685,2,0,L|343:146,1,64.9999970245363,0|0,3:0|0:0,0:0:0:0:
482,36,59872,1,8,0:2:0:0:
482,36,59966,2,0,L|417:46,1,64.9999970245363,0|0,3:0|0:0,0:0:0:0:
330,64,60154,1,10,0:2:0:0:
454,334,60341,1,8,0:2:0:0:
454,334,60435,1,8,0:2:0:0:
454,334,60529,6,0,L|475:197,1,129.999994049073,6|0,3:2|0:0,0:0:0:0:
494,130,60810,1,0,3:0:0:0:
494,130,60904,1,10,0:2:0:0:
228,219,61091,1,2,3:2:0:0:
228,219,61185,2,0,P|292:210|349:253,1,129.999994049073,8|0,0:2|0:0,0:0:0:0:
353,323,61466,1,0,3:0:0:0:
166,116,61654,1,8,0:2:0:0:
392,148,61841,1,2,0:2:0:0:
213,357,62029,6,0,L|76:336,1,129.999994049073,2|2,3:2|0:2,0:0:0:0:
9,317,62310,1,0,3:0:0:0:
9,317,62404,1,8,0:2:0:0:
166,116,62591,1,2,3:2:0:0:
166,116,62685,2,0,P|201:168|191:231,1,129.999994049073,8|0,0:2|0:0,0:0:0:0:
156,301,62966,1,2,3:2:0:0:
63,61,63154,1,8,0:2:0:0:
9,317,63341,1,2,0:2:0:0:
256,75,63529,6,0,P|314:50|407:101,1,129.999994049073,2|0,3:2|0:0,0:0:0:0:
436,125,63810,1,0,3:0:0:0:
436,125,63904,1,10,0:2:0:0:
360,344,64091,1,2,3:2:0:0:
360,344,64185,2,0,L|337:195,1,129.999994049073,8|0,0:2|0:0,0:0:0:0:
324,137,64466,1,2,3:2:0:0:
512,309,64654,1,8,0:2:0:0:
479,39,64841,6,0,B|406:27|406:27|365:50|365:50|272:36,1,194.999991073609,6|0,3:2|0:0,0:0:0:0:
218,11,65216,1,0,3:0:0:0:
440,205,65404,1,8,0:2:0:0:
185,313,65591,1,2,3:2:0:0:
324,137,65779,1,8,0:2:0:0:
329,168,65872,1,8,0:2:0:0:
335,200,65966,1,2,3:2:0:0:
68,384,66154,1,10,0:2:0:0:
73,348,66248,1,8,0:2:0:0:
79,312,66342,1,10,0:2:0:0:
84,276,66436,1,8,0:2:0:0:
90,240,66529,6,0,P|147:192|223:216,1,129.999994049073,6|0,3:2|0:0,0:0:0:0:
265,253,66810,1,0,3:0:0:0:
265,253,66904,1,10,0:2:0:0:
84,47,67091,1,2,3:2:0:0:
84,47,67185,2,0,P|148:40|213:34,1,129.999994049073,8|0,0:2|0:0,0:0:0:0:
292,39,67466,1,2,3:2:0:0:
90,240,67654,1,8,0:2:0:0:
359,337,67841,1,2,0:2:0:0:
359,337,67935,1,2,0:2:0:0:
359,337,68029,6,0,P|395:285|385:222,1,129.999994049073,0|0,3:0|0:0,0:0:0:0:
326,178,68310,1,0,3:0:0:0:
326,178,68404,1,8,0:2:0:0:
179,373,68591,1,2,3:2:0:0:
179,373,68685,2,0,L|51:349,1,129.999994049073,0|8,3:0|0:2,0:0:0:0:
0,293,68966,1,2,3:2:0:0:
222,141,69154,1,10,0:2:0:0:
0,19,69341,1,2,0:2:0:0:
114,273,69529,6,0,L|89:138,1,129.999994049073,14|0,0:2|0:0,0:0:0:0:
87,72,69810,1,0,3:0:0:0:
87,72,69904,1,2,3:2:0:0:
312,252,70091,1,10,0:2:0:0:
51,349,70279,1,0,3:0:0:0:
221,111,70466,1,10,0:2:0:0:
359,376,70654,1,0,3:0:0:0:
67,246,70841,6,0,B|31:121|31:121|58:144|91:145,1,194.999991073609,14|0,0:2|0:0,0:0:0:0:
159,185,71216,1,0,3:0:0:0:
357,20,71404,1,8,0:2:0:0:
103,53,71591,1,2,3:2:0:0:
301,242,71779,1,8,0:2:0:0:
294,211,71872,1,8,0:2:0:0:
287,178,71966,2,0,L|270:99,1,64.9999970245363,2|0,3:2|0:0,0:0:0:0:
472,0,72154,1,10,0:2:0:0:
465,31,72247,1,8,0:2:0:0:
458,64,72341,2,0,L|441:143,1,64.9999970245363,2|0,3:2|0:0,0:0:0:0:
512,264,72529,5,14,0:2:0:0:
474,294,72622,1,2,0:2:0:0:
427,306,72716,1,2,0:2:0:0:
380,297,72810,1,2,0:2:0:0:
340,269,72904,1,10,0:2:0:0:
301,242,72998,1,2,0:2:0:0:
253,233,73092,1,2,3:2:0:0:
206,244,73186,1,2,0:2:0:0:
168,274,73279,5,10,0:2:0:0:
198,313,73372,1,2,0:2:0:0:
242,333,73466,1,2,3:2:0:0:
290,332,73560,1,2,0:2:0:0:
333,309,73654,1,10,0:2:0:0:
360,270,73747,1,2,0:2:0:0:
367,222,73841,1,2,3:2:0:0:
352,176,73935,1,2,0:2:0:0:
318,142,74029,5,10,0:2:0:0:
291,183,74122,1,2,0:2:0:0:
250,209,74216,1,2,0:2:0:0:
203,217,74310,1,2,0:2:0:0:
156,205,74404,1,10,0:2:0:0:
117,176,74497,1,2,0:2:0:0:
93,133,74591,1,2,3:2:0:0:
88,85,74685,1,2,0:2:0:0:
102,39,74779,5,10,0:2:0:0:
144,66,74872,1,2,0:2:0:0:
172,106,74966,1,2,3:2:0:0:
181,154,75060,1,2,0:2:0:0:
171,201,75154,1,10,0:2:0:0:
144,239,75247,1,2,0:2:0:0:
101,266,75341,1,2,3:2:0:0:
55,273,75435,1,2,0:2:0:0:
7,261,75529,5,10,0:2:0:0:
35,220,75622,1,2,0:2:0:0:
76,194,75716,1,2,0:2:0:0:
125,188,75810,1,2,0:2:0:0:
171,201,75904,1,2,3:2:0:0:
208,229,75997,1,2,0:2:0:0:
232,273,76091,1,2,3:2:0:0:
238,319,76185,1,2,0:2:0:0:
222,367,76279,6,0,L|144:352,1,64.9999970245363,10|0,0:2|0:0,0:0:0:0:
50,112,76466,2,0,L|113:99,1,64.9999970245363,10|0,0:2|0:0,0:0:0:0:
296,286,76654,2,0,L|232:273,1,64.9999970245363,10|0,0:2|0:0,0:0:0:0:
71,384,76841,6,0,L|99:191,1,194.999991073609,14|0,0:2|0:0,0:0:0:0:
114,99,77216,1,10,0:2:0:0:
320,384,77404,1,14,0:2:0:0:
320,384,77591,6,0,L|357:377,2,37.5000014305115,10|8|10,0:2|0:2|0:2,0:0:0:0:
355,219,77966,1,2,3:2:0:0:
512,384,78154,1,10,0:2:0:0:
469,367,78248,1,10,0:2:0:0:
442,330,78342,1,2,3:2:0:0:
438,284,78436,1,2,3:2:0:0:
460,243,78529,6,0,P|485:200|472:138,1,110.000003356934,14|0,0:2|0:0,0:0:0:0:
396,80,78810,2,0,P|420:123|480:142,1,110.000003356934,2|0,3:2|0:0,0:0:0:0:
477,58,79091,1,2,3:2:0:0:
355,219,79279,6,0,B|308:230|308:230|259:211,1,100,14|0,0:2|0:3,0:3:0:0:
165,205,79560,2,0,B|211:193|211:193|288:222,1,100,2|0,3:2|0:3,0:3:0:0:
316,145,79841,1,2,3:2:0:0:
171,365,80029,6,0,P|119:374|70:331,1,89.9999972534181,14|0,0:2|0:0,0:0:0:0:
53,281,80310,2,0,P|86:321|74:385,1,89.9999972534181,2|0,3:2|0:0,0:0:0:0:
3,351,80591,1,2,3:2:0:0:
0,160,80779,6,0,B|32:142|32:142|96:148,1,75.0000028610231,14|0,0:2|0:0,0:0:0:0:
141,132,81060,2,0,B|108:149|108:149|44:143,1,75.0000028610231,2|0,3:2|0:0,0:0:0:0:
93,64,81341,1,2,3:2:0:0:
282,207,81529,5,6,3:2:0:0:
288,174,81904,1,0,3:0:0:0:
294,141,82279,1,0,3:0:0:0:
300,108,82654,1,2,3:2:0:0:
179,270,82841,6,0,P|272:250|339:320,1,200,14|8,0:2|0:2,0:0:0:0:
493,384,83404,1,2,3:2:0:0:
465,358,83497,1,2,0:2:0:0:
452,323,83591,1,2,3:2:0:0:
456,286,83685,1,2,3:2:0:0:
476,255,83779,5,10,0:2:0:0:
489,233,83872,1,2,0:2:0:0:
494,209,83966,1,2,3:2:0:0:
492,185,84060,1,2,0:2:0:0:
481,162,84154,5,10,0:2:0:0:
470,155,84247,1,10,0:2:0:0:
458,151,84341,1,2,3:2:0:0:
446,150,84435,1,2,3:2:0:0:
433,153,84529,6,0,P|368:166|309:135,1,134.999995880127,6|0,3:2|3:0,0:0:0:0:
291,102,84904,1,10,0:2:0:0:
169,192,85091,1,2,3:2:0:0:
169,192,85185,2,0,L|181:89,1,89.9999972534181,8|0,0:2|0:0,0:0:0:0:
185,61,85466,1,2,3:2:0:0:
68,167,85654,2,0,L|78:256,1,89.9999972534181,10|2,0:2|0:2,0:0:0:0:
258,202,86029,6,0,L|242:336,1,134.999995880127,2|2,3:2|3:2,0:0:0:0:
239,375,86404,1,8,0:2:0:0:
427,296,86591,1,2,3:2:0:0:
427,296,86685,2,0,L|323:283,1,89.9999972534181,8|0,0:2|0:0,0:0:0:0:
293,276,86966,1,2,3:2:0:0:
331,113,87154,2,0,B|352:151|352:151|344:217,1,89.9999972534181,10|2,0:2|0:2,0:0:0:0:
167,257,87529,6,0,L|151:122,1,134.999995880127,2|2,3:2|3:2,0:0:0:0:
146,86,87904,1,8,0:2:0:0:
279,8,88091,1,2,3:2:0:0:
279,8,88185,2,0,L|379:20,1,89.9999972534181,8|0,0:2|0:0,0:0:0:0:
407,27,88466,1,2,3:2:0:0:
250,126,88654,1,8,0:2:0:0:
387,294,88841,1,2,3:2:0:0:
387,294,88935,1,0,3:0:0:0:
387,294,89029,6,0,L|376:357,1,44.999998626709,8|8,0:2|0:2,0:0:0:0:
358,189,89310,2,0,L|446:204,1,89.9999972534181,0|0,3:0|0:0,0:0:0:0:
512,287,89591,2,0,L|472:105,1,179.999994506836,0|0,3:0|3:0,0:0:0:0:
374,0,90154,1,8,0:2:0:0:
275,120,90341,1,8,0:2:0:0:
275,120,90435,1,8,0:2:0:0:
275,120,90529,6,0,P|229:136|144:87,1,134.999995880127,4|0,3:2|3:0,0:0:0:0:
146,60,90904,1,10,0:2:0:0:
19,149,91091,1,0,3:0:0:0:
19,149,91185,2,0,L|31:50,1,89.9999972534181,8|0,0:2|0:0,0:0:0:0:
47,26,91466,1,2,3:2:0:0:
107,184,91654,2,0,L|96:273,1,89.9999972534181,10|2,0:2|0:2,0:0:0:0:
275,120,92029,6,0,L|291:254,1,134.999995880127,2|2,3:2|3:2,0:0:0:0:
301,296,92404,1,8,0:2:0:0:
181,382,92591,1,2,3:2:0:0:
181,382,92685,2,0,L|191:292,1,89.9999972534181,8|0,0:2|0:0,0:0:0:0:
200,256,92966,1,2,3:2:0:0:
359,366,93154,2,0,B|320:388|320:388|275:383,1,89.9999972534181,8|2,0:2|0:2,0:0:0:0:
143,148,93529,6,0,L|277:164,1,134.999995880127,0|0,3:0|3:0,0:0:0:0:
319,174,93904,1,8,0:2:0:0:
433,82,94091,1,2,3:2:0:0:
433,82,94185,2,0,B|410:120|410:120|415:165,1,89.9999972534181,8|0,0:2|0:0,0:0:0:0:
429,199,94466,1,2,3:2:0:0:
512,326,94654,2,0,L|404:311,1,89.9999972534181,10|2,0:2|0:2,0:0:0:0:
310,130,95029,6,0,L|320:179,1,44.999998626709,10|8,0:2|0:2,0:0:0:0:
303,312,95310,2,0,L|213:299,1,89.9999972534181,0|0,3:0|0:0,0:0:0:0:
157,379,95591,2,0,B|149:339|108:303|108:303|144:268|156:201,1,179.999994506836,2|0,3:2|3:0,0:0:0:0:
55,48,96154,1,8,0:2:0:0:
249,95,96341,1,8,0:2:0:0:
249,95,96435,1,8,0:2:0:0:
249,95,96529,6,0,L|126:117,1,110.000003356934,4|0,3:0|0:0,0:0:0:0:
104,136,96810,1,0,3:0:0:0:
104,136,96904,1,10,0:2:0:0:
221,289,97091,1,2,3:2:0:0:
221,289,97185,1,8,0:2:0:0:
221,289,97279,2,0,P|250:244|240:191,1,110.000003356934,2|2,3:2|3:2,0:0:0:0:
127,356,97654,1,10,0:2:0:0:
308,384,97841,1,2,0:2:0:0:
150,227,98029,6,0,L|37:240,1,110.000003356934,2|0,3:2|0:0,0:0:0:0:
0,241,98310,1,2,3:2:0:0:
0,241,98404,1,8,0:2:0:0:
153,74,98591,1,2,3:2:0:0:
153,74,98685,1,8,0:2:0:0:
153,74,98779,1,0,3:0:0:0:
0,100,98966,1,2,3:2:0:0:
150,227,99154,2,0,L|259:214,1,110.000003356934,10|2,0:2|0:2,0:0:0:0:
385,108,99529,6,0,B|351:156|351:156|362:206,1,110.000003356934,2|0,3:2|0:0,0:0:0:0:
371,242,99810,1,0,3:0:0:0:
371,242,99904,1,8,0:2:0:0:
459,42,100091,1,2,3:2:0:0:
459,42,100185,1,8,0:2:0:0:
459,42,100279,2,0,P|419:5|365:5,1,110.000003356934,2|2,3:2|3:2,0:0:0:0:
259,214,100654,1,8,0:2:0:0:
445,149,100841,1,2,0:2:0:0:
445,149,100935,1,2,0:2:0:0:
445,149,101029,6,0,L|371:135,1,55.0000016784668,8|8,0:2|0:2,0:0:0:0:
216,35,101310,2,0,B|255:74|255:74|236:139,1,110.000003356934,0|0,3:0|0:0,0:0:0:0:
259,214,101591,2,0,B|181:207|181:207|135:234|135:234|25:226,1,220.000006713867,0|0,3:0|3:0,0:0:0:0:
213,303,102154,1,8,0:2:0:0:
110,140,102341,1,8,0:2:0:0:
110,140,102435,1,8,0:2:0:0:
110,140,102529,6,0,L|120:23,1,110.000003356934,4|0,3:2|0:0,0:0:0:0:
140,0,102810,1,0,3:0:0:0:
140,0,102904,1,10,0:2:0:0:
332,103,103091,1,2,3:2:0:0:
332,103,103185,1,8,0:2:0:0:
332,103,103279,2,0,P|268:99|213:147,1,110.000003356934,2|2,3:2|3:2,0:0:0:0:
121,309,103654,1,10,0:2:0:0:
299,197,103841,1,2,0:2:0:0:
119,30,104029,6,0,L|110:140,1,110.000003356934,2|0,3:2|0:0,0:0:0:0:
104,188,104310,1,2,3:2:0:0:
104,188,104404,1,8,0:2:0:0:
217,352,104591,1,2,3:2:0:0:
217,352,104685,1,8,0:2:0:0:
217,352,104779,2,0,L|207:242,1,110.000003356934,0|2,3:0|3:2,0:0:0:0:
332,103,105154,1,10,0:2:0:0:
296,294,105341,1,2,0:2:0:0:
168,147,105529,6,0,B|222:136|222:136|269:164,1,110.000003356934,0|0,3:0|0:3,0:3:0:0:
300,196,105810,1,0,3:0:0:0:
300,196,105904,1,8,0:2:0:0:
454,58,106091,1,2,3:2:0:0:
454,58,106185,1,8,0:2:0:0:
454,58,106279,2,0,L|437:182,1,110.000003356934,0|2,3:0|3:2,0:0:0:0:
317,356,106654,1,8,0:2:0:0:
202,165,106841,6,0,P|252:104|339:107,1,165.000005035401,6|0,3:2|0:0,0:0:0:0:
363,126,107216,1,0,3:0:0:0:
177,296,107404,1,8,0:2:0:0:
111,62,107591,1,2,3:2:0:0:
300,196,107779,1,10,0:2:0:0:
300,196,107872,1,8,0:2:0:0:
300,196,107966,1,2,3:2:0:0:
82,329,108154,1,10,0:2:0:0:
82,329,108247,1,0,3:0:0:0:
82,329,108341,2,0,L|72:270,1,55.0000016784668,2|0,3:2|3:0,0:0:0:0:
176,204,108529,6,0,P|160:247|181:300,1,100,4|0,3:0|0:0,0:0:0:0:
301,294,108810,2,0,P|318:248|300:202,1,100,8|0,0:2|0:0,0:0:0:0:
239,248,109091,2,0,L|394:244,1,150,0|0,3:0|0:0,0:0:0:0:
429,242,109466,1,2,3:2:0:0:
278,106,109654,2,0,L|178:108,1,100,10|2,0:2|0:2,0:0:0:0:
101,337,110029,6,0,P|137:297|138:231,1,100,0|0,3:0|0:0,0:0:0:0:
93,174,110310,2,0,P|108:225|165:259,1,100,8|0,0:2|0:0,0:0:0:0:
237,250,110591,2,0,P|185:237|127:270,1,100,2|2,3:2|0:2,0:0:0:0:
308,358,110966,1,2,3:2:0:0:
377,182,111154,2,0,L|358:64,1,100,10|2,0:2|0:2,0:0:0:0:
125,0,111529,6,0,P|168:-16|221:5,1,100,2|0,3:2|0:0,0:0:0:0:
215,125,111810,2,0,P|169:142|123:124,1,100,8|0,0:2|0:0,0:0:0:0:
170,62,112091,2,0,L|174:217,1,150,2|0,3:2|0:0,0:0:0:0:
175,248,112466,1,2,3:2:0:0:
308,384,112654,1,8,0:2:0:0:
485,240,112841,6,0,P|400:191|307:220,1,200,6|0,3:2|3:0,0:0:0:0:
156,342,113404,1,8,0:2:0:0:
215,125,113591,1,2,3:2:0:0:
394,290,113779,1,10,0:2:0:0:
317,64,113966,1,2,3:2:0:0:
174,234,114154,1,10,0:2:0:0:
140,249,114247,1,8,0:2:0:0:
103,252,114341,1,10,0:2:0:0:
67,241,114435,1,8,0:2:0:0:
37,219,114529,6,0,L|26:156,1,59.9999981689454,4|0,3:0|0:0,0:0:0:0:
124,62,114904,2,0,L|113:125,1,59.9999981689454,0|2,3:0|0:2,0:0:0:0:
186,303,115279,6,0,L|171:221,1,69.9999978637696,2|0,3:2|0:0,0:0:0:0:
256,40,115654,2,0,L|241:121,1,69.9999978637696,2|2,3:2|0:2,0:0:0:0:
308,339,116029,6,0,L|293:257,1,80,0|2,3:0|0:2,0:0:0:0:
393,23,116404,2,0,L|378:104,1,80,0|2,3:0|0:2,0:0:0:0:
436,378,116779,6,0,L|417:271,1,89.9999972534181,2|2,3:2|0:2,0:0:0:0:
244,109,117154,1,2,3:2:0:0:
186,303,117341,1,10,0:2:0:0:
186,303,117435,1,8,0:2:0:0:
186,303,117529,6,0,P|139:320|69:287,1,100,0|0,3:0|0:0,0:0:0:0:
1,108,117904,1,8,0:2:0:0:
29,89,117997,1,8,0:2:0:0:
61,83,118091,1,8,0:2:0:0:
94,89,118185,1,8,0:2:0:0:
123,109,118278,1,8,0:2:0:0:
150,127,118372,1,8,0:2:0:0:
183,134,118466,1,8,0:2:0:0:
216,128,118560,1,8,0:2:0:0:
244,109,118654,2,0,L|255:53,1,50,10|2,0:2|0:2,0:0:0:0:
376,0,118841,2,0,L|385:49,1,50,2|2,0:2|0:2,0:0:0:0:
454,162,119029,5,14,0:2:0:0:
175,44,119310,5,10,0:2:0:0:
301,261,119591,6,0,L|315:134,1,100,14|0,0:2|0:0,0:0:0:0:
172,347,119966,1,10,0:2:0:0:
201,331,120059,1,8,0:2:0:0:
234,329,120153,1,10,0:2:0:0:
264,341,120247,1,8,0:2:0:0:
294,354,120341,1,10,0:2:0:0:
327,352,120435,1,8,0:2:0:0:
357,336,120529,6,0,P|404:300|494:317,1,129.999994049073,6|0,3:2|0:0,0:0:0:0:
512,373,120810,1,0,3:0:0:0:
512,373,120904,1,10,0:2:0:0:
312,161,121091,1,2,3:2:0:0:
312,161,121185,2,0,L|165:173,1,129.999994049073,8|0,0:2|0:0,0:0:0:0:
103,177,121466,1,2,3:2:0:0:
338,53,121654,1,8,0:2:0:0:
264,341,121841,1,2,0:2:0:0:
264,341,121935,1,2,0:2:0:0:
264,341,122029,6,0,B|199:352|199:352|141:324,1,129.999994049073,0|0,3:0|0:0,0:0:0:0:
81,279,122310,1,0,3:0:0:0:
81,279,122404,1,8,0:2:0:0:
195,49,122591,1,2,3:2:0:0:
195,49,122685,2,0,L|207:196,1,129.999994049073,8|0,0:2|0:0,0:0:0:0:
211,258,122966,1,2,3:2:0:0:
74,21,123154,1,10,0:2:0:0:
303,116,123341,1,2,0:2:0:0:
303,116,123435,1,2,0:2:0:0:
303,116,123529,6,0,L|450:104,1,129.999994049073,2|0,3:2|0:0,0:0:0:0:
512,100,123810,1,0,3:0:0:0:
512,100,123904,1,10,0:2:0:0:
413,377,124091,1,2,3:2:0:0:
413,377,124185,2,0,B|381:321|381:321|396:254,1,129.999994049073,8|0,0:2|0:0,0:0:0:0:
452,200,124466,1,2,3:2:0:0:
261,366,124654,1,8,0:2:0:0:
174,103,124841,1,2,0:2:0:0:
174,103,124935,1,2,0:2:0:0:
174,103,125029,6,0,L|317:118,1,129.999994049073,0|0,3:0|0:0,0:0:0:0:
383,127,125310,1,0,3:0:0:0:
383,127,125404,1,8,0:2:0:0:
161,285,125591,1,8,0:2:0:0:
161,285,125685,2,0,L|147:216,1,64.9999970245363,0|0,3:0|0:0,0:0:0:0:
67,109,125872,1,8,0:2:0:0:
67,109,125966,2,0,L|53:178,1,64.9999970245363,0|0,3:0|0:0,0:0:0:0:
51,287,126154,1,10,0:2:0:0:
182,110,126341,1,8,0:2:0:0:
182,110,126435,1,8,0:2:0:0:
182,110,126529,6,0,P|245:84|327:103,1,129.999994049073,6|0,3:2|0:0,0:0:0:0:
383,127,126810,1,0,3:0:0:0:
383,127,126904,1,10,0:2:0:0:
293,380,127091,1,2,3:2:0:0:
293,380,127185,2,0,L|273:238,1,129.999994049073,8|0,0:2|0:0,0:0:0:0:
260,176,127466,1,0,3:0:0:0:
405,380,127654,1,8,0:2:0:0:
152,241,127841,1,2,0:2:0:0:
373,32,128029,6,0,B|319:1|319:1|244:15,1,129.999994049073,2|2,3:2|0:2,0:0:0:0:
177,33,128310,1,0,3:0:0:0:
177,33,128404,1,8,0:2:0:0:
275,251,128591,1,2,3:2:0:0:
275,251,128685,2,0,L|417:231,1,129.999994049073,8|0,0:2|0:0,0:0:0:0:
479,218,128966,1,2,3:2:0:0:
230,138,129154,1,8,0:2:0:0:
378,368,129341,1,2,0:2:0:0:
512,86,129529,6,0,B|458:55|458:55|383:69,1,129.999994049073,2|0,3:2|0:0,0:0:0:0:
316,87,129810,1,0,3:0:0:0:
316,87,129904,1,10,0:2:0:0:
137,242,130091,1,2,3:2:0:0:
137,242,130185,2,0,L|115:108,1,129.999994049073,8|0,0:2|0:0,0:0:0:0:
96,35,130466,1,2,3:2:0:0:
305,185,130654,1,8,0:2:0:0:
70,349,130841,6,0,B|150:339|150:339|187:365|187:365|269:356,1,194.999991073609,6|0,3:2|0:0,0:0:0:0:
326,325,131216,1,0,3:0:0:0:
116,114,131404,1,8,0:2:0:0:
391,67,131591,1,2,3:2:0:0:
174,253,131779,1,8,0:2:0:0:
169,284,131872,1,8,0:2:0:0:
163,316,131966,1,2,3:2:0:0:
209,75,132154,1,10,0:2:0:0:
185,32,132247,1,8,0:2:0:0:
144,6,132341,1,10,0:2:0:0:
96,2,132435,1,8,0:2:0:0:
52,22,132529,6,0,P|39:85|29:149,1,129.999994049073,6|0,3:2|0:0,0:0:0:0:
35,232,132810,1,0,3:0:0:0:
35,232,132904,1,10,0:2:0:0:
323,360,133091,1,2,3:2:0:0:
323,360,133185,2,0,P|344:297|317:227,1,129.999994049073,8|0,0:2|0:0,0:0:0:0:
263,188,133466,1,2,3:2:0:0:
76,384,133654,1,8,0:2:0:0:
116,114,133841,1,2,0:2:0:0:
116,114,133935,1,2,0:2:0:0:
116,114,134029,6,0,P|171:77|246:85,1,129.999994049073,0|0,3:0|0:0,0:0:0:0:
308,113,134310,1,0,3:0:0:0:
308,113,134404,1,8,0:2:0:0:
189,307,134591,1,2,3:2:0:0:
189,307,134685,2,0,L|37:286,1,129.999994049073,8|0,0:2|0:0,0:0:0:0:
0,237,134966,1,2,3:2:0:0:
207,176,135154,1,10,0:2:0:0:
78,384,135341,1,2,0:2:0:0:
0,93,135529,6,0,B|51:60|51:60|127:70,1,129.999994049073,14|0,0:2|0:0,0:0:0:0:
198,85,135810,1,0,3:0:0:0:
198,85,135904,1,2,3:2:0:0:
332,343,136091,1,10,0:2:0:0:
391,63,136279,1,0,3:0:0:0:
213,258,136466,1,10,0:2:0:0:
502,186,136654,1,0,3:0:0:0:
182,265,136841,6,0,B|52:238|52:238|88:229|106:209,1,194.999991073609,14|0,0:2|0:0,0:0:0:0:
137,135,137216,1,0,3:0:0:0:
306,376,137404,1,8,0:2:0:0:
363,115,137591,1,2,3:2:0:0:
182,265,137779,1,8,0:2:0:0:
213,258,137872,1,8,0:2:0:0:
246,251,137966,2,0,L|325:234,1,64.9999970245363,2|0,3:2|0:3,0:3:0:0:
491,143,138154,1,10,0:2:0:0:
460,136,138247,1,8,0:2:0:0:
427,129,138341,2,0,L|348:112,1,64.9999970245363,2|0,3:2|0:3,0:3:0:0:
157,7,138529,5,14,0:2:0:0:
187,44,138622,1,2,0:2:0:0:
198,91,138716,1,2,0:2:0:0:
187,138,138810,1,2,0:2:0:0:
156,174,138903,1,10,0:2:0:0:
124,210,138997,1,2,0:2:0:0:
112,257,139091,1,2,3:2:0:0:
123,304,139185,1,2,0:2:0:0:
154,341,139279,5,10,0:2:0:0:
189,308,139372,1,2,0:2:0:0:
205,262,139466,1,2,3:2:0:0:
196,215,139560,1,2,0:2:0:0:
165,178,139654,1,10,0:2:0:0:
120,161,139747,1,2,0:2:0:0:
72,168,139841,1,2,3:2:0:0:
34,197,139935,1,2,0:2:0:0:
15,241,140029,5,10,0:2:0:0:
52,271,140122,1,2,0:2:0:0:
99,281,140216,1,2,0:2:0:0:
146,271,140310,1,2,0:2:0:0:
182,240,140403,1,10,0:2:0:0:
218,208,140497,1,2,0:2:0:0:
265,196,140591,1,2,3:2:0:0:
312,207,140685,1,2,0:2:0:0:
349,238,140779,5,10,0:2:0:0:
377,199,140872,1,2,0:2:0:0:
388,151,140966,1,2,3:2:0:0:
378,104,141060,1,2,0:2:0:0:
350,65,141154,1,10,0:2:0:0:
308,40,141247,1,2,0:2:0:0:
260,35,141341,1,2,3:2:0:0:
214,49,141435,1,2,0:2:0:0:
178,82,141529,5,10,0:2:0:0:
197,126,141622,1,2,0:2:0:0:
233,158,141716,1,2,0:2:0:0:
279,174,141810,1,2,0:2:0:0:
327,169,141904,1,2,3:2:0:0:
369,145,141997,1,2,0:2:0:0:
397,106,142091,1,2,3:2:0:0:
408,59,142185,1,2,0:2:0:0:
398,11,142279,6,0,L|318:3,1,64.9999970245363,10|0,0:2|0:0,0:0:0:0:
283,267,142466,2,0,L|363:259,1,64.9999970245363,10|0,0:2|0:0,0:0:0:0:
462,113,142654,2,0,L|397:106,1,64.9999970245363,10|0,0:2|0:0,0:0:0:0:
267,366,142841,6,0,B|391:325|349:422|483:359,1,225.000008583069,14|2,0:2|0:2,0:0:0:0:
347,260,143779,2,0,P|272:262|202:289,1,150.000005722046,2|2,0:2|0:2,0:0:0:0:
12,377,144529,5,12,0:3:0:0:
54,292,144716,1,8,0:3:0:0:
182,371,144904,2,0,L|89:370,1,75.0000028610231,8|0,0:3|0:0,0:0:0:0:
1,214,145279,1,8,0:3:0:0:
1,214,145654,2,0,L|1:119,1,75.0000028610231,8|0,0:3|0:0,0:0:0:0:
120,12,146029,5,8,0:3:0:0:
162,97,146216,1,8,0:3:0:0:
315,16,146404,1,8,0:3:0:0:
315,16,146497,2,0,L|222:17,1,75.0000028610231,8|8,0:3|0:3,0:0:0:0:
215,19,146779,1,8,0:3:0:0:
215,175,147154,2,0,L|290:176,1,75.0000028610231,8|0,0:3|0:0,0:0:0:0:
480,190,147529,5,12,0:3:0:0:
438,105,147716,1,8,0:3:0:0:
385,183,147904,2,0,L|386:276,1,75.0000028610231,8|0,0:3|0:0,0:0:0:0:
474,359,148279,2,0,L|473:284,1,75.0000028610231,8|0,0:3|0:0,0:0:0:0:
385,183,148654,1,8,0:3:0:0:
299,286,148841,1,8,0:3:0:0:
299,286,148935,1,8,0:3:0:0:
299,286,149029,5,8,0:3:0:0:
222,229,149216,1,8,0:3:0:0:
223,384,149404,2,0,L|223:296,1,75.0000028610231,8|0,0:3|0:3,0:3:0:0:
145,172,149779,1,8,0:3:0:0:
37,270,149966,1,8,0:3:0:0:
37,270,150060,1,8,0:3:0:0:
37,270,150154,1,8,0:3:0:0:
55,269,150247,1,8,0:3:0:0:
74,269,150341,1,8,0:3:0:0:
93,269,150435,1,8,0:3:0:0:
111,269,150529,5,8,0:3:0:0:
117,103,150716,1,8,0:3:0:0:
158,188,150904,2,0,L|83:188,1,75.0000028610231,8|0,0:3|0:3,0:3:0:0:
83,15,151279,1,8,0:3:0:0:
83,15,151654,2,0,L|158:16,1,75.0000028610231,8|0,0:3|0:3,0:3:0:0:
300,99,152029,5,8,0:3:0:0:
254,185,152216,1,8,0:3:0:0:
254,185,152310,1,8,0:3:0:0:
254,185,152404,1,8,0:3:0:0:
253,213,152497,1,8,0:3:0:0:
253,241,152591,1,8,0:3:0:0:
253,269,152685,1,8,0:3:0:0:
254,297,152779,2,0,L|304:304,1,37.5000014305115,8|8,0:3|0:3,0:0:0:0:
375,227,152966,2,0,L|337:232,1,37.5000014305115,8|8,0:3|0:3,0:0:0:0:
379,367,153154,5,8,0:2:0:0:
379,367,153529,6,0,P|432:381|514:316,1,134.999995880127,6|0,3:2|3:0,0:0:0:0:
512,306,153904,1,8,0:2:0:0:
389,138,154091,2,0,L|371:251,1,89.9999972534181,6|0,3:2|0:0,0:0:0:0:
304,51,154466,1,0,3:2:0:0:
484,151,154654,1,8,0:2:0:0:
275,233,154841,6,0,P|208:224|140:217,1,134.999995880127,6|0,3:2|0:0,0:0:0:0:
100,221,155216,1,0,3:0:0:0:
261,129,155404,1,8,0:2:0:0:
131,0,155591,1,0,3:0:0:0:
130,0,155685,2,0,P|139:44|145:88,1,89.9999972534181,8|0,0:2|0:0,0:0:0:0:
153,124,155966,1,0,3:0:0:0:
232,0,156154,1,8,0:2:0:0:
53,76,156341,6,0,B|0:122|0:122|27:246,1,179.999994506836,14|0,0:2|0:0,0:0:0:0:
128,334,156904,1,0,3:0:0:0:
128,334,157091,1,0,3:0:0:0:
112,184,157279,1,2,3:2:0:0:
112,184,157466,1,0,3:0:0:0:
20,348,157654,1,0,3:0:0:0:
20,348,157841,1,0,3:0:0:0:
210,236,158029,5,10,0:2:0:0:
20,132,158216,1,8,0:2:0:0:
128,334,158404,1,8,0:2:0:0:
216,122,158591,1,10,0:2:0:0:
306,342,158779,1,8,0:2:0:0:
112,184,158966,1,10,0:2:0:0:
373,122,159154,1,10,0:2:0:0:
167,339,159341,6,0,L|128:334,1,40,10|0,0:2|0:0,0:0:0:0:
306,342,160279,6,0,P|278:300|281:251,1,100,14|0,0:2|0:0,0:0:0:0:
299,221,160560,2,0,P|321:211|346:209,1,50,10|0,0:2|0:0,0:0:0:0:
358,122,160747,1,0,3:0:0:0:
358,122,160841,6,0,B|279:100|299:156|213:125,1,150,14|0,0:2|0:0,0:0:0:0:
186,102,161216,1,0,3:0:0:0:
104,299,161404,1,8,0:2:0:0:
0,155,161591,1,2,3:2:0:0:
0,155,161685,1,0,3:0:0:0:
0,155,161779,1,10,0:2:0:0:
35,142,161872,1,8,0:2:0:0:
71,146,161966,1,2,3:2:0:0:
103,165,162060,1,0,3:0:0:0:
124,196,162155,1,10,0:2:0:0:
141,213,162248,1,8,0:2:0:0:
164,224,162342,1,2,3:2:0:0:
189,226,162436,1,0,3:0:0:0:
213,219,162529,6,0,P|290:198|354:253,1,150,6|0,3:2|3:0,0:0:0:0:
358,273,162904,1,10,0:2:0:0:
174,356,163091,1,2,3:2:0:0:
174,356,163185,2,0,L|53:341,1,100,8|0,0:2|0:0,0:0:0:0:
38,330,163466,1,2,3:2:0:0:
184,133,163654,1,8,0:2:0:0:
310,352,163841,6,0,P|376:372|447:302,1,150,6|0,3:2|0:0,0:0:0:0:
460,297,164216,1,0,3:0:0:0:
292,135,164404,1,8,0:2:0:0:
174,356,164591,1,2,3:2:0:0:
83,102,164779,1,10,0:2:0:0:
281,249,164966,1,2,3:2:0:0:
349,40,165154,1,10,0:2:0:0:
317,20,165247,1,8,0:2:0:0:
280,14,165341,1,10,0:2:0:0:
244,23,165435,1,8,0:2:0:0:
214,45,165529,6,0,L|133:36,1,80,4|0,3:0|0:0,0:0:0:0:
42,205,165904,2,0,L|123:196,1,80,0|2,3:0|0:2,0:0:0:0:
288,114,166279,6,0,L|272:215,1,89.9999972534181,2|2,3:2|0:2,0:0:0:0:
194,384,166654,2,0,L|179:295,1,89.9999972534181,2|2,3:2|0:2,0:0:0:0:
215,51,167029,5,8,0:2:0:0:
245,30,167122,1,8,0:2:0:0:
282,21,167216,1,10,0:2:0:0:
319,26,167310,1,8,0:2:0:0:
352,44,167403,1,8,0:2:0:0:
384,61,167497,1,8,0:2:0:0:
421,66,167591,1,10,0:2:0:0:
458,57,167685,1,8,0:2:0:0:
489,37,167779,5,10,0:2:0:0:
461,11,167872,1,8,0:2:0:0:
425,1,167966,1,10,0:2:0:0:
389,8,168060,1,8,0:2:0:0:
360,31,168154,1,0,3:2:0:0:
344,65,168247,1,2,3:2:0:0:
346,102,168341,1,0,3:0:0:0:
364,135,168435,1,0,3:0:0:0:
395,155,168529,6,0,P|422:205|410:270,1,110.000003356934,10|0,0:2|3:0,0:0:0:0:
240,383,168904,1,0,3:0:0:0:
93,188,169091,2,0,L|221:206,1,110.000003356934,8|2,0:2|3:2,0:0:0:0:
275,242,169372,1,0,3:0:0:0:
275,242,169466,1,2,3:2:0:0:
86,68,169654,1,10,0:2:0:0:
71,319,169841,1,2,0:2:0:0:
71,319,169935,1,2,0:2:0:0:
71,319,170029,5,14,0:2:0:0:
218,78,170310,5,10,0:2:0:0:
347,319,170591,6,0,P|301:347|247:340,1,110.000003356934,14|0,0:2|0:0,0:0:0:0:
26,235,170966,1,8,0:2:0:0:
33,199,171059,1,8,0:2:0:0:
40,163,171153,1,8,0:2:0:0:
47,127,171247,1,8,0:2:0:0:
54,91,171341,1,8,0:2:0:0:
61,55,171434,1,8,0:2:0:0:
68,20,171529,6,0,P|92:9|140:11,1,55.0000016784668,6|0,3:2|0:0,0:0:0:0:
170,158,171716,1,8,0:2:0:0:
170,158,171810,2,0,P|149:142|126:99,1,55.0000016784668,2|0,3:2|0:0,0:0:0:0:
240,0,171997,1,8,0:2:0:0:
240,0,172091,2,0,P|236:26|210:67,1,55.0000016784668,6|0,3:2|0:0,0:0:0:0:
243,245,172279,5,8,0:2:0:0:
265,210,172372,1,0,3:0:0:0:
300,190,172466,1,2,3:2:0:0:
341,186,172560,1,0,3:0:0:0:
379,201,172654,2,0,P|411:244|409:316,1,110.000003356934,10|2,0:2|0:2,0:0:0:0:
204,384,173029,6,0,L|63:366,1,129.999994049073,6|0,3:2|0:0,0:0:0:0:
1,349,173310,1,0,3:0:0:0:
1,349,173404,1,10,0:2:0:0:
146,95,173591,1,2,3:2:0:0:
146,95,173685,2,0,B|184:148|184:148|171:221,1,129.999994049073,8|0,0:2|0:0,0:0:0:0:
157,290,173966,1,2,3:2:0:0:
0,90,174154,1,8,0:2:0:0:
250,31,174341,1,2,0:2:0:0:
250,31,174435,1,2,0:2:0:0:
250,31,174529,6,0,L|408:50,1,129.999994049073,0|0,3:0|0:0,0:0:0:0:
459,60,174810,1,0,3:0:0:0:
459,60,174904,1,8,0:2:0:0:
326,324,175091,1,2,3:2:0:0:
326,324,175185,2,0,B|288:271|288:271|301:198,1,129.999994049073,8|0,0:2|0:0,0:0:0:0:
315,128,175466,1,2,3:2:0:0:
420,384,175654,1,10,0:2:0:0:
206,220,175841,1,2,0:2:0:0:
206,220,175935,1,2,0:2:0:0:
206,220,176029,6,0,L|44:234,1,129.999994049073,2|0,3:2|0:0,0:0:0:0:
0,237,176310,1,0,3:0:0:0:
0,237,176404,1,10,0:2:0:0:
248,333,176591,1,2,3:2:0:0:
248,333,176685,2,0,L|410:319,1,129.999994049073,8|0,0:2|0:0,0:0:0:0:
454,316,176966,1,2,3:2:0:0:
280,127,177154,1,8,0:2:0:0:
495,0,177341,1,2,0:2:0:0:
495,0,177435,1,2,0:2:0:0:
495,0,177529,6,0,L|458:145,1,129.999994049073,0|0,3:0|0:0,0:0:0:0:
446,204,177810,1,0,3:0:0:0:
446,204,177904,1,8,0:2:0:0:
266,63,178091,1,8,0:2:0:0:
266,63,178185,2,0,L|285:149,1,64.9999970245363,0|0,3:0|0:0,0:0:0:0:
158,248,178372,1,8,0:2:0:0:
158,248,178466,2,0,L|177:162,1,64.9999970245363,0|0,3:0|0:0,0:0:0:0:
173,92,178654,1,10,0:2:0:0:
355,313,178841,1,8,0:2:0:0:
355,313,178935,1,8,0:2:0:0:
355,313,179029,6,0,P|288:302|226:349,1,129.999994049073,6|0,3:2|0:0,0:0:0:0:
179,384,179310,1,0,3:0:0:0:
179,384,179404,1,10,0:2:0:0:
371,203,179591,1,2,3:2:0:0:
371,203,179685,2,0,B|397:144|397:144|374:75,1,129.999994049073,8|0,0:2|0:0,0:0:0:0:
327,19,179966,1,0,3:0:0:0:
158,248,180154,1,8,0:2:0:0:
0,41,180341,1,2,0:2:0:0:
0,41,180435,1,2,0:2:0:0:
0,41,180529,6,0,L|144:57,1,129.999994049073,2|2,3:2|0:2,0:0:0:0:
211,66,180810,1,0,3:0:0:0:
211,66,180904,1,8,0:2:0:0:
85,326,181091,1,2,3:2:0:0:
85,326,181185,2,0,B|49:276|49:276|66:162,1,129.999994049073,8|0,0:2|0:0,0:0:0:0:
73,130,181466,1,2,3:2:0:0:
232,384,181654,1,8,0:2:0:0:
393,141,181841,1,2,0:2:0:0:
393,141,181935,1,2,0:2:0:0:
393,141,182029,6,0,L|419:292,1,129.999994049073,2|0,3:2|0:0,0:0:0:0:
441,349,182310,1,0,3:0:0:0:
441,349,182404,1,10,0:2:0:0:
244,162,182591,1,2,3:2:0:0:
244,162,182685,2,0,P|164:152|102:215,1,129.999994049073,8|0,0:2|0:0,0:0:0:0:
94,251,182966,1,2,3:2:0:0:
224,34,183154,1,8,0:2:0:0:
415,269,183341,6,0,L|197:311,1,194.999991073609,6|0,3:2|0:0,0:0:0:0:
145,323,183716,1,0,3:0:0:0:
378,109,183904,1,8,0:2:0:0:
342,379,184091,1,2,3:2:0:0:
195,160,184279,1,8,0:2:0:0:
190,192,184372,1,8,0:2:0:0:
185,224,184466,1,2,3:2:0:0:
308,23,184654,1,10,0:2:0:0:
351,1,184747,1,8,0:2:0:0:
399,0,184841,1,10,0:2:0:0:
443,20,184935,1,8,0:2:0:0:
475,57,185029,6,0,L|461:204,1,129.999994049073,6|0,3:2|0:0,0:0:0:0:
452,269,185310,1,0,3:0:0:0:
452,269,185404,1,10,0:2:0:0:
262,105,185591,1,2,3:2:0:0:
262,105,185685,2,0,P|203:78|141:92,1,129.999994049073,8|0,0:2|0:0,0:0:0:0:
84,146,185966,1,2,3:2:0:0:
334,241,186154,1,8,0:2:0:0:
121,352,186341,1,2,0:2:0:0:
121,352,186435,1,2,0:2:0:0:
121,352,186529,6,0,L|145:216,1,129.999994049073,0|0,3:0|0:0,0:0:0:0:
197,167,186810,1,0,3:0:0:0:
197,167,186904,1,8,0:2:0:0:
419,312,187091,1,2,3:2:0:0:
419,312,187185,2,0,B|365:347|365:347|286:334,1,129.999994049073,8|0,0:2|0:0,0:0:0:0:
228,304,187466,1,2,3:2:0:0:
459,135,187654,1,10,0:2:0:0:
207,31,187841,1,2,0:2:0:0:
207,31,187935,1,2,0:2:0:0:
207,31,188029,6,0,L|46:51,1,129.999994049073,6|0,3:2|0:0,0:0:0:0:
2,59,188310,1,0,3:0:0:0:
2,59,188404,1,10,0:2:0:0:
231,223,188591,1,2,3:2:0:0:
231,223,188685,2,0,L|70:243,1,129.999994049073,0|0,3:0|0:0,0:0:0:0:
25,247,188966,1,2,3:2:0:0:
226,125,189154,1,8,0:2:0:0:
106,345,189341,6,0,B|179:336|179:336|219:360|219:360|348:346,1,194.999991073609,6|0,3:2|0:0,0:0:0:0:
362,308,189716,1,0,3:0:0:0:
107,154,189904,1,8,0:2:0:0:
314,0,190091,2,0,B|365:46|365:46|328:200,1,194.999991073609,6|0,3:2|0:0,0:0:0:0:
291,238,190466,1,2,3:2:0:0:
98,12,190654,1,10,0:2:0:0:
43,331,190841,1,2,3:2:0:0:
249,112,191029,5,14,0:2:0:0:
286,81,191122,1,2,0:2:0:0:
334,73,191216,1,2,0:2:0:0:
379,89,191310,1,2,0:2:0:0:
411,125,191404,1,10,0:2:0:0:
421,172,191497,1,2,0:2:0:0:
408,219,191591,1,2,3:2:0:0:
373,252,191685,1,2,0:2:0:0:
326,265,191779,5,10,0:2:0:0:
318,217,191872,1,2,0:2:0:0:
335,172,191966,1,2,3:2:0:0:
371,140,192060,1,2,0:2:0:0:
419,131,192154,1,10,0:2:0:0:
465,145,192247,1,2,0:2:0:0:
498,180,192341,1,2,3:2:0:0:
510,227,192435,1,2,0:2:0:0:
497,274,192529,5,10,0:2:0:0:
459,304,192622,1,2,0:2:0:0:
412,316,192716,1,2,0:2:0:0:
365,307,192810,1,2,0:2:0:0:
325,279,192904,1,10,0:2:0:0:
286,252,192998,1,2,0:2:0:0:
238,243,193092,1,2,3:2:0:0:
191,254,193186,1,2,0:2:0:0:
153,284,193279,5,10,0:2:0:0:
182,321,193372,1,2,0:2:0:0:
227,339,193466,1,2,3:2:0:0:
275,332,193560,1,2,0:2:0:0:
312,302,193654,1,10,0:2:0:0:
330,257,193747,1,2,0:2:0:0:
322,210,193841,1,2,3:2:0:0:
291,172,193935,1,2,0:2:0:0:
247,156,194029,5,10,0:2:0:0:
232,201,194122,1,2,0:2:0:0:
243,248,194216,1,2,0:2:0:0:
276,284,194310,1,2,0:2:0:0:
323,297,194404,1,2,3:2:0:0:
370,285,194497,1,2,0:2:0:0:
404,251,194591,1,2,3:2:0:0:
417,205,194685,1,2,0:2:0:0:
405,159,194779,6,0,P|382:127|341:110,1,64.9999970245363,10|0,0:2|0:0,0:0:0:0:
452,331,194966,2,0,P|490:327|525:299,1,64.9999970245363,10|0,0:2|0:0,0:0:0:0:
276,284,195154,2,0,P|259:319|266:363,1,64.9999970245363,10|0,0:2|0:0,0:0:0:0:
325,201,195341,6,0,B|251:189|251:189|206:213|206:213|137:202,1,194.999991073609,14|0,0:2|0:0,0:0:0:0:
57,168,195716,1,10,0:2:0:0:
401,22,195904,1,14,0:2:0:0:
387,113,196279,5,2,0:2:0:0:
374,204,196654,6,0,B|240:155|273:258|128:198,1,244.999992523194,2|0,0:2|0:0,0:0:0:0:
0,314,198154,5,8,0:3:0:0:
34,299,198247,1,2,0:2:0:0:
71,297,198341,1,2,0:2:0:0:
106,310,198435,1,2,0:2:0:0:
134,334,198529,6,0,P|192:355|250:331,1,100,6|0,3:2|0:0,0:0:0:0:
288,298,198810,1,0,3:0:0:0:
288,298,198904,1,8,0:2:0:0:
219,87,199091,1,0,3:0:0:0:
219,87,199185,2,0,L|202:202,1,100,8|0,0:2|0:0,0:0:0:0:
192,265,199466,1,0,3:0:0:0:
379,338,199654,2,0,B|393:291|393:291|373:243,1,100,10|0,0:2|0:0,0:0:0:0:
512,102,200029,6,0,B|464:121|464:121|417:107,1,100,2|0,3:2|0:0,0:0:0:0:
346,82,200310,1,0,3:0:0:0:
346,82,200404,1,8,0:2:0:0:
204,185,200591,1,0,3:0:0:0:
204,185,200685,2,0,L|219:87,1,100,8|0,0:2|0:0,0:0:0:0:
233,8,200966,1,0,3:0:0:0:
296,177,201154,1,8,0:2:0:0:
118,101,201341,1,0,0:0:0:0:
60,317,201529,6,0,B|107:297|107:297|154:311,1,100,2|0,3:2|0:0,0:0:0:0:
230,343,201810,1,0,3:0:0:0:
230,343,201904,1,8,0:2:0:0:
296,177,202091,1,0,3:0:0:0:
296,177,202185,2,0,L|323:294,1,100,8|0,0:2|0:0,0:0:0:0:
352,347,202466,1,0,3:0:0:0:
497,215,202654,2,0,B|449:195|449:195|402:209,1,100,10|0,0:2|0:0,0:0:0:0:
206,233,203029,6,0,L|89:206,1,100,2|0,3:2|0:0,0:0:0:0:
33,202,203310,2,0,L|96:190,1,50,2|8,3:2|0:2,0:0:0:0:
249,108,203591,1,2,3:2:0:0:
249,108,203685,2,0,B|202:129|202:129|155:117,1,100,8|0,0:2|0:0,0:0:0:0:
84,83,203966,1,0,3:0:0:0:
226,12,204154,5,10,0:2:0:0:
275,6,204247,1,2,0:2:0:0:
318,29,204341,1,2,0:2:0:0:
343,70,204435,1,2,0:2:0:0:
342,120,204529,6,0,P|333:169|327:218,1,100,6|0,3:2|0:0,0:0:0:0:
321,299,204810,1,0,3:0:0:0:
321,299,204904,1,8,0:2:0:0:
181,191,205091,1,0,3:0:0:0:
181,191,205185,2,0,P|189:240|195:289,1,100,8|0,0:2|0:0,0:0:0:0:
183,367,205466,1,0,3:0:0:0:
4,290,205654,2,0,B|46:263|46:263|108:271,1,100,10|0,0:2|0:0,0:0:0:0:
195,99,206029,6,0,B|145:105|145:105|103:78,1,100,2|0,3:2|0:0,0:0:0:0:
68,14,206310,1,0,3:0:0:0:
68,14,206404,1,8,0:2:0:0:
277,34,206591,1,0,3:0:0:0:
277,34,206685,2,0,L|294:165,1,100,8|0,0:2|0:0,0:0:0:0:
300,211,206966,1,0,3:0:0:0:
144,370,207154,1,8,0:2:0:0:
180,192,207341,1,0,0:0:0:0:
367,301,207529,6,0,B|323:323|323:323|253:310,1,100,2|0,3:2|0:0,0:0:0:0:
202,287,207810,1,0,3:0:0:0:
202,287,207904,1,8,0:2:0:0:
408,203,208091,1,0,3:0:0:0:
408,203,208185,2,0,B|449:230|449:230|472:297,1,100,8|0,0:2|0:0,0:0:0:0:
442,354,208466,1,0,3:0:0:0:
300,211,208654,2,0,L|313:86,1,100,8|0,0:2|0:0,0:0:0:0:
109,276,209029,6,0,P|157:266|202:287,1,100,2|0,3:2|0:0,0:0:0:0:
211,355,209310,2,0,P|200:332|198:307,1,50,2|8,3:2|0:2,0:0:0:0:
375,160,209591,1,2,3:2:0:0:
393,192,209685,1,0,3:0:0:0:
395,229,209779,1,0,3:0:0:0:
379,263,209873,1,8,0:2:0:0:
350,285,209966,1,0,3:0:0:0:
267,120,210154,5,10,0:2:0:0:
278,71,210247,1,10,0:2:0:0:
314,39,210341,1,10,0:2:0:0:
361,29,210435,1,10,0:2:0:0:
408,47,210529,6,0,P|446:75|474:134,1,100,6|0,3:2|0:0,0:0:0:0:
496,202,210810,1,0,3:0:0:0:
496,202,210904,1,8,0:2:0:0:
350,285,211091,1,0,3:0:0:0:
350,285,211185,2,0,P|300:279|250:275,1,100,8|0,0:2|0:0,0:0:0:0:
171,274,211466,1,0,3:0:0:0:
158,94,211654,2,0,B|193:132|193:132|188:196,1,100,10|0,0:2|0:0,0:0:0:0:
92,343,212029,6,0,L|58:227,1,100,2|0,3:2|0:0,0:0:0:0:
93,178,212310,1,0,3:0:0:0:
93,178,212404,1,8,0:2:0:0:
244,371,212591,1,0,3:0:0:0:
244,371,212685,2,0,L|360:337,1,100,8|0,0:2|0:3,0:3:0:0:
412,319,212966,1,0,3:0:0:0:
306,151,213154,1,8,0:2:0:0:
468,192,213341,1,0,0:0:0:0:
271,264,213529,6,0,L|175:235,1,100,2|0,3:2|0:3,0:3:0:0:
105,210,213810,1,0,3:0:0:0:
105,210,213904,1,8,0:2:0:0:
178,34,214091,1,0,3:0:0:0:
178,34,214185,2,0,B|226:30|226:30|264:65,1,100,8|0,0:2|0:0,0:0:0:0:
283,140,214466,1,0,3:0:0:0:
82,98,214654,2,0,L|60:-28,1,100,10|0,0:2|0:0,0:0:0:0:
192,137,215029,6,0,L|174:235,1,100,2|0,3:2|0:0,0:0:0:0:
117,278,215310,2,0,L|166:266,1,50,2|8,3:2|0:2,0:0:0:0:
349,308,215591,1,2,3:2:0:0:
349,308,215685,2,0,B|307:286|307:286|256:295,1,100,8|0,0:2|0:0,0:0:0:0:
195,346,215966,1,0,3:0:0:0:
422,384,216154,5,10,0:2:0:0:
458,349,216247,1,2,0:2:0:0:
468,302,216341,1,10,0:2:0:0:
453,257,216435,1,10,0:2:0:0:
414,225,216529,6,0,P|391:175|412:128,1,100,6|0,3:2|0:0,0:0:0:0:
464,86,216810,1,0,3:0:0:0:
464,86,216904,1,8,0:2:0:0:
313,214,217091,1,0,3:0:0:0:
313,214,217185,2,0,B|262:223|262:223|220:201,1,100,8|0,0:2|0:0,0:0:0:0:
157,148,217466,1,0,3:0:0:0:
261,19,217654,2,0,L|280:140,1,100,10|0,0:2|0:0,0:0:0:0:
95,308,218029,6,0,L|76:187,1,100,2|0,3:2|0:0,0:0:0:0:
63,133,218310,1,0,3:0:0:0:
63,133,218404,1,8,0:2:0:0:
236,221,218591,2,0,B|282:237|282:237|328:216,1,100,0|2,3:0|0:2,0:0:0:0:
400,183,218872,1,8,0:2:0:0:
400,183,218966,1,0,3:0:0:0:
190,310,219154,1,8,0:2:0:0:
277,118,219341,1,0,3:0:0:0:
277,118,219435,1,0,3:0:0:0:
277,118,219529,5,14,0:2:0:0:
416,384,219716,1,10,0:2:0:0:
395,384,220091,5,14,0:2:0:0:
471,102,220279,1,10,0:2:0:0:
482,116,220654,5,14,0:2:0:0:
209,220,220841,1,10,0:2:0:0:
256,192,221029,12,0,230029,0:0:0:0:
