osu file format v14

[General]
AudioFilename: audio.mp3
AudioLeadIn: 0
PreviewTime: 51324
Countdown: 0
SampleSet: Soft
StackLeniency: 0.7
Mode: 0
LetterboxInBreaks: 0
WidescreenStoryboard: 0

[Editor]
Bookmarks: 2856,14856,26856,38856,44856,52356,58356,64356,70356,83668
DistanceSpacing: 1
BeatDivisor: 4
GridSize: 32
TimelineZoom: 2

[Metadata]
Title:Azalea
TitleUnicode:アザレア
Artist:nano.RIPE
ArtistUnicode:nano.RIPE
Creator:Mir
Version:Yurimouto
Source:citrus
Tags:mirakura hakura lantis infinite funimation passione 藍原 芽衣 Mei Aihara 藍原 柚子 Yuzu Aihara サブロウタ Saburouta
BeatmapID:1526562
BeatmapSetID:723193

[Difficulty]
HPDrainRate:5
CircleSize:4.5
OverallDifficulty:8.7
ApproachRate:9
SliderMultiplier:2
SliderTickRate:1

[Events]
//Background and Video events
0,0,"citrus.jpg",0,0
//Break Periods
//Storyboard Layer 0 (Background)
//Storyboard Layer 1 (Fail)
//Storyboard Layer 2 (Pass)
//Storyboard Layer 3 (Foreground)
//Storyboard Sound Samples

[TimingPoints]
2856,375,4,2,1,60,1,0
35856,-200,4,2,1,60,0,0
36606,-100,4,2,1,60,0,0
51981,-200,4,2,1,60,0,0
52356,-66.6666666666667,4,2,1,80,0,1
73637,-66.6666666666667,4,2,1,5,0,1
73731,-66.6666666666667,4,2,1,80,0,1
75606,-100,4,2,1,60,0,0
77481,-100,4,2,0,60,0,0
77856,-100,4,2,1,60,0,0
87043,-100,4,2,1,5,0,0

[Colours]
Combo1 : 255,202,255
Combo2 : 253,223,179
Combo3 : 255,189,157
Combo4 : 250,163,175

[HitObjects]
59,278,981,5,0,1:0:0:0:
59,278,1074,2,0,L|70:203,1,50,4|0,0:3|0:0,0:0:0:0:
134,139,1262,2,0,L|141:188,1,50,0|4,1:0|0:3,0:0:0:0:
69,79,1449,1,0,1:0:0:0:
69,79,1543,1,0,1:0:0:0:
309,19,1731,5,4,1:3:0:0:
309,19,1918,2,0,L|293:87,1,50,0|0,1:0|1:0,0:0:0:0:
270,148,2106,1,4,1:3:0:0:
260,176,2199,1,0,1:0:0:0:
253,205,2293,1,0,1:0:0:0:
245,234,2387,1,0,1:0:0:0:
237,262,2481,5,6,0:3:0:0:
191,227,2574,1,2,0:0:0:0:
136,215,2668,1,2,0:0:0:0:
81,228,2762,1,2,0:0:0:0:
28,282,2856,6,0,L|50:114,1,150,4|4,0:3|0:3,0:0:0:0:
61,50,3231,1,0,1:0:0:0:
229,134,3418,1,4,0:3:0:0:
229,134,3512,1,0,1:0:0:0:
229,134,3606,1,4,0:3:0:0:
136,215,3793,1,4,0:3:0:0:
181,56,3981,2,0,P|246:47|296:82,1,100,0|0,1:0|0:0,0:0:0:0:
436,180,4356,6,0,P|348:165|286:231,1,150,4|4,0:3|0:3,0:0:0:0:
293,226,4731,1,0,1:0:0:0:
443,130,4918,2,0,L|433:192,1,50,4|0,0:3|0:0,0:0:0:0:
370,359,5106,2,0,L|380:260,1,100,0|4,0:0|0:3,0:0:0:0:
194,208,5481,2,0,P|273:184|321:194,1,100,0|0,1:0|0:0,0:0:0:0:
124,279,5856,6,0,P|97:222|149:117,1,150,4|4,0:3|0:3,0:0:0:0:
146,127,6231,1,0,1:0:0:0:
323,36,6418,2,0,B|263:10|219:33|219:37|219:42|182:70|100:26,1,200,4|4,0:3|0:3,0:0:0:0:
25,14,6981,2,0,L|10:131,1,100,0|0,1:0|0:0,0:0:0:0:
254,187,7356,6,0,P|311:177|364:189,1,100,4|0,0:3|0:0,0:0:0:0:
375,202,7637,1,4,0:3:0:0:
395,223,7731,1,0,1:0:0:0:
308,384,7918,1,8,0:3:0:0:
307,353,8012,1,0,1:0:0:0:
306,322,8106,1,4,0:3:0:0:
306,292,8199,1,0,1:0:0:0:
305,261,8293,1,4,0:3:0:0:
168,342,8481,5,0,1:0:0:0:
121,357,8574,1,0,0:0:0:0:
75,341,8668,1,0,0:0:0:0:
47,300,8762,1,0,0:0:0:0:
51,251,8856,6,0,L|72:65,1,150,4|4,0:3|0:3,0:0:0:0:
72,72,9231,1,0,1:0:0:0:
279,116,9418,2,0,P|210:146|153:142,1,100,0|0,0:0|0:0,0:0:0:0:
72,72,9793,1,4,0:3:0:0:
174,254,9981,1,0,1:0:0:0:
204,55,10168,1,0,0:0:0:0:
383,113,10356,6,0,L|360:293,1,150,4|4,0:3|0:3,0:0:0:0:
360,291,10731,1,0,1:0:0:0:
459,235,10918,1,4,0:3:0:0:
189,195,11106,1,0,0:0:0:0:
189,195,11199,1,0,0:0:0:0:
189,195,11293,1,4,0:3:0:0:
263,356,11481,2,0,P|265:295|227:239,1,100,4|0,1:0|0:0,0:0:0:0:
54,133,11856,5,8,1:3:0:0:
442,204,12043,1,8,1:3:0:0:
449,181,12418,5,8,1:3:0:0:
61,252,12605,1,8,1:3:0:0:
58,231,12981,5,8,1:3:0:0:
446,302,13168,1,8,1:3:0:0:
206,34,13731,5,2,0:0:0:0:
184,78,13824,1,2,0:0:0:0:
183,128,13918,1,2,0:0:0:0:
204,173,14012,1,2,0:0:0:0:
237,200,14106,5,2,1:3:0:0:
251,231,14199,1,6,0:3:0:0:
252,266,14293,1,6,0:3:0:0:
237,297,14387,1,6,0:3:0:0:
213,323,14481,6,0,L|141:314,1,50,2|2,1:3|0:0,0:0:0:0:
54,188,14668,1,6,0:3:0:0:
54,188,14762,1,6,0:3:0:0:
54,188,14856,6,0,L|231:170,1,150,14|4,0:3|0:3,0:0:0:0:
203,172,15231,1,0,1:0:0:0:
276,19,15418,2,0,P|292:64|287:119,1,100,4|0,0:3|0:0,0:0:0:0:
260,257,15793,1,4,0:3:0:0:
345,200,15981,1,0,1:0:0:0:
203,172,16168,1,0,0:0:0:0:
171,336,16356,6,0,P|277:342|328:379,1,150,4|4,0:3|0:3,0:0:0:0:
312,363,16731,1,0,1:0:0:0:
435,353,16918,1,4,0:3:0:0:
458,370,17293,1,4,0:3:0:0:
261,277,17481,1,0,1:0:0:0:
448,250,17668,1,0,0:0:0:0:
332,102,17856,6,0,L|155:84,1,150,4|4,0:3|0:3,0:0:0:0:
182,86,18231,1,0,1:0:0:0:
114,171,18418,2,0,P|78:118|77:73,1,100,4|0,0:3|0:0,0:0:0:0:
223,189,18793,1,4,0:3:0:0:
55,238,18981,2,0,P|64:311|72:357,1,100
254,61,19356,5,4,0:3:0:0:
254,61,19449,1,0,1:0:0:0:
181,130,19637,2,0,P|285:113|343:139,2,150,6|6|0,0:3|0:3|0:0,0:0:0:0:
158,151,20293,1,4,0:3:0:0:
244,12,20481,1,0,1:0:0:0:
252,211,20668,1,0,1:0:0:0:
252,211,20762,1,0,1:0:0:0:
252,211,20856,6,0,B|285:198|285:198|338:195,2,66.6666666666667,6|2|2,0:3|0:0|0:0,0:0:0:0:
231,231,21231,1,0,1:0:0:0:
394,291,21418,1,4,0:3:0:0:
343,127,21606,1,0,0:0:0:0:
409,311,21793,1,4,0:3:0:0:
235,123,21981,1,0,1:0:0:0:
339,235,22168,1,0,0:0:0:0:
129,52,22356,6,0,L|147:229,1,150,4|4,0:3|0:3,0:0:0:0:
145,202,22731,1,0,1:0:0:0:
78,285,22918,2,0,P|42:232|41:187,1,100,4|0,0:3|0:0,0:0:0:0:
183,301,23293,1,4,0:3:0:0:
11,368,23481,1,0,1:0:0:0:
116,384,23668,1,0,0:0:0:0:
145,202,23856,6,0,L|322:184,1,150,4|4,0:3|0:3,0:0:0:0:
295,186,24231,1,0,1:0:0:0:
206,107,24418,1,4,0:3:0:0:
258,269,24606,2,0,L|358:258,1,100,0|4,0:0|0:3,0:0:0:0:
390,169,24981,1,0,1:0:0:0:
326,349,25168,1,0,0:0:0:0:
323,97,25356,5,4,0:3:0:0:
323,97,25449,1,0,1:0:0:0:
223,127,25637,2,0,P|120:99|78:52,2,150,6|6|0,0:3|0:3|0:0,0:0:0:0:
253,122,26293,1,4,0:3:0:0:
382,71,26481,1,0,1:0:0:0:
397,239,26668,1,0,1:0:0:0:
397,239,26762,1,0,1:0:0:0:
397,239,26856,6,0,L|311:223,2,66.6666666666667,6|2|2,0:3|0:0|0:0,0:0:0:0:
420,245,27231,1,0,1:0:0:0:
301,94,27418,1,4,0:3:0:0:
301,94,27512,1,0,0:0:0:0:
301,94,27606,2,0,L|297:187,1,50,0|0,0:0|0:0,0:0:0:0:
286,312,27793,1,4,0:3:0:0:
127,262,27981,2,0,P|180:226|225:225,1,100,0|0,1:0|0:0,0:0:0:0:
433,165,28356,6,0,P|311:136|288:151,1,150,4|4,0:3|0:3,0:0:0:0:
298,143,28731,1,0,1:0:0:0:
182,52,28918,2,0,L|164:176,1,100,4|0,0:3|0:0,0:0:0:0:
134,316,29293,1,4,0:3:0:0:
62,184,29481,1,0,1:0:0:0:
247,220,29668,1,0,0:0:0:0:
62,355,29856,6,0,P|145:338|213:373,1,150,4|4,0:3|0:3,0:0:0:0:
202,363,30231,1,0,1:0:0:0:
337,286,30418,1,4,0:3:0:0:
213,259,30606,1,0,0:0:0:0:
368,303,30793,1,4,0:3:0:0:
269,132,30981,1,0,1:0:0:0:
273,325,31168,1,0,0:0:0:0:
417,195,31356,5,4,0:3:0:0:
417,195,31449,1,0,1:0:0:0:
483,259,31637,2,0,P|399:229|332:247,2,150,6|6|0,0:3|0:3|0:0,0:0:0:0:
494,286,32293,1,4,0:3:0:0:
376,149,32481,1,0,1:0:0:0:
152,226,32668,1,0,1:0:0:0:
152,226,32762,1,0,1:0:0:0:
152,226,32856,6,0,B|117:236|117:236|69:232,2,66.6666666666667,6|2|2,0:3|0:0|0:0,0:0:0:0:
189,240,33231,1,0,1:0:0:0:
79,118,33418,1,4,0:3:0:0:
140,316,33606,1,0,0:0:0:0:
242,170,33793,1,4,0:3:0:0:
4,187,33981,1,0,1:0:0:0:
156,230,34168,1,0,0:0:0:0:
77,60,34356,6,0,L|82:228,1,150,4|4,0:3|0:3,0:0:0:0:
81,209,34731,1,0,1:0:0:0:
341,164,34918,2,0,L|231:170,1,100,4|0,0:3|0:0,0:0:0:0:
196,312,35293,2,0,L|295:306,1,100,4|0,0:3|1:0,0:0:0:0:
471,341,35668,2,0,P|474:312|472:276,1,50,0|0,0:0|0:0,0:0:0:0:
351,17,35856,6,0,P|332:89|345:176,1,150,4|0,1:0|0:0,0:0:0:0:
340,163,36606,6,0,B|388:156|409:170|410:175|411:179|450:197|506:170,1,150,0|0,1:0|1:0,0:0:0:0:
243,141,37074,1,4,0:3:0:0:
243,141,37168,2,0,L|230:309,1,150,0|0,1:0|0:0,0:0:0:0:
230,320,37543,1,4,0:3:0:0:
340,163,37731,1,0,1:0:0:0:
91,230,37918,1,4,0:3:0:0:
183,62,38106,5,0,1:0:0:0:
229,45,38199,1,0,1:0:0:0:
278,52,38293,1,4,0:3:0:0:
318,81,38387,1,4,0:3:0:0:
340,126,38481,1,0,1:0:0:0:
340,126,38856,6,0,L|332:234,1,100,12|0,0:3|0:0,0:0:0:0:
367,204,39137,2,0,L|359:312,1,100,0|0,1:0|0:0,0:0:0:0:
384,332,39418,2,0,B|336:325|315:339|314:344|313:348|274:366|218:339,1,150,4|0,0:3|0:0,0:0:0:0:
209,342,39793,1,4,0:3:0:0:
273,276,39981,1,0,1:0:0:0:
115,332,40168,1,4,0:3:0:0:
0,212,40356,6,0,L|108:204,1,100,4|0,0:3|0:0,0:0:0:0:
78,179,40637,2,0,L|186:171,1,100,0|0,1:0|0:0,0:0:0:0:
157,140,40918,2,0,B|205:133|226:147|227:152|228:156|267:174|323:147,1,150,4|0,0:3|0:0,0:0:0:0:
332,150,41293,1,4,0:3:0:0:
269,67,41481,1,0,1:0:0:0:
269,233,41668,1,4,0:3:0:0:
445,77,41856,6,0,L|437:185,1,100,4|0,0:3|0:0,0:0:0:0:
472,155,42137,2,0,L|464:263,1,100,0|0,1:0|0:0,0:0:0:0:
479,290,42418,2,0,P|395:260|328:278,1,150,4|0,0:3|0:0,0:0:0:0:
318,293,42793,1,4,0:3:0:0:
396,382,42981,1,0,1:0:0:0:
240,204,43168,6,0,L|42:229,1,200,12|4,0:3|0:3,0:0:0:0:
229,102,43731,2,0,P|291:114|324:145,1,100,0|4,1:0|0:3,0:0:0:0:
325,241,44106,1,0,1:0:0:0:
240,204,44293,1,4,0:3:0:0:
348,384,44481,1,0,1:0:0:0:
342,346,44574,1,0,1:0:0:0:
336,309,44668,1,4,0:3:0:0:
331,272,44762,1,4,0:3:0:0:
328,244,44856,5,12,0:3:0:0:
328,244,45231,1,4,0:3:0:0:
172,119,45418,5,0,0:0:0:0:
219,181,45606,1,4,0:3:0:0:
94,128,45793,1,0,0:0:0:0:
203,46,45981,1,4,0:3:0:0:
194,258,46168,6,0,L|202:358,1,100,0|4,0:0|0:3,0:0:0:0:
86,227,46543,2,0,L|94:127,1,100,0|4,0:0|0:3,0:0:0:0:
218,51,46918,1,0,0:0:0:0:
227,160,47106,1,4,0:3:0:0:
101,26,47293,1,0,0:0:0:0:
342,85,47481,1,4,0:3:0:0:
202,291,47668,5,0,1:0:0:0:
202,291,47762,1,0,1:0:0:0:
202,291,47856,2,0,P|304:282|340:296,1,100,4|0,0:3|0:0,0:0:0:0:
441,362,48231,5,0,1:0:0:0:
442,337,48324,1,0,1:0:0:0:
443,312,48418,1,0,1:0:0:0:
444,287,48512,1,0,1:0:0:0:
417,260,48606,5,0,1:0:0:0:
413,215,48699,1,0,1:0:0:0:
411,170,48793,1,0,1:0:0:0:
409,124,48887,1,0,1:0:0:0:
408,76,48981,6,0,L|391:167,1,50,6|2,0:3|0:0,0:0:0:0:
324,187,49168,2,0,L|314:137,1,50,0|0,0:0|0:0,0:0:0:0:
5,67,49356,5,14,0:3:0:0:
257,281,49637,1,14,0:3:0:0:
478,59,49918,1,14,0:3:0:0:
192,83,50293,5,2,1:3:0:0:
192,83,50387,1,2,1:3:0:0:
192,83,50481,5,2,1:3:0:0:
240,73,50574,1,2,1:3:0:0:
286,90,50668,1,2,1:3:0:0:
318,128,50762,1,2,1:3:0:0:
326,174,50856,6,0,L|319:223,1,50,6|0,0:3|0:0,0:0:0:0:
135,301,51043,1,0,1:0:0:0:
135,301,51137,2,0,L|122:208,1,50,6|0,0:3|0:0,0:0:0:0:
229,168,51324,1,0,1:0:0:0:
229,168,51418,2,0,L|216:261,1,50,6|0,0:3|0:0,0:0:0:0:
48,346,51606,5,0,1:0:0:0:
40,296,51699,1,4,0:3:0:0:
33,247,51793,1,4,0:3:0:0:
26,197,51887,1,4,0:3:0:0:
19,148,51981,6,0,P|75:129|108:131,1,75,0|0,1:0|0:0,0:0:0:0:
148,170,52356,6,0,B|208:144|252:167|252:171|252:176|289:204|371:160,1,225.000008583069,12|0,0:3|0:3,0:0:0:0:
397,144,52731,1,0,1:0:0:0:
465,234,52918,2,0,P|467:283|452:321,2,75.0000028610231,4|0|4,0:3|1:0|0:3,0:0:0:0:
299,91,53293,1,4,0:3:0:0:
362,335,53481,1,0,1:0:0:0:
364,163,53668,1,0,0:0:0:0:
266,360,53856,6,0,B|197:345|197:345|115:357|115:357|16:337,1,225.000008583069,4|4,0:3|0:3,0:0:0:0:
1,332,54231,1,0,1:0:0:0:
141,200,54418,2,0,L|125:278,2,75.0000028610231,4|0|4,0:3|1:0|0:3,0:0:0:0:
44,342,54793,1,4,0:3:0:0:
160,122,54981,1,0,1:0:0:0:
215,258,55168,1,0,0:0:0:0:
40,66,55356,6,0,L|282:19,1,225.000008583069,4|4,0:3|0:3,0:0:0:0:
305,14,55731,1,0,1:0:0:0:
439,96,55918,2,0,P|488:98|526:83,2,75.0000028610231,4|0|4,0:3|1:0|0:3,0:0:0:0:
260,23,56293,1,4,0:3:0:0:
287,215,56481,1,0,1:0:0:0:
330,112,56668,1,0,0:0:0:0:
244,318,56856,6,0,P|201:254|123:247,1,150.000005722046,4|0,0:3|0:0,0:0:0:0:
89,257,57137,1,4,0:3:0:0:
73,299,57231,1,0,1:0:0:0:
0,77,57418,2,0,P|43:141|121:148,1,150.000005722046,0|4,1:0|0:3,0:0:0:0:
155,138,57699,1,0,1:0:0:0:
198,148,57793,1,4,0:3:0:0:
244,318,57981,1,0,1:0:0:0:
420,166,58168,1,0,1:0:0:0:
420,166,58262,1,0,1:0:0:0:
420,166,58356,6,0,B|351:151|351:151|269:163|269:163|170:143,1,225.000008583069,4|4,0:3|0:3,0:0:0:0:
155,138,58731,1,0,1:0:0:0:
354,245,58918,2,0,P|357:338|335:376,2,75.0000028610231,4|0|4,0:3|1:0|0:3,0:0:0:0:
269,76,59293,1,4,0:3:0:0:
200,279,59481,1,0,1:0:0:0:
269,164,59668,1,0,0:0:0:0:
10,193,59856,6,0,P|106:198|153:155,1,150.000005722046,4|0,0:3|0:0,0:0:0:0:
164,126,60137,1,4,0:3:0:0:
161,80,60231,1,0,1:0:0:0:
10,193,60418,2,0,P|7:288|11:300,2,75.0000028610231,4|0|4,0:3|1:0|0:3,0:0:0:0:
161,80,60793,2,0,L|358:91,1,150.000005722046,4|0,0:3|1:0,0:0:0:0:
373,265,61168,1,0,0:0:0:0:
425,0,61356,6,0,L|378:242,1,225.000008583069,4|4,0:3|0:3,0:0:0:0:
373,265,61731,1,0,1:0:0:0:
259,220,61918,2,0,L|147:224,2,75.0000028610231,4|0|4,0:3|1:0|0:3,0:0:0:0:
424,338,62293,2,0,P|349:353|289:303,1,150.000005722046,4|0,0:3|1:0,0:0:0:0:
165,0,62668,6,0,L|186:260,1,225.000008583069,12|0,0:3|0:0,0:0:0:0:
187,269,63043,1,4,0:3:0:0:
12,141,63231,1,0,1:0:0:0:
446,226,63418,6,0,P|331:237|273:198,1,150.000005722046,12|0,0:3|1:0,0:0:0:0:
271,151,63699,1,0,1:0:0:0:
296,82,63793,1,0,1:0:0:0:
463,22,63981,6,0,L|444:125,1,75.0000028610231,0|0,1:0|1:0,0:0:0:0:
459,299,64168,2,0,L|445:225,1,75.0000028610231,0|0,1:0|1:0,0:0:0:0:
296,82,64356,6,0,P|199:68|42:89,1,225.000008583069,12|4,0:3|0:3,0:0:0:0:
30,95,64731,1,0,1:0:0:0:
114,235,64918,2,0,P|116:284|101:322,2,75.0000028610231,4|0|4,0:3|1:0|0:3,0:0:0:0:
73,164,65293,1,4,0:3:0:0:
33,354,65481,1,0,1:0:0:0:
196,277,65668,1,0,0:0:0:0:
363,384,65856,6,0,L|384:124,1,225.000008583069,4|4,0:3|0:3,0:0:0:0:
385,115,66231,1,0,1:0:0:0:
478,238,66418,2,0,L|470:339,2,75.0000028610231,4|0|4,0:3|1:0|0:3,0:0:0:0:
494,100,66793,1,4,0:3:0:0:
369,303,66981,1,0,1:0:0:0:
486,169,67168,1,0,0:0:0:0:
395,384,67356,6,0,P|323:371|284:309,1,150.000005722046,12|0,0:3|0:0,0:0:0:0:
369,303,67731,1,4,0:3:0:0:
168,138,67918,2,0,P|243:143|292:287,1,225.000008583069,0|0,1:0|0:0,0:0:0:0:
284,309,68293,1,0,1:0:0:0:
284,309,68668,6,0,B|215:294|215:294|133:306|133:306|34:286,1,225.000008583069,8|0,1:3|0:0,0:0:0:0:
19,281,69043,1,4,0:3:0:0:
211,371,69231,1,0,1:0:0:0:
133,231,69418,1,4,0:3:0:0:
260,139,69606,5,0,1:0:0:0:
264,183,69699,1,0,1:0:0:0:
269,227,69793,1,4,0:3:0:0:
423,329,69981,1,0,1:0:0:0:
419,285,70074,1,0,1:0:0:0:
414,241,70168,1,0,1:0:0:0:
410,197,70262,1,0,1:0:0:0:
405,153,70356,6,0,L|132:122,1,225.000008583069,4|0,0:3|0:0,0:0:0:0:
136,121,70731,5,0,1:0:0:0:
230,38,70918,1,4,0:3:0:0:
241,238,71106,5,0,1:0:0:0:
303,63,71293,1,4,0:3:0:0:
236,324,71481,5,0,1:0:0:0:
136,121,71668,1,4,0:3:0:0:
356,238,71856,6,0,L|513:237,1,150.000005722046,0|0,1:0|0:0,0:0:0:0:
439,358,72231,5,0,1:0:0:0:
310,159,72418,1,4,0:3:0:0:
135,330,72606,5,0,1:0:0:0:
314,115,72793,1,4,0:3:0:0:
439,358,72981,5,0,1:0:0:0:
320,75,73168,1,4,0:3:0:0:
62,272,73356,6,0,L|289:257,1,225.000008583069,0|0,1:0|0:0,0:0:0:0:
331,254,73731,5,4,1:3:0:0:
176,166,73918,1,4,1:3:0:0:
229,336,74106,1,4,1:3:0:0:
328,40,74293,1,4,1:3:0:0:
39,177,74481,1,4,1:3:0:0:
481,176,74668,1,12,1:3:0:0:
481,176,75043,5,12,1:3:0:0:
39,177,75230,1,12,1:3:0:0:
256,192,75981,12,0,77293,0:0:0:0:
188,296,77481,5,6,0:3:0:0:
167,250,77574,1,2,0:0:0:0:
162,201,77668,1,2,0:0:0:0:
173,152,77762,1,2,0:0:0:0:
204,108,77856,6,0,P|278:89|371:130,2,150,0|4|4,1:0|0:3|0:3,0:0:0:0:
188,296,78606,2,0,P|114:315|21:274,2,150,0|4|4,1:0|0:3|0:3,0:0:0:0:
118,52,79356,5,0,1:0:0:0:
82,190,79637,1,4,0:3:0:0:
188,296,79918,1,4,0:3:0:0:
377,54,80106,5,8,1:3:0:0:
413,192,80387,1,4,0:3:0:0:
307,298,80668,1,4,0:3:0:0:
237,217,80856,6,0,L|249:8,1,200,12|4,0:3|0:3,0:0:0:0:
248,17,81606,1,4,0:3:0:0:
248,17,81981,1,4,0:3:0:0:
44,326,82168,6,0,B|104:322|104:322|130:311|130:311|240:305,1,150,12|0,1:3|0:0,0:0:0:0:
221,307,82543,1,4,1:3:0:0:
41,92,82731,1,0,1:0:0:0:
42,121,82824,1,4,0:3:0:0:
44,151,82918,1,4,0:3:0:0:
46,180,83012,1,4,0:3:0:0:
47,210,83106,6,0,L|50:280,1,50,2|6,1:3|0:3,0:0:0:0:
152,101,83293,2,0,L|154:51,1,50,6|6,0:3|0:3,0:0:0:0:
281,244,83481,1,2,1:3:0:0:
354,275,83574,1,2,1:3:0:0:
424,240,83668,1,10,1:3:0:0:
256,192,83856,12,0,87043,0:0:0:0:
