osu file format v14

[General]
AudioFilename: audio.mp3
AudioLeadIn: 0
PreviewTime: 51324
Countdown: 0
SampleSet: Soft
StackLeniency: 0.7
Mode: 0
LetterboxInBreaks: 0
WidescreenStoryboard: 1

[Editor]
Bookmarks: 2856,14856,26856,38856,44856,52356,58356,64356,70356,83668
DistanceSpacing: 1
BeatDivisor: 4
GridSize: 32
TimelineZoom: 2

[Metadata]
Title:Azalea
TitleUnicode:アザレア
Artist:nano.RIPE
ArtistUnicode:nano.RIPE
Creator:Mir
Version:Hard
Source:citrus
Tags:mirakura hakura lantis infinite funimation passione 藍原 芽衣 Mei Aihara 藍原 柚子 Yuzu Aihara サブロウタ Saburouta
BeatmapID:1526560
BeatmapSetID:723193

[Difficulty]
HPDrainRate:4
CircleSize:3.5
OverallDifficulty:6
ApproachRate:7.5
SliderMultiplier:1.5
SliderTickRate:1

[Events]
//Background and Video events
0,0,"citrus.jpg",0,0
//Break Periods
//Storyboard Layer 0 (Background)
//Storyboard Layer 1 (Fail)
//Storyboard Layer 2 (Pass)
//Storyboard Layer 3 (Foreground)
//Storyboard Sound Samples

[TimingPoints]
2856,375.0,4,2,1,60,1,0
35856,-100.0,4,2,1,60,0,0
36606,-100.0,4,2,1,60,0,0
51981,-100.0,4,2,1,60,0,0
52356,-83.3333333333333,4,2,1,80,0,1
73637,-83.3333333333333,4,2,1,5,0,1
73731,-83.3333333333333,4,2,1,80,0,1
75606,-100.0,4,2,1,60,0,0
77481,-100.0,4,2,0,60,0,0
77856,-100.0,4,2,1,60,0,0

[Colours]
Combo1 : 255,202,255
Combo2 : 253,223,179
Combo3 : 255,189,157
Combo4 : 250,163,175

[HitObjects]
310,162,2481,6,0,P|330:108|330:99,3,37.5,6|6|6|6,0:3|0:3|0:3|0:3,0:0:0:0:
327,106,2856,6,0,L|491:102,1,150,4|0,0:3|1:0,0:0:0:0:
490,206,3418,1,4,0:3:0:0:
490,206,3512,1,0,1:0:0:0:
490,206,3606,1,4,0:3:0:0:
423,286,3793,1,4,0:3:0:0:
332,242,3981,2,0,P|263:227|224:231,1,75,0|0,1:0|0:0,0:0:0:0:
118,296,4356,6,0,L|107:128,1,150,4|0,0:3|1:0,0:0:0:0:
46,61,4918,2,0,P|111:95|185:89,1,150,4|4,0:3|0:3,0:0:0:0:
269,25,5481,1,0,1:0:0:0:
469,88,5856,6,0,L|464:226,1,112.5,4|4,0:3|0:3,0:0:0:0:
464,200,6231,1,0,1:0:0:0:
478,304,6418,2,0,B|437:286|401:297|401:301|401:306|366:320|298:296,1,150,4|4,0:3|0:3,0:0:0:0:
234,262,6981,2,0,P|197:253|138:256,1,75,0|0,1:0|0:0,0:0:0:0:
68,337,7356,6,0,L|58:225,1,112.5,4|4,0:3|0:3,0:0:0:0:
57,224,7731,1,0,1:0:0:0:
27,138,7918,2,0,P|2:78|50:-2,1,150,8|4,0:3|0:3,0:0:0:0:
92,76,8481,2,0,L|145:83,3,37.5,0|0|0|0,1:0|0:0|0:0|0:0,0:0:0:0:
181,88,8856,6,0,L|358:107,1,150,4|0,0:3|1:0,0:0:0:0:
419,47,9418,2,0,P|433:118|380:198,1,150,0|4,0:0|0:3,0:0:0:0:
292,207,9981,1,0,1:0:0:0:
366,369,10356,6,0,P|449:365|489:331,1,112.5,4|4,0:3|0:3,0:0:0:0:
471,350,10731,1,0,1:0:0:0:
504,250,10918,1,4,0:3:0:0:
448,160,11106,2,0,L|337:166,1,75,0|4,0:0|0:3,0:0:0:0:
272,165,11481,5,4,1:0:0:0:
112,106,11856,5,8,1:3:0:0:
144,205,12043,1,8,1:3:0:0:
254,93,12418,5,8,1:3:0:0:
256,208,12605,1,8,1:3:0:0:
399,106,12981,5,8,1:3:0:0:
368,205,13168,1,8,1:3:0:0:
396,209,13731,6,0,L|410:262,3,37.5,2|2|2|2,0:0|0:0|0:0|0:0,0:0:0:0:
371,324,14106,2,0,L|361:360,3,37.5,2|6|6|6,1:3|0:3|0:3|0:3,0:0:0:0:
315,261,14481,2,0,L|256:244,3,37.5,2|2|6|6,1:3|0:0|0:3|0:3,0:0:0:0:
271,294,14856,6,0,P|211:277|140:312,1,112.5,14|4,0:3|0:3,0:0:0:0:
164,291,15231,1,0,1:0:0:0:
93,345,15418,1,4,0:3:0:0:
90,254,15606,2,0,P|99:216|90:160,1,75,0|4,0:0|0:3,0:0:0:0:
25,124,15981,2,0,P|16:86|25:30,1,75,0|0,1:0|0:0,0:0:0:0:
130,101,16356,6,0,P|190:118|261:83,1,112.5,4|4,0:3|0:3,0:0:0:0:
236,104,16731,1,0,1:0:0:0:
318,69,16918,2,0,P|327:107|318:163,1,75,4|0,0:3|0:0,0:0:0:0:
255,201,17293,2,0,P|246:239|255:295,2,75,4|0|0,0:3|1:0|0:0,0:0:0:0:
362,359,17856,6,0,L|369:216,1,112.5,4|4,0:3|0:3,0:0:0:0:
367,246,18231,1,0,1:0:0:0:
410,167,18418,2,0,P|372:158|316:167,1,75,4|0,0:3|0:0,0:0:0:0:
255,201,18793,1,4,0:3:0:0:
255,201,18981,1,0,0:0:0:0:
324,326,19356,6,0,L|326:363,2,37.5,4|0|0,0:3|1:0|0:0,0:0:0:0:
318,288,19637,1,6,0:3:0:0:
458,269,19918,2,0,P|410:256|307:301,1,150,6|4,0:3|0:3,0:0:0:0:
253,360,20481,1,0,1:0:0:0:
182,293,20668,1,0,1:0:0:0:
182,293,20762,1,0,1:0:0:0:
182,293,20856,6,0,L|177:201,2,50,6|2|2,0:3|0:0|0:0,0:0:0:0:
172,316,21231,1,0,1:0:0:0:
85,339,21418,1,4,0:3:0:0:
13,283,21606,2,0,L|26:200,1,75,0|4,0:0|0:3,0:0:0:0:
111,185,21981,2,0,L|98:268,1,75,0|0,1:0|0:0,0:0:0:0:
187,241,22356,6,0,P|247:224|318:259,1,112.5,4|4,0:3|0:3,0:0:0:0:
294,238,22731,1,0,1:0:0:0:
379,269,22918,2,0,P|381:232|373:196,1,75,4|0,0:3|0:0,0:0:0:0:
330,119,23293,1,4,0:3:0:0:
330,119,23481,1,0,1:0:0:0:
150,116,23856,6,0,L|7:109,1,112.5,4|4,0:3|0:3,0:0:0:0:
37,110,24231,1,0,1:0:0:0:
40,209,24418,1,4,0:3:0:0:
116,257,24606,2,0,P|118:294|109:330,1,75,0|4,0:0|0:3,0:0:0:0:
204,312,24981,2,0,P|241:309|277:318,1,75,0|0,1:0|0:0,0:0:0:0:
364,319,25356,6,0,P|351:271|396:168,1,150,4|0,0:3|0:0,0:0:0:0:
440,109,25919,1,6,0:3:0:0:
477,190,26106,2,0,P|467:234|432:276,1,75,0|4,0:0|0:3,0:0:0:0:
383,179,26481,1,0,1:0:0:0:
294,183,26668,1,0,1:0:0:0:
294,183,26762,1,0,1:0:0:0:
294,183,26856,6,0,L|289:91,2,50,6|2|2,0:3|0:0|0:0,0:0:0:0:
284,206,27231,1,0,1:0:0:0:
206,160,27418,2,0,P|105:147|50:180,1,150,4|4,0:3|0:3,0:0:0:0:
26,249,27981,1,0,1:0:0:0:
26,249,28168,1,0,0:0:0:0:
66,329,28356,6,0,L|206:322,1,112.5,4|4,0:3|0:3,0:0:0:0:
178,323,28731,1,0,1:0:0:0:
248,267,28918,2,0,P|315:262|345:271,1,75,4|0,0:3|0:0,0:0:0:0:
367,341,29293,1,4,0:3:0:0:
367,341,29481,1,0,1:0:0:0:
316,168,29856,6,0,L|323:25,1,112.5,4|4,0:3|0:3,0:0:0:0:
321,55,30231,1,0,1:0:0:0:
406,27,30418,2,0,P|460:30|491:47,2,75,4|0|4,0:3|0:0|0:3,0:0:0:0:
321,55,30981,1,0,1:0:0:0:
255,0,31168,1,0,0:0:0:0:
208,85,31356,6,0,L|212:139,2,37.5,4|0|0,0:3|1:0|0:0,0:0:0:0:
175,53,31637,1,6,0:3:0:0:
126,178,31918,2,0,P|174:165|277:210,1,150,6|4,0:3|0:3,0:0:0:0:
291,283,32481,1,0,1:0:0:0:
377,257,32668,1,0,1:0:0:0:
377,257,32762,1,0,1:0:0:0:
377,257,32856,6,0,L|389:174,2,50,6|2|2,0:3|0:0|0:0,0:0:0:0:
388,282,33231,1,0,1:0:0:0:
341,358,33418,1,4,0:3:0:0:
291,283,33606,2,0,P|227:278|188:291,1,75,0|4,0:0|0:3,0:0:0:0:
154,345,33981,2,0,P|90:350|51:337,1,75,0|0,1:0|0:0,0:0:0:0:
37,268,34356,6,0,L|33:132,1,112.5,4|4,0:3|0:3,0:0:0:0:
33,155,34731,1,0,1:0:0:0:
102,97,34918,2,0,P|204:88|260:116,1,150,4|4,0:3|0:3,0:0:0:0:
307,171,35481,1,0,1:0:0:0:
372,109,35668,1,0,0:0:0:0:
372,109,35762,1,0,0:0:0:0:
372,109,35856,6,0,B|393:160|351:196|351:196|366:226|366:226|323:259|334:317,1,225,4|0,1:0|0:0,0:0:0:0:
254,355,36606,2,0,L|141:361,1,112.5,0|0,1:0|1:0,0:0:0:0:
97,283,37074,1,4,0:3:0:0:
97,283,37168,2,0,L|89:121,1,150,0|4,1:0|0:3,0:0:0:0:
75,44,37731,1,0,1:0:0:0:
219,114,38106,5,0,1:0:0:0:
237,110,38199,1,0,1:0:0:0:
255,106,38293,2,0,L|308:94,2,37.5,4|4|0,0:3|0:3|1:0,0:0:0:0:
401,76,38856,6,0,P|388:133|408:192,2,112.5,12|0|4,0:3|1:0|0:3,0:0:0:0:
375,293,39793,2,0,P|412:297|449:290,2,75,4|0|4,0:3|1:0|0:3,0:0:0:0:
292,255,40356,6,0,P|235:242|176:262,2,112.5,4|0|4,0:3|1:0|0:3,0:0:0:0:
73,225,41293,2,0,P|68:262|76:298,2,75,4|0|4,0:3|1:0|0:3,0:0:0:0:
109,142,41856,6,0,P|122:85|102:26,2,112.5,4|0|4,0:3|1:0|0:3,0:0:0:0:
247,90,42793,2,0,P|284:85|320:93,1,75,4|0,0:3|1:0,0:0:0:0:
409,74,43168,6,0,P|396:122|441:225,1,150,12|4,0:3|0:3,0:0:0:0:
485,283,43731,1,0,1:0:0:0:
396,298,43918,1,4,0:3:0:0:
307,281,44106,2,0,L|294:207,1,75,0|4,1:0|0:3,0:0:0:0:
236,137,44481,2,0,L|249:63,1,75,0|4,1:0|0:3,0:0:0:0:
141,103,44856,5,12,0:3:0:0:
141,103,45231,1,4,0:3:0:0:
53,69,45418,1,0,0:0:0:0:
71,157,45606,2,0,L|81:246,2,75,4|0|4,0:3|0:0|0:3,0:0:0:0:
141,103,46168,6,0,P|193:90|236:96,1,75,0|4,0:0|0:3,0:0:0:0:
264,23,46543,2,0,P|301:23|336:34,1,75,0|4,0:0|0:3,0:0:0:0:
433,19,46918,2,0,P|467:32|497:55,2,75,0|4|0,0:0|0:3|0:0,0:0:0:0:
336,34,47481,1,4,0:3:0:0:
364,126,47668,1,0,1:0:0:0:
364,126,47762,1,0,1:0:0:0:
364,126,47856,6,0,B|383:173|383:173|355:288,1,150,4|0,0:3|1:0,0:0:0:0:
322,359,48418,1,0,1:0:0:0:
322,359,48512,1,0,1:0:0:0:
322,359,48606,2,0,L|252:348,3,37.5,0|0|0|0,1:0|1:0|1:0|1:0,0:0:0:0:
225,293,48981,2,0,L|187:298,3,37.5,6|2|0|0,0:3|0:0|0:0|0:0,0:0:0:0:
141,312,49356,5,14,0:3:0:0:
67,185,49637,1,14,0:3:0:0:
105,43,49918,1,14,0:3:0:0:
390,93,50293,5,2,1:3:0:0:
390,93,50387,1,2,1:3:0:0:
390,93,50481,2,0,L|437:102,3,37.5,2|2|2|2,1:3|1:3|1:3|1:3,1:0:0:0:
503,132,50856,6,0,L|489:235,1,75,6|0,0:3|1:0,0:0:0:0:
444,212,51137,2,0,L|458:315,1,75,6|0,0:3|1:0,0:0:0:0:
454,286,51418,1,6,0:3:0:0:
341,293,51606,5,0,1:0:0:0:
322,297,51699,1,4,0:3:0:0:
303,301,51793,1,4,0:3:0:0:
222,260,51981,1,0,1:0:0:0:
148,326,52356,6,0,B|175:281|175:281|171:133,1,179.999994506836,12|0,0:3|1:0,0:0:0:0:
64,138,52918,2,0,L|7:169,2,44.999998626709,4|0|4,0:3|1:0|0:3,0:0:0:0:
130,53,53293,1,4,0:3:0:0:
238,51,53481,2,0,P|302:52|340:41,1,89.9999972534181,0|0,1:0|0:0,0:0:0:0:
433,63,53856,6,0,P|388:137|429:234,1,179.999994506836,4|0,0:3|1:0,0:0:0:0:
489,290,54418,2,0,L|507:338,2,44.999998626709,4|0|4,0:3|1:0|0:3,0:0:0:0:
383,315,54793,1,4,0:3:0:0:
308,237,54981,2,0,P|244:236|206:247,1,89.9999972534181,0|0,1:0|0:0,0:0:0:0:
131,358,55356,6,0,B|121:302|121:302|140:171,1,179.999994506836,4|0,0:3|1:0,0:0:0:0:
232,153,55918,2,0,L|217:255,1,89.9999972534181,4|4,0:3|0:3,0:0:0:0:
294,326,56293,2,0,L|309:224,2,89.9999972534181,4|0|0,0:3|1:0|0:0,0:0:0:0:
387,380,56856,6,0,B|404:258|404:258|394:202,1,179.999994506836,4|0,0:3|1:0,0:0:0:0:
305,262,57418,1,0,1:0:0:0:
394,202,57606,2,0,P|438:193|482:196,1,89.9999972534181,4|4,0:3|0:3,0:0:0:0:
461,90,57981,1,0,1:0:0:0:
357,120,58168,1,0,1:0:0:0:
357,120,58262,1,0,1:0:0:0:
357,120,58356,6,0,B|278:91|278:91|150:94,1,179.999994506836,4|0,0:3|1:0,0:0:0:0:
89,144,58918,2,0,P|80:89|79:79,2,44.999998626709,4|0|4,0:3|1:0|0:3,0:0:0:0:
171,214,59293,1,4,0:3:0:0:
251,286,59481,2,0,P|213:310|170:319,1,89.9999972534181,0|0,1:0|0:0,0:0:0:0:
171,214,59856,5,4,0:3:0:0:
272,177,60043,2,0,B|328:167|328:167|459:186,2,179.999994506836,0|4|4,0:0|0:3|0:3,0:0:0:0:
171,214,60981,1,0,1:0:0:0:
188,107,61168,1,0,0:0:0:0:
115,26,61356,6,0,P|189:71|286:30,1,179.999994506836,4|0,0:3|1:0,0:0:0:0:
374,82,61918,2,0,L|394:15,2,44.999998626709,4|0|4,0:3|1:0|0:3,0:0:0:0:
286,146,62293,2,0,P|285:210|296:248,1,89.9999972534181,4|0,0:3|1:0,0:0:0:0:
426,359,62668,6,0,B|381:332|381:332|233:336,1,179.999994506836,12|4,0:3|0:3,0:0:0:0:
291,234,63231,1,0,1:0:0:0:
147,295,63418,1,12,0:3:0:0:
182,192,63606,2,0,L|181:130,2,44.999998626709,0|0|0,1:0|1:0|1:0,0:0:0:0:
75,218,63981,1,0,1:0:0:0:
64,198,64074,1,0,1:0:0:0:
60,175,64168,1,0,1:0:0:0:
95,63,64356,6,0,L|298:53,1,179.999994506836,12|0,0:3|1:0,0:0:0:0:
366,111,64918,2,0,L|408:56,2,44.999998626709,4|0|4,0:3|1:0|0:3,0:0:0:0:
309,203,65293,1,4,0:3:0:0:
418,214,65481,2,0,P|419:278|408:316,1,89.9999972534181,0|0,1:0|0:0,0:0:0:0:
335,378,65856,6,0,L|132:368,1,179.999994506836,4|0,0:3|1:0,0:0:0:0:
48,356,66418,2,0,L|-7:398,2,44.999998626709,4|0|4,0:3|1:0|0:3,0:0:0:0:
116,272,66793,1,4,0:3:0:0:
76,171,66981,2,0,P|140:170|178:181,1,89.9999972534181,0|0,1:0|0:0,0:0:0:0:
259,228,67356,6,0,P|258:164|269:126,1,89.9999972534181,12|0,0:3|0:0,0:0:0:0:
312,42,67731,1,4,0:3:0:0:
399,104,67918,2,0,B|409:187|409:187|469:300,1,179.999994506836,0|0,1:0|1:0,0:0:0:0:
160,118,68668,6,0,B|150:201|150:201|105:286,1,179.999994506836,8|4,1:3|0:3,0:0:0:0:
59,371,69231,1,0,1:0:0:0:
152,369,69418,1,4,0:3:0:0:
204,293,69606,2,0,L|241:231,2,44.999998626709,0|0|4,1:0|1:0|0:3,0:0:0:0:
104,286,69981,1,0,1:0:0:0:
104,286,70074,1,0,1:0:0:0:
104,286,70168,1,0,1:0:0:0:
104,286,70262,1,0,1:0:0:0:
104,286,70356,6,0,L|97:69,1,179.999994506836,4|0,0:3|1:0,0:0:0:0:
180,39,70918,1,4,0:3:0:0:
271,96,71106,2,0,P|267:140|253:184,1,89.9999972534181,0|4,1:0|0:3,0:0:0:0:
206,280,71481,1,0,1:0:0:0:
273,364,71668,1,4,0:3:0:0:
324,268,71856,6,0,P|392:230|499:264,1,179.999994506836,0|0,1:0|1:0,0:0:0:0:
411,330,72418,1,4,0:3:0:0:
324,268,72606,2,0,P|314:203|325:162,1,89.9999972534181,0|4,1:0|0:3,0:0:0:0:
346,75,72981,1,0,1:0:0:0:
421,152,73168,1,4,0:3:0:0:
430,44,73356,6,0,B|385:21|340:41|340:46|340:52|300:74|233:43,1,179.999994506836,0|4,1:0|1:3,0:0:0:0:
134,94,73918,1,4,1:3:0:0:
176,193,74106,1,4,1:3:0:0:
276,232,74293,1,4,1:3:0:0:
383,216,74481,1,4,1:3:0:0:
311,135,74668,5,12,1:3:0:0:
311,135,75043,1,12,1:3:0:0:
342,295,75231,1,12,1:3:0:0:
195,54,77481,6,0,L|256:45,3,37.5,6|2|2|2,0:3|0:0|0:0|0:0,0:0:0:0:
125,106,77856,6,0,P|102:47|120:-23,2,112.5,0|4|4,1:0|0:3|0:3,0:0:0:0:
187,171,78606,2,0,P|210:112|192:42,2,112.5,0|4|4,1:0|0:3|0:3,0:0:0:0:
182,261,79356,2,0,P|124:235|87:173,2,112.5,0|4|4,1:0|0:3|0:3,0:0:0:0:
185,351,80106,2,0,P|242:325|279:263,2,112.5,8|4|4,1:3|0:3|0:3,0:0:0:0:
182,261,80856,6,0,P|236:200|325:210,1,150,12|4,0:3|0:3,0:0:0:0:
454,291,81606,1,4,0:3:0:0:
454,291,81981,1,4,0:3:0:0:
403,181,82168,6,0,P|392:104|396:80,1,75,12|0,1:3|0:0,0:0:0:0:
452,28,82543,1,4,1:3:0:0:
300,75,82731,2,0,P|223:86|199:82,1,75,0|4,1:0|0:3,0:0:0:0:
140,129,83106,2,0,L|156:162,3,37.5,2|6|6|6,1:3|0:3|0:3|0:3,0:0:0:0:
253,184,83481,1,2,1:3:0:0:
253,184,83574,1,2,1:3:0:0:
253,184,83668,1,10,1:3:0:0:
256,192,83762,12,0,87043,0:0:0:0:
