osu file format v14

[General]
AudioFilename: audio.mp3
AudioLeadIn: 0
PreviewTime: 51324
Countdown: 0
SampleSet: Soft
StackLeniency: 0.7
Mode: 0
LetterboxInBreaks: 0
WidescreenStoryboard: 1

[Editor]
Bookmarks: 2856,14856,26856,38856,44856,52356,58356,64356,70356,83668
DistanceSpacing: 1
BeatDivisor: 4
GridSize: 32
TimelineZoom: 2

[Metadata]
Title:Azalea
TitleUnicode:アザレア
Artist:nano.RIPE
ArtistUnicode:nano.RIPE
Creator:Mir
Version:Normal
Source:citrus
Tags:mirakura hakura lantis infinite funimation passione 藍原 芽衣 Mei Aihara 藍原 柚子 Yuzu Aihara サブロウタ Saburouta
BeatmapID:1526563
BeatmapSetID:723193

[Difficulty]
HPDrainRate:3
CircleSize:3
OverallDifficulty:4
ApproachRate:5
SliderMultiplier:1.2
SliderTickRate:1

[Events]
//Background and Video events
0,0,"citrus.jpg",0,0
//Break Periods
//Storyboard Layer 0 (Background)
//Storyboard Layer 1 (Fail)
//Storyboard Layer 2 (Pass)
//Storyboard Layer 3 (Foreground)
//Storyboard Sound Samples

[TimingPoints]
2856,375,4,2,1,60,1,0
35856,-133.333333333333,4,2,1,60,0,0
36606,-100,4,2,1,60,0,0
51981,-100,4,2,1,60,0,0
52356,-100,4,2,1,80,0,1
73637,-100,4,2,1,5,0,1
73731,-100,4,2,1,80,0,1
75606,-100,4,2,1,60,0,0
77481,-100,4,2,0,60,0,0
77856,-100,4,2,1,60,0,0
87043,-100,4,2,1,5,0,0

[Colours]
Combo1 : 255,202,255
Combo2 : 253,223,179
Combo3 : 255,189,157
Combo4 : 250,163,175

[HitObjects]
74,70,2856,6,0,P|148:59|210:78,1,120,4|0,0:3|1:0,0:0:0:0:
216,123,3418,2,0,L|207:261,1,120,4|4,0:3|0:3,0:0:0:0:
205,303,3981,1,0,1:0:0:0:
308,241,4356,2,0,P|350:239|441:273,1,120,4|0,0:3|1:0,0:0:0:0:
462,307,4918,1,4,0:3:0:0:
462,307,5106,2,0,L|469:187,1,120,0|0,0:0|1:0,0:0:0:0:
372,60,5856,6,0,L|238:56,1,120,4|0,0:3|1:0,0:0:0:0:
195,76,6418,2,0,P|179:151|201:211,1,120,4|4,0:3|0:3,0:0:0:0:
220,243,6981,1,0,1:0:0:0:
139,331,7356,2,0,L|42:338,2,90,4|4|8,0:3|0:3|0:3,0:0:0:0:
254,364,8293,1,4,0:3:0:0:
254,364,8481,2,0,P|298:361|327:351,1,60,0|0,1:0|0:0,0:0:0:0:
365,327,8856,6,0,L|374:191,1,120,4|0,0:3|1:0,0:0:0:0:
408,159,9418,2,0,P|331:172|282:145,1,120,0|4,0:0|0:3,0:0:0:0:
260,106,9981,1,0,1:0:0:0:
155,164,10356,2,0,L|144:301,1,120,4|0,0:3|1:0,0:0:0:0:
177,333,10918,1,4,0:3:0:0:
177,333,11106,2,0,P|234:348|290:329,1,120,0|4,0:0|1:0,0:0:0:0:
394,269,11856,5,8,1:3:0:0:
394,269,12043,1,8,1:3:0:0:
344,159,12418,5,8,1:3:0:0:
344,159,12605,1,8,1:3:0:0:
407,57,12981,5,8,1:3:0:0:
407,57,13168,1,8,1:3:0:0:
228,31,13731,6,0,L|217:108,1,60,2|2,0:0|0:0,0:0:0:0:
165,116,14106,2,0,L|176:193,1,60,2|6,1:3|0:3,0:0:0:0:
221,211,14481,2,0,L|210:288,1,60,2|6,1:3|0:3,0:0:0:0:
173,316,14856,6,0,P|251:301|308:323,1,120,14|0,0:3|1:0,0:0:0:0:
331,354,15418,1,4,0:3:0:0:
416,288,15793,1,4,0:3:0:0:
416,288,15981,1,0,1:0:0:0:
369,177,16356,2,0,P|370:103|388:72,2,90,4|4|4,0:3|0:3|0:3,0:0:0:0:
416,288,17293,1,4,0:3:0:0:
416,288,17481,1,0,1:0:0:0:
302,249,17856,6,0,P|227:243|194:245,2,90,4|4|4,0:3|0:3|0:3,0:0:0:0:
359,354,18793,1,4,0:3:0:0:
359,354,18981,1,0,0:0:0:0:
240,336,19356,2,0,P|165:330|132:332,2,90,4|6|6,0:3|0:3|0:3,0:0:0:0:
283,233,20293,1,4,0:3:0:0:
283,233,20481,2,0,P|284:167|281:154,1,60,0|0,1:0|1:0,0:0:0:0:
240,133,20856,6,0,P|150:107|139:105,2,90,6|0|4,0:3|0:0|0:3,0:0:0:0:
347,78,21793,1,4,0:3:0:0:
347,78,21981,1,0,1:0:0:0:
441,151,22356,2,0,L|455:263,2,90,4|4|4,0:3|0:3|0:3,0:0:0:0:
347,78,23293,1,4,0:3:0:0:
347,78,23481,1,0,1:0:0:0:
288,182,23856,6,0,L|302:294,2,90,4|4|4,0:3|0:3|0:3,0:0:0:0:
245,75,24793,1,4,0:3:0:0:
245,75,24981,2,0,P|209:80|170:77,1,60,0|0,1:0|0:0,0:0:0:0:
125,72,25356,2,0,L|121:187,1,90,4|6,0:3|0:3,0:0:0:0:
49,214,25918,2,0,P|90:246|164:240,1,120,6|4,0:3|0:3,0:0:0:0:
212,224,26481,1,0,1:0:0:0:
247,109,26856,6,0,P|285:93|358:87,2,90,6|0|4,0:3|0:0|0:3,0:0:0:0:
135,143,27793,1,4,0:3:0:0:
135,143,27981,1,0,1:0:0:0:
152,261,28356,2,0,L|38:256,2,90,4|4|4,0:3|0:3|0:3,0:0:0:0:
240,342,29293,1,4,0:3:0:0:
240,342,29481,1,0,1:0:0:0:
349,293,29856,6,0,P|420:282|455:291,2,90,4|4|4,0:3|0:3|0:3,0:0:0:0:
287,193,30793,1,4,0:3:0:0:
287,193,30981,1,0,1:0:0:0:
330,88,31356,2,0,P|389:78|437:84,2,90,4|6|6,0:3|0:3|0:3,0:0:0:0:
218,44,32293,1,4,0:3:0:0:
218,44,32481,2,0,P|176:54|144:56,1,60,0|0,1:0|1:0,0:0:0:0:
109,88,32856,6,0,L|119:-8,2,90,6|0|4,0:3|0:0|0:3,0:0:0:0:
29,178,33793,1,4,0:3:0:0:
29,178,33981,1,0,1:0:0:0:
145,206,34356,2,0,P|146:268|128:307,2,90,4|4|4,0:3|0:3|0:3,0:0:0:0:
117,89,35293,1,4,0:3:0:0:
117,89,35481,2,0,P|169:80|199:80,1,60,0|0,1:0|0:0,0:0:0:0:
215,101,35856,6,0,B|265:83|300:100|301:104|303:108|343:126|401:99,1,180.000006866455,4|0,1:0|1:0,0:0:0:0:
458,270,37168,6,0,P|393:265|334:289,1,120,0|4,1:0|0:3,0:0:0:0:
300,326,37731,1,0,1:0:0:0:
300,326,37918,2,0,P|243:306|184:312,1,120,4|4,0:3|0:3,0:0:0:0:
143,356,38481,1,0,1:0:0:0:
97,245,38856,6,0,B|81:196|81:196|104:112,1,120,12|0,0:3|0:0,0:0:0:0:
118,73,39418,2,0,L|246:90,1,120,4|4,0:3|0:3,0:0:0:0:
296,76,39981,1,0,1:0:0:0:
400,135,40356,2,0,P|416:68|409:38,2,90,4|0|4,0:3|1:0|0:3,0:0:0:0:
349,243,41293,1,4,0:3:0:0:
349,243,41481,1,0,1:0:0:0:
229,237,41856,6,0,P|167:230|106:257,1,120,4|0,0:3|0:0,0:0:0:0:
72,292,42418,2,0,L|58:166,1,120,4|4,0:3|0:3,0:0:0:0:
46,53,43168,2,0,B|106:32|106:32|222:40,1,180,12|0,0:3|1:0,0:0:0:0:
341,57,44106,1,0,1:0:0:0:
264,149,44481,1,0,1:0:0:0:
250,268,44856,6,0,P|302:240|384:258,1,120,12|4,0:3|0:3,0:0:0:0:
480,235,45606,1,4,0:3:0:0:
401,144,45981,1,4,0:3:0:0:
282,162,46356,2,0,B|210:168|210:168|163:156,1,120,4|4,0:3|0:3,0:0:0:0:
109,264,47106,2,0,L|96:325,2,60,4|0|4,0:3|0:0|0:3,0:0:0:0:
66,221,47668,1,0,1:0:0:0:
66,221,47856,5,4,0:3:0:0:
12,113,48231,2,0,L|75:106,1,60,0|0,1:0|1:0,0:0:0:0:
94,50,48606,2,0,L|157:57,1,60,0|0,1:0|1:0,0:0:0:0:
195,99,48981,1,6,0:3:0:0:
303,47,49356,6,0,L|415:40,2,90,14|14|14,0:3|0:3|0:3,0:0:0:0:
196,102,50293,1,2,1:3:0:0:
196,102,50481,2,0,P|185:136|180:172,1,60,2|2,1:3|1:3,0:0:0:0:
133,197,50856,2,0,L|21:190,2,90,6|6|6,0:3|0:3|0:3,0:0:0:0:
259,324,51981,1,0,1:0:0:0:
350,254,52356,6,0,L|342:126,1,120,12|0,0:3|1:0,0:0:0:0:
340,74,52918,2,0,P|302:74|211:96,1,120,4|4,0:3|0:3,0:0:0:0:
195,145,53481,1,0,1:0:0:0:
97,214,53856,2,0,L|84:78,1,120,4|0,0:3|1:0,0:0:0:0:
70,36,54418,2,0,P|120:22|200:36,1,120,4|4,0:3|0:3,0:0:0:0:
233,68,54981,1,0,1:0:0:0:
347,33,55356,6,0,B|411:32|411:32|469:57,1,120,4|0,0:3|1:0,0:0:0:0:
454,113,55918,1,4,0:3:0:0:
417,227,56293,1,4,0:3:0:0:
468,335,56668,1,0,0:0:0:0:
468,335,56856,2,0,P|387:320|335:335,1,120,4|0,0:3|1:0,0:0:0:0:
313,374,57418,2,0,L|182:370,1,120,0|4,1:0|0:3,0:0:0:0:
149,328,57981,1,0,1:0:0:0:
92,222,58356,6,0,P|171:211|222:235,1,120,4|0,0:3|1:0,0:0:0:0:
260,251,58918,2,0,L|272:131,1,120,4|4,0:3|0:3,0:0:0:0:
277,71,59481,1,0,1:0:0:0:
165,115,59856,1,4,0:3:0:0:
165,115,60043,2,0,P|115:111|82:111,1,60,0|0,0:0|1:0,0:0:0:0:
45,119,60418,2,0,P|43:59|55:0,2,120,4|4|0,0:3|0:3|0:0,0:0:0:0:
83,165,61356,6,0,P|88:224|68:280,1,120,4|0,0:3|1:0,0:0:0:0:
38,332,61918,1,4,0:3:0:0:
148,378,62293,1,4,0:3:0:0:
191,265,62668,2,0,P|259:263|324:289,1,120,12|4,0:3|0:3,0:0:0:0:
351,320,63231,1,0,1:0:0:0:
351,320,63418,1,12,0:3:0:0:
455,260,63793,1,0,1:0:0:0:
455,260,63981,2,0,L|448:200,1,60,0|0,1:0|1:0,0:0:0:0:
421,146,64356,6,0,P|364:130|294:145,1,120,12|0,0:3|1:0,0:0:0:0:
258,178,64918,2,0,P|201:194|131:179,1,120,4|4,0:3|0:3,0:0:0:0:
93,148,65481,1,0,1:0:0:0:
4,66,65856,2,0,L|3:203,1,120,4|0,0:3|1:0,0:0:0:0:
2,246,66418,2,0,B|31:275|31:275|115:286,1,120,4|4,0:3|0:3,0:0:0:0:
169,293,66981,1,0,1:0:0:0:
280,336,67356,6,0,P|288:278|253:212,1,120,12|4,0:3|0:3,0:0:0:0:
233,170,67918,1,0,1:0:0:0:
337,103,68293,1,0,1:0:0:0:
231,46,68668,2,0,L|96:43,1,120,8|4,1:3|0:3,0:0:0:0:
51,39,69231,1,0,1:0:0:0:
25,156,69606,2,0,L|110:148,1,60,0|4,1:0|0:3,0:0:0:0:
144,144,69981,2,0,L|229:136,1,60,0|0,1:0|1:0,0:0:0:0:
263,129,70356,6,0,B|310:124|310:124|407:149,1,120,4|0,0:3|1:0,0:0:0:0:
373,201,70918,1,4,0:3:0:0:
373,201,71106,2,0,L|360:269,1,60,0|4,1:0|0:3,0:0:0:0:
352,319,71481,1,0,1:0:0:0:
274,227,71856,6,0,P|180:219|133:237,1,120,0|0,1:0|1:0,0:0:0:0:
134,281,72418,1,4,0:3:0:0:
134,281,72606,2,0,L|144:364,1,60,0|4,1:0|0:3,0:0:0:0:
191,373,72981,1,0,1:0:0:0:
296,315,73356,6,0,P|378:308|424:320,1,120,0|4,1:0|1:3,0:0:0:0:
473,326,73918,1,4,1:3:0:0:
473,326,74106,2,0,L|448:400,2,60,4|4|4,1:3|1:3|1:3,0:0:0:0:
502,273,74668,1,12,1:3:0:0:
431,176,75043,5,12,1:3:0:0:
431,176,75231,1,12,1:3:0:0:
116,126,77481,6,0,L|191:116,1,60,6|2,0:3|0:0,0:0:0:0:
222,139,77856,6,0,P|223:231|221:249,2,90,0|4|4,1:0|0:3|0:3,0:0:0:0:
269,102,78606,2,0,P|267:57|270:12,2,90,0|4|4,1:0|0:3|0:3,0:0:0:0:
278,162,79356,2,0,P|322:160|367:163,2,90,0|4|4,1:0|0:3|0:3,0:0:0:0:
222,139,80106,2,0,P|177:137|132:140,2,90,8|4|4,1:3|0:3|0:3,0:0:0:0:
278,162,80856,6,0,P|271:225|266:301,1,120,12|4,0:3|0:3,0:0:0:0:
365,350,81606,1,4,0:3:0:0:
447,262,81981,1,4,0:3:0:0:
447,262,82168,6,0,L|444:121,1,120,12|4,1:3|1:3,0:0:0:0:
438,81,82731,1,0,1:0:0:0:
321,109,83106,2,0,P|256:117|243:116,1,60,2|6,1:3|0:3,0:0:0:0:
205,96,83481,1,2,1:3:0:0:
205,96,83668,1,10,1:3:0:0:
256,192,83856,12,0,87043,0:0:0:0:
