osu file format v14

[General]
AudioFilename: audio.mp3
AudioLeadIn: 0
PreviewTime: 51324
Countdown: 0
SampleSet: Soft
StackLeniency: 0.7
Mode: 0
LetterboxInBreaks: 0
WidescreenStoryboard: 1

[Editor]
Bookmarks: 2856,14856,26856,38856,44856,52356,58356,64356,70356,83668
DistanceSpacing: 0.6
BeatDivisor: 4
GridSize: 32
TimelineZoom: 2

[Metadata]
Title:Azalea
TitleUnicode:アザレア
Artist:nano.RIPE
ArtistUnicode:nano.RIPE
Creator:Mir
Version:Insane
Source:citrus
Tags:mirakura hakura lantis infinite funimation passione 藍原 芽衣 Mei Aihara 藍原 柚子 Yuzu Aihara サブロウタ Saburouta
BeatmapID:1526561
BeatmapSetID:723193

[Difficulty]
HPDrainRate:5
CircleSize:4
OverallDifficulty:8
ApproachRate:9
SliderMultiplier:1.8
SliderTickRate:1

[Events]
//Background and Video events
0,0,"citrus.jpg",0,0
//Break Periods
//Storyboard Layer 0 (Background)
//Storyboard Layer 1 (Fail)
//Storyboard Layer 2 (Pass)
//Storyboard Layer 3 (Foreground)
//Storyboard Sound Samples

[TimingPoints]
2856,375,4,2,1,60,1,0
35856,-200,4,2,1,60,0,0
36606,-100,4,2,1,60,0,0
51981,-200,4,2,1,60,0,0
52356,-83.3333333333333,4,2,1,80,0,1
73637,-83.3333333333333,4,2,1,5,0,1
73731,-83.3333333333333,4,2,1,80,0,1
75606,-100,4,2,1,60,0,0
77481,-100,4,2,0,60,0,0
77856,-100,4,2,1,60,0,0
87043,-100,4,2,1,5,0,0

[Colours]
Combo1 : 255,202,255
Combo2 : 253,223,179
Combo3 : 255,189,157
Combo4 : 250,163,175

[HitObjects]
10,175,981,5,0,1:0:0:0:
10,175,1074,2,0,L|21:250,1,45,4|4,0:3|0:3,0:0:0:0:
90,308,1262,2,0,L|96:263,1,45,0|0,1:0|1:0,0:0:0:0:
155,171,1449,1,0,1:0:0:0:
155,171,1543,1,0,1:0:0:0:
284,0,1731,5,4,1:3:0:0:
298,92,1918,1,0,1:0:0:0:
302,121,2012,1,0,1:0:0:0:
305,150,2106,2,0,L|313:226,1,45,4|4,1:3|1:3,0:0:0:0:
231,229,2293,2,0,L|223:305,1,45,0|0,1:0|1:0,0:0:0:0:
338,337,2481,5,6,0:3:0:0:
387,333,2574,1,2,0:0:0:0:
427,304,2668,1,2,0:0:0:0:
446,259,2762,1,2,0:0:0:0:
444,210,2856,6,0,L|294:194,1,135,4|4,0:3|0:3,0:0:0:0:
309,195,3231,1,0,1:0:0:0:
155,171,3418,2,0,L|143:246,2,45,4|0|4,0:3|1:0|0:3,0:0:0:0:
173,85,3793,1,4,0:3:0:0:
0,119,3981,2,0,P|65:119|108:106,1,90,0|0,1:0|0:0,0:0:0:0:
259,32,4356,6,0,L|272:204,1,135,4|4,0:3|0:3,0:0:0:0:
269,166,4731,1,0,1:0:0:0:
286,313,4918,1,4,0:3:0:0:
286,313,5012,1,0,0:0:0:0:
286,313,5106,2,0,L|350:309,2,45,0|0|4,0:0|0:0|0:3,0:0:0:0:
108,251,5481,2,0,L|237:244,1,90,0|0,1:0|0:0,0:0:0:0:
419,343,5856,6,0,B|430:304|417:279|414:279|411:279|389:254|414:179,1,135,4|4,0:3|0:3,0:0:0:0:
406,211,6231,1,0,1:0:0:0:
467,108,6418,2,0,P|469:84|467:32,1,45,4|0,0:3|0:0,0:0:0:0:
406,211,6699,1,0,0:0:0:0:
406,211,6793,1,4,0:3:0:0:
283,147,6981,2,0,P|236:145|186:148,1,90,0|0,1:0|0:0,0:0:0:0:
73,347,7356,6,0,L|65:219,1,90,4|0,0:3|0:0,0:0:0:0:
67,257,7637,1,4,0:3:0:0:
67,257,7731,1,0,1:0:0:0:
191,298,7918,1,8,0:3:0:0:
191,298,8012,1,0,1:0:0:0:
191,298,8106,2,0,P|238:300|266:298,2,45,4|0|4,0:3|1:0|0:3,0:0:0:0:
157,179,8481,5,0,1:0:0:0:
153,134,8574,1,0,0:0:0:0:
150,89,8668,1,0,0:0:0:0:
146,44,8762,1,0,0:0:0:0:
141,1,8856,6,0,P|188:30|298:12,1,135,4|4,0:3|0:3,0:0:0:0:
265,29,9231,1,0,1:0:0:0:
440,13,9418,2,0,L|419:125,1,90,0|0,0:0|0:0,0:0:0:0:
408,252,9793,1,4,0:3:0:0:
337,136,9981,1,0,1:0:0:0:
469,186,10168,1,0,0:0:0:0:
344,318,10356,6,0,L|177:314,1,135,4|4,0:3|0:3,0:0:0:0:
209,314,10731,1,0,1:0:0:0:
113,362,10918,1,4,0:3:0:0:
131,176,11106,2,0,P|135:245|128:290,1,90,0|4,0:0|0:3,0:0:0:0:
121,158,11481,1,4,1:0:0:0:
274,50,11856,5,8,1:3:0:0:
253,257,12043,1,8,1:3:0:0:
222,26,12418,5,8,1:3:0:0:
241,233,12605,1,8,1:3:0:0:
266,5,12981,5,8,1:3:0:0:
245,209,13168,1,8,1:3:0:0:
244,194,13731,6,0,L|249:262,1,45,2|2,0:0|0:0,0:0:0:0:
310,291,13918,2,0,L|305:359,1,45,2|2,0:0|0:0,0:0:0:0:
197,371,14106,1,2,1:3:0:0:
152,376,14199,1,6,0:3:0:0:
109,365,14293,1,6,0:3:0:0:
73,339,14387,1,6,0:3:0:0:
49,301,14481,2,0,L|34:247,3,45,2|2|6|6,1:3|0:0|0:3|0:3,0:0:0:0:
31,226,14856,6,0,L|177:213,1,135,14|4,0:3|0:3,0:0:0:0:
165,214,15231,1,0,1:0:0:0:
111,136,15418,1,4,0:3:0:0:
137,304,15606,2,0,L|237:296,1,90,0|4,0:0|0:3,0:0:0:0:
349,203,15981,2,0,L|249:211,1,90,0|0,1:0|0:0,0:0:0:0:
409,296,16356,6,0,P|455:249|452:172,1,135,4|4,0:3|0:3,0:0:0:0:
456,182,16731,1,0,1:0:0:0:
386,98,16918,2,0,P|327:106|284:102,1,90,4|0,0:3|0:0,0:0:0:0:
170,216,17293,2,0,P|229:208|272:212,1,90,4|0,0:3|1:0,0:0:0:0:
320,293,17668,1,0,0:0:0:0:
90,324,17856,6,0,L|77:178,1,135,4|4,0:3|0:3,0:0:0:0:
78,190,18231,1,0,1:0:0:0:
144,36,18418,2,0,P|152:95|148:138,1,90,4|0,0:3|0:0,0:0:0:0:
176,305,18793,2,0,P|168:246|172:203,1,90,4|0,0:3|0:0,0:0:0:0:
253,162,19168,1,0,0:0:0:0:
343,326,19356,5,4,0:3:0:0:
343,326,19449,1,0,1:0:0:0:
286,256,19637,2,0,P|237:262|160:190,2,135,6|6|0,0:3|0:3|0:0,0:0:0:0:
286,256,20293,1,4,0:3:0:0:
253,162,20481,1,0,1:0:0:0:
78,190,20668,1,0,1:0:0:0:
78,190,20762,1,0,1:0:0:0:
78,190,20856,6,0,L|87:266,2,60,6|2|2,0:3|0:0|0:0,0:0:0:0:
72,109,21231,1,0,1:0:0:0:
4,231,21418,1,4,0:3:0:0:
165,210,21606,2,0,L|157:110,1,90,0|4,0:0|0:3,0:0:0:0:
274,10,21981,2,0,L|282:110,1,90,0|0,1:0|0:0,0:0:0:0:
264,236,22356,6,0,P|311:189|387:192,1,135,4|4,0:3|0:3,0:0:0:0:
376,187,22731,1,0,1:0:0:0:
351,281,22918,1,4,0:3:0:0:
171,299,23106,2,0,P|163:240|167:197,1,90,0|4,0:0|0:3,0:0:0:0:
351,281,23481,2,0,P|359:340|355:383,1,90,0|0,1:0|0:0,0:0:0:0:
264,236,23856,6,0,L|277:90,1,135,4|4,0:3|0:3,0:0:0:0:
276,102,24231,1,0,1:0:0:0:
164,209,24418,1,4,0:3:0:0:
380,189,24606,2,0,P|388:130|384:87,1,90,0|4,0:0|0:3,0:0:0:0:
170,119,24981,2,0,P|162:178|166:221,1,90,0|0,1:0|0:0,0:0:0:0:
281,340,25356,5,4,0:3:0:0:
281,340,25449,1,0,1:0:0:0:
338,270,25637,2,0,P|387:276|464:204,2,135,6|6|0,0:3|0:3|0:0,0:0:0:0:
338,270,26293,1,4,0:3:0:0:
386,99,26481,1,0,1:0:0:0:
200,155,26668,1,0,1:0:0:0:
200,155,26762,1,0,1:0:0:0:
200,155,26856,6,0,L|209:231,2,60,6|2|2,0:3|0:0|0:0,0:0:0:0:
191,74,27231,1,0,1:0:0:0:
120,195,27418,1,4,0:3:0:0:
282,119,27606,2,0,P|345:114|380:114,1,90,0|4,0:0|0:3,0:0:0:0:
488,211,27981,2,0,P|443:210|398:205,1,90,0|0,1:0|0:0,0:0:0:0:
272,250,28356,6,0,L|265:394,1,135,4|4,0:3|0:3,0:0:0:0:
265,384,28731,1,0,1:0:0:0:
454,324,28918,2,0,P|409:324|364:329,1,90,4|0,0:3|0:0,0:0:0:0:
174,358,29293,1,4,0:3:0:0:
274,222,29481,1,0,1:0:0:0:
265,384,29668,1,0,0:0:0:0:
177,253,29856,6,0,P|100:241|50:265,1,135,4|4,0:3|0:3,0:0:0:0:
50,264,30231,1,0,1:0:0:0:
122,335,30418,1,4,0:3:0:0:
145,168,30606,1,0,0:0:0:0:
242,302,30793,2,0,P|301:310|344:306,1,90,4|0,0:3|1:0,0:0:0:0:
399,240,31168,1,0,0:0:0:0:
302,91,31356,5,4,0:3:0:0:
302,91,31449,1,0,1:0:0:0:
359,161,31637,2,0,P|408:155|485:227,2,135,6|6|0,0:3|0:3|0:0,0:0:0:0:
359,161,32293,1,4,0:3:0:0:
461,86,32481,1,0,1:0:0:0:
407,248,32668,1,0,1:0:0:0:
407,248,32762,1,0,1:0:0:0:
407,248,32856,6,0,L|412:324,2,60,6|2|2,0:3|0:0|0:0,0:0:0:0:
359,161,33231,1,0,1:0:0:0:
321,313,33418,1,4,0:3:0:0:
160,236,33606,2,0,P|233:231|262:239,1,90,0|4,0:0|0:3,0:0:0:0:
122,336,33981,2,0,P|77:341|33:334,1,90,0|0,1:0|0:0,0:0:0:0:
143,102,34356,6,0,L|163:263,1,135,4|4,0:3|0:3,0:0:0:0:
159,235,34731,1,0,1:0:0:0:
367,154,34918,2,0,P|319:148|267:158,1,90,4|0,0:3|0:0,0:0:0:0:
279,316,35293,2,0,P|323:322|367:316,1,90,4|0,0:3|1:0,0:0:0:0:
441,237,35668,1,0,0:0:0:0:
219,100,35856,6,0,L|388:96,1,157.5,4|0,1:0|0:0,0:0:0:0:
457,81,36606,2,0,B|466:156|466:156|445:225,1,135,0|0,1:0|1:0,0:0:0:0:
391,328,37074,1,4,0:3:0:0:
391,328,37168,6,0,P|333:303|213:342,1,180,0|4,1:0|0:3,0:0:0:0:
302,221,37731,1,0,1:0:0:0:
122,362,37918,1,4,0:3:0:0:
36,219,38106,5,0,1:0:0:0:
74,196,38199,1,0,1:0:0:0:
118,188,38293,1,4,0:3:0:0:
163,194,38387,1,4,0:3:0:0:
202,215,38481,1,0,1:0:0:0:
202,215,38856,6,0,P|247:227|307:202,1,90,12|0,0:3|0:0,0:0:0:0:
288,216,39137,2,0,P|333:204|393:229,1,90,0|0,1:0|0:0,0:0:0:0:
374,214,39418,2,0,P|368:165|440:88,1,135,4|0,0:3|0:0,0:0:0:0:
414,97,39793,1,4,0:3:0:0:
436,279,39981,1,0,1:0:0:0:
488,188,40168,1,4,0:3:0:0:
276,125,40356,6,0,P|231:113|171:138,1,90,4|0,0:3|0:0,0:0:0:0:
197,131,40637,2,0,P|152:143|92:118,1,90,0|0,1:0|0:0,0:0:0:0:
111,133,40918,2,0,P|117:182|45:259,1,135,4|0,0:3|0:0,0:0:0:0:
71,250,41293,1,4,0:3:0:0:
11,317,41481,1,0,1:0:0:0:
150,224,41668,1,4,0:3:0:0:
277,347,41856,6,0,P|265:302|290:242,1,90,4|0,0:3|0:0,0:0:0:0:
276,261,42137,2,0,P|288:216|263:156,1,90,0|0,1:0|0:0,0:0:0:0:
278,175,42418,2,0,P|327:181|404:109,1,135,4|0,0:3|0:0,0:0:0:0:
395,135,42793,1,4,0:3:0:0:
205,139,42981,1,0,1:0:0:0:
276,261,43168,6,0,L|466:251,1,180,12|4,0:3|0:3,0:0:0:0:
395,135,43731,1,0,1:0:0:0:
494,166,43918,1,4,0:3:0:0:
309,187,44106,1,0,1:0:0:0:
383,34,44293,1,4,0:3:0:0:
210,71,44481,5,0,1:0:0:0:
174,96,44574,1,0,1:0:0:0:
130,107,44668,1,4,0:3:0:0:
86,101,44762,1,4,0:3:0:0:
47,80,44856,5,12,0:3:0:0:
47,80,45231,1,4,0:3:0:0:
79,203,45418,5,0,0:0:0:0:
151,114,45606,2,0,P|216:99|258:109,2,90,4|0|4,0:3|0:0|0:3,0:0:0:0:
192,286,46168,2,0,L|212:154,1,90,0|4,0:0|0:3,0:0:0:0:
328,69,46543,2,0,L|341:157,1,90,0|4,0:0|0:3,0:0:0:0:
458,291,46918,2,0,L|471:202,2,90,0|4|0,0:0|0:3|0:0,0:0:0:0:
355,370,47481,1,4,0:3:0:0:
191,307,47668,1,0,1:0:0:0:
191,307,47762,1,0,1:0:0:0:
191,307,47856,6,0,P|242:296|318:303,1,90,4|0,0:3|0:0,0:0:0:0:
101,341,48231,1,0,1:0:0:0:
101,341,48324,1,0,1:0:0:0:
101,341,48418,1,0,1:0:0:0:
101,341,48512,1,0,1:0:0:0:
101,341,48606,6,0,L|91:283,1,45,0|0,1:0|1:0,0:0:0:0:
149,224,48793,2,0,L|159:166,1,45,0|0,1:0|1:0,0:0:0:0:
66,38,48981,5,6,0:3:0:0:
102,63,49074,1,2,0:0:0:0:
146,74,49168,1,0,0:0:0:0:
190,68,49262,1,0,0:0:0:0:
229,47,49356,5,14,0:3:0:0:
31,188,49637,1,14,0:3:0:0:
230,355,49918,1,14,0:3:0:0:
230,355,50293,6,0,L|225:291,1,45,2|2,1:3|1:3,0:0:0:0:
229,172,50481,1,2,1:3:0:0:
270,155,50574,1,2,1:3:0:0:
314,148,50668,1,2,1:3:0:0:
359,151,50762,1,2,1:3:0:0:
402,164,50856,6,0,L|391:276,1,90,6|0,0:3|1:0,0:0:0:0:
443,335,51137,2,0,L|433:245,1,90,6|0,0:3|1:0,0:0:0:0:
470,217,51418,1,6,0:3:0:0:
333,340,51606,5,0,1:0:0:0:
333,340,51699,1,4,0:3:0:0:
333,340,51793,1,4,0:3:0:0:
333,340,51887,1,4,0:3:0:0:
333,340,51981,6,0,L|245:336,1,67.5,0|0,1:0|0:0,0:0:0:0:
181,360,52356,6,0,P|193:254|177:176,1,161.999995056153,12|0,0:3|0:3,0:0:0:0:
171,171,52731,1,0,1:0:0:0:
103,80,52918,2,0,L|26:66,2,53.9999983520508,4|0|4,0:3|1:0|0:3,0:0:0:0:
202,28,53293,1,4,0:3:0:0:
287,119,53481,2,0,L|412:149,1,107.999996704102,0|0,1:0|0:0,0:0:0:0:
365,39,53856,5,4,0:3:0:0:
481,173,54043,1,0,0:0:0:0:
481,173,54137,1,4,0:3:0:0:
481,173,54231,1,0,1:0:0:0:
329,218,54418,2,0,L|264:233,2,53.9999983520508,4|0|4,0:3|1:0|0:3,0:0:0:0:
441,305,54793,1,4,0:3:0:0:
392,144,54981,1,0,1:0:0:0:
441,305,55168,1,0,0:0:0:0:
329,218,55356,6,0,L|168:256,1,161.999995056153,4|4,0:3|0:3,0:0:0:0:
140,264,55731,1,0,1:0:0:0:
195,167,55918,2,0,L|247:154,2,53.9999983520508,4|0|4,0:3|1:0|0:3,0:0:0:0:
103,275,56293,1,4,0:3:0:0:
21,196,56481,2,0,P|66:166|136:163,1,107.999996704102,0|0,1:0|0:0,0:0:0:0:
70,371,56856,6,0,L|181:344,1,107.999996704102,4|0,0:3|0:0,0:0:0:0:
206,336,57137,1,4,0:3:0:0:
243,325,57230,1,0,1:0:0:0:
329,218,57418,2,0,L|218:245,1,107.999996704102,0|4,1:0|0:3,0:0:0:0:
193,253,57699,1,0,1:0:0:0:
156,264,57792,1,4,0:3:0:0:
19,256,57981,1,0,1:0:0:0:
95,141,58168,1,0,1:0:0:0:
95,141,58262,1,0,1:0:0:0:
95,141,58356,6,0,P|201:153|279:137,1,161.999995056153,4|4,0:3|0:3,0:0:0:0:
284,131,58731,1,0,1:0:0:0:
375,63,58918,2,0,L|389:-14,2,53.9999983520508,4|0|4,0:3|1:0|0:3,0:0:0:0:
427,162,59293,1,4,0:3:0:0:
336,247,59481,2,0,L|306:372,1,107.999996704102,0|0,1:0|0:0,0:0:0:0:
426,319,59856,5,4,0:3:0:0:
224,263,60043,1,0,0:0:0:0:
224,263,60137,1,4,0:3:0:0:
224,263,60231,1,0,1:0:0:0:
323,194,60418,2,0,L|335:246,2,53.9999983520508,4|0|4,0:3|1:0|0:3,0:0:0:0:
282,98,60793,1,4,0:3:0:0:
175,137,60981,2,0,P|103:139|43:148,1,107.999996704102,0|0,1:0|0:0,0:0:0:0:
249,15,61356,6,0,P|312:16|362:131,1,161.999995056153,4|4,0:3|0:3,0:0:0:0:
366,122,61731,1,0,1:0:0:0:
283,241,61918,1,4,0:3:0:0:
283,241,62012,1,0,1:0:0:0:
283,241,62106,1,4,0:3:0:0:
399,214,62293,2,0,L|527:219,1,107.999996704102,4|0,0:3|1:0,0:0:0:0:
332,325,62668,6,0,B|272:349|223:326|223:323|223:320|176:286|112:316,1,215.999993408203,12|4,0:3|0:3,0:0:0:0:
283,241,63231,1,0,1:0:0:0:
53,354,63418,1,12,0:3:0:0:
90,144,63606,1,0,1:0:0:0:
90,144,63699,1,0,1:0:0:0:
90,144,63793,1,0,1:0:0:0:
205,213,63981,5,0,1:0:0:0:
258,210,64074,1,0,1:0:0:0:
312,208,64168,1,0,1:0:0:0:
366,206,64262,1,0,1:0:0:0:
420,203,64356,6,0,P|463:157|417:41,1,161.999995056153,12|4,0:3|0:3,0:0:0:0:
428,41,64731,1,0,1:0:0:0:
326,108,64918,2,0,L|274:95,2,53.9999983520508,4|0|4,0:3|1:0|0:3,0:0:0:0:
448,65,65293,1,4,0:3:0:0:
420,203,65481,2,0,L|398:319,1,107.999996704102,0|0,1:0|0:0,0:0:0:0:
312,208,65856,6,0,P|206:196|128:212,1,161.999995056153,4|4,0:3|0:3,0:0:0:0:
123,218,66231,1,0,1:0:0:0:
115,337,66418,1,4,0:3:0:0:
16,269,66606,2,0,P|18:197|27:137,1,107.999996704102,4|4,0:3|0:3,0:0:0:0:
118,20,66981,2,0,P|116:92|107:152,1,107.999996704102,0|0,1:0|0:0,0:0:0:0:
123,218,67356,6,0,P|195:220|255:229,1,107.999996704102,12|0,0:3|0:0,0:0:0:0:
318,272,67731,1,4,0:3:0:0:
435,165,67918,6,0,P|372:166|322:281,1,161.999995056153,0|0,1:0|0:0,0:0:0:0:
318,272,68293,1,0,1:0:0:0:
154,365,68668,6,0,B|130:305|153:256|156:256|159:256|193:209|163:145,1,215.999993408203,8|4,1:3|0:3,0:0:0:0:
79,82,69231,1,0,1:0:0:0:
60,195,69418,1,4,0:3:0:0:
187,43,69606,1,0,1:0:0:0:
187,43,69699,1,0,1:0:0:0:
187,43,69793,1,4,0:3:0:0:
336,207,69981,1,0,1:0:0:0:
336,207,70074,1,0,1:0:0:0:
336,207,70168,1,0,1:0:0:0:
336,207,70262,1,0,1:0:0:0:
336,207,70356,6,0,L|154:191,1,161.999995056153,4|0,0:3|0:0,0:0:0:0:
148,212,70731,1,0,1:0:0:0:
116,91,70918,1,4,0:3:0:0:
159,296,71106,1,0,1:0:0:0:
240,103,71293,1,4,0:3:0:0:
63,210,71481,1,0,1:0:0:0:
260,227,71668,1,4,0:3:0:0:
230,73,71856,6,0,P|169:58|112:75,1,107.999996704102,0|0,1:0|0:0,0:0:0:0:
253,197,72231,1,0,1:0:0:0:
343,129,72418,2,0,P|404:114|461:131,1,107.999996704102,4|0,0:3|1:0,0:0:0:0:
496,218,72793,1,4,0:3:0:0:
390,22,72981,1,0,1:0:0:0:
324,148,73168,1,4,0:3:0:0:
492,30,73356,6,0,L|461:150,1,107.999996704102,0|0,1:0|0:0,0:0:0:0:
401,322,73731,1,4,1:3:0:0:
376,225,73918,1,4,1:3:0:0:
488,221,74106,1,4,1:3:0:0:
289,303,74293,1,4,1:3:0:0:
373,116,74481,1,4,1:3:0:0:
485,373,74668,1,12,1:3:0:0:
485,373,75043,5,12,1:3:0:0:
373,116,75231,1,12,1:3:0:0:
256,192,75981,12,0,77293,0:0:0:0:
165,138,77481,5,6,0:3:0:0:
209,136,77574,1,2,0:0:0:0:
254,134,77668,1,2,0:0:0:0:
299,132,77762,1,2,0:0:0:0:
349,131,77856,6,0,L|361:291,2,135,0|4|4,1:0|0:3|0:3,0:0:0:0:
165,138,78606,2,0,L|153:298,2,135,0|4|4,1:0|0:3|0:3,0:0:0:0:
362,264,79356,2,0,P|417:292|498:275,2,135,0|4|4,1:0|0:3|0:3,0:0:0:0:
154,272,80106,2,0,P|99:300|18:283,2,135,8|4|4,1:3|0:3|0:3,0:0:0:0:
256,212,80856,5,12,0:3:0:0:
256,212,81231,1,4,0:3:0:0:
256,212,81606,1,4,0:3:0:0:
256,212,81981,1,4,0:3:0:0:
65,98,82168,6,0,L|193:91,1,90,12|0,1:3|0:0,0:0:0:0:
399,80,82543,1,4,1:3:0:0:
256,212,82731,2,0,L|264:89,1,90,0|4,1:0|0:3,0:0:0:0:
265,95,83012,1,4,0:3:0:0:
268,68,83106,1,2,1:3:0:0:
324,271,83293,5,6,0:3:0:0:
285,293,83386,1,6,0:3:0:0:
241,297,83480,1,2,1:3:0:0:
199,281,83574,1,2,1:3:0:0:
169,248,83668,1,10,1:3:0:0:
256,192,83856,12,0,87043,0:0:0:0:
