osu file format v14

[General]
AudioFilename: audio.mp3
AudioLeadIn: 0
PreviewTime: 73248
Countdown: 0
SampleSet: Soft
StackLeniency: 0.7
Mode: 0
LetterboxInBreaks: 0
WidescreenStoryboard: 0

[Editor]
Bookmarks: 19488,34848,49728,111648,127008,141888,195168,209328,211488,218208,236448,264528,265728
DistanceSpacing: 0.8
BeatDivisor: 4
GridSize: 4
TimelineZoom: 2.2

[Metadata]
Title:Ao no Rakugaki
TitleUnicode:あおのらくがき
Artist:nano.RIPE
ArtistUnicode:nano.RIPE
Creator:Uta
Version:Okinawa
Source:劇場版 のんのんびより ばけーしょん
Tags:non non biyori vacation movie fluffy hair waifuiscute renge miyauchi komari koshigaya hotaru ichijou koshigaya natsumi anime 宮内 れんげ 越谷 小鞠 一条 蛍 越谷 夏海 opening op pop j-pop japanese reisevia
BeatmapID:2584425
BeatmapSetID:1243104

[Difficulty]
HPDrainRate:4.7
CircleSize:4.2
OverallDifficulty:8.2
ApproachRate:9.1
SliderMultiplier:2.1
SliderTickRate:1

[Events]
//Background and Video events
0,0,"Non.Non.Biyori .Vacation.full.2291516 (2).jpg",0,0
//Break Periods
//Storyboard Layer 0 (Background)
//Storyboard Layer 1 (Fail)
//Storyboard Layer 2 (Pass)
//Storyboard Layer 3 (Foreground)
//Storyboard Layer 4 (Overlay)
//Storyboard Sound Samples

[TimingPoints]
288,480,4,2,1,45,1,0
528,-125,4,2,1,45,0,0
7488,-166.666666666667,4,2,1,60,0,0
7968,-111.111111111111,4,2,1,60,0,0
8088,-111.111111111111,4,2,1,55,0,0
18768,-111.111111111111,4,2,1,65,0,0
19008,-166.666666666667,4,2,1,65,0,0
19488,-125,4,2,1,50,0,0
49008,-111.111111111111,4,2,1,50,0,0
50208,-83.3333333333333,4,2,1,55,0,0
69408,-83.3333333333333,4,2,1,50,0,0
69888,-125,4,2,1,50,0,0
72528,-83.3333333333333,4,2,1,75,0,0
72768,-100,4,2,1,75,0,0
73248,-71.4285714285714,4,2,1,70,0,1
86688,-62.5,4,2,1,70,0,1
88608,-71.4285714285714,4,2,1,70,0,1
102048,-71.4285714285714,4,2,1,65,0,1
103488,-83.3333333333333,4,2,1,65,0,1
103968,-100,4,2,1,55,0,0
111648,-125,4,2,1,50,0,0
140688,-100,4,2,1,50,0,0
142368,-83.3333333333333,4,2,1,55,0,0
162048,-125,4,2,1,55,0,0
164688,-83.3333333333333,4,2,1,75,0,0
164928,-100,4,2,1,75,0,0
165048,-83.3333333333333,4,2,1,75,0,0
165408,-71.4285714285714,4,2,1,70,0,1
178848,-62.5,4,2,1,70,0,1
180768,-71.4285714285714,4,2,1,70,0,1
194208,-76.9230769230769,4,2,1,70,0,0
196128,-71.4285714285714,4,2,1,70,0,0
210288,-100,4,2,1,70,0,0
210528,-71.4285714285714,4,2,1,70,0,0
213408,-90.9090909090909,4,2,1,70,0,0
219168,-83.3333333333333,4,2,1,55,0,0
237408,-100,4,2,1,55,0,0
238368,-100,4,2,1,40,0,0
249888,-100,4,2,1,45,0,0
250848,-100,4,2,1,55,0,0
251808,-100,4,2,1,65,0,0
252768,-100,4,2,1,75,0,0
253728,-100,4,2,1,70,0,0
259728,-66.6666666666667,4,2,1,70,0,0
261408,-71.4285714285714,4,2,1,70,0,1
267168,-62.5,4,2,1,70,0,1
269088,-71.4285714285714,4,2,1,70,0,1
283968,-111.111111111111,4,2,1,70,0,1
284448,-83.3333333333333,4,2,1,60,0,0
292128,-71.4285714285714,4,2,1,60,0,0
299808,-250,4,2,1,50,0,0
299928,-250,4,2,1,30,0,0
304488,-100,4,2,1,50,0,0
304728,-100,4,2,1,50,0,0
316608,-100,4,2,1,5,0,0

[Colours]
Combo1 : 254,170,67
Combo2 : 255,172,255
Combo3 : 168,207,255
Combo4 : 174,255,94

[HitObjects]
81,307,528,6,0,P|146:323|182:307,1,84,2|2,0:0|0:0,0:0:0:0:
225,256,1008,2,0,P|302:212|389:238,1,168,2|2,0:0|3:2,0:0:0:0:
456,275,1728,1,2,0:0:0:0:
456,275,1968,1,2,0:0:0:0:
302,374,2448,6,0,P|317:323|307:290,1,84,2|2,0:0|0:0,0:0:0:0:
366,206,2928,2,0,P|327:158|218:124,1,168,2|2,3:2|0:0,0:0:0:0:
140,121,3648,1,2,0:0:0:0:
244,99,3888,2,0,P|274:54|275:12,1,84,2|0,0:0|0:0,0:0:0:0:
179,28,4368,2,0,L|89:37,1,84,2|2,0:0|0:0,0:0:0:0:
0,37,4848,6,0,P|17:96|117:124,1,168,2|2,0:0|3:2,0:0:0:0:
95,36,5568,1,2,0:0:0:0:
95,36,5808,1,2,0:0:0:0:
241,130,6288,2,0,P|298:142|338:106,1,84,2|2,0:0|0:0,0:0:0:0:
408,112,6768,2,0,P|385:66|275:63,1,168,2|2,0:0|0:0,0:0:0:0:
241,130,7488,6,0,L|275:222,1,94.499997116089,10|0,1:3|0:0,0:0:0:0:
332,288,7968,6,0,P|289:307|243:301,1,94.499997116089,6|0,1:2|0:0,0:0:0:0:
172,237,8448,1,0,1:2:0:0:
116,315,8688,1,8,1:3:0:0:
116,315,8808,2,0,P|233:312|260:268,1,141.749995674133,8|0,1:3|0:0,0:0:0:0:
273,218,9408,2,0,L|280:166,2,47.2499985580445,8|0|0,0:0|0:0|1:2,0:0:0:0:
427,356,9888,6,0,P|434:306|440:254,1,94.499997116089,4|0,1:2|0:0,0:0:0:0:
471,170,10368,1,0,1:2:0:0:
376,173,10608,2,0,P|314:164|335:58,1,188.999994232178,2|6,0:0|1:3,0:0:0:0:
435,17,11328,1,4,1:3:0:0:
411,102,11568,1,2,1:2:0:0:
411,102,11688,1,0,1:2:0:0:
411,102,11808,6,0,P|359:109|306:88,1,94.499997116089,4|0,1:2|0:0,0:0:0:0:
224,66,12288,1,0,1:2:0:0:
269,213,12528,1,8,1:3:0:0:
269,213,12648,2,0,P|322:155|309:78,1,141.749995674133,8|0,1:3|0:0,0:0:0:0:
183,183,13248,1,10,1:3:0:0:
139,93,13488,2,0,L|96:112,1,47.2499985580445,2|0,1:2|1:2,0:0:0:0:
41,227,13728,6,0,P|97:169|85:93,1,141.749995674133,4|0,1:2|0:0,0:0:0:0:
55,45,14208,1,0,1:3:0:0:
166,18,14448,2,0,P|207:45|225:93,1,94.499997116089,8|0,1:3|1:3,0:0:0:0:
262,176,14928,2,0,L|216:186,1,47.2499985580445,8|0,1:3|0:0,0:0:0:0:
136,222,15168,1,2,1:3:0:0:
123,262,15288,1,0,1:3:0:0:
132,303,15408,1,4,1:3:0:0:
162,332,15528,1,4,1:3:0:0:
203,338,15648,6,0,P|307:327|365:251,1,188.999994232178,6|0,1:2|0:0,0:0:0:0:
256,192,16368,12,0,18528,0:0:0:0:
445,179,18768,5,10,1:2:0:0:
445,179,19008,2,0,B|410:144|410:144|352:141,1,94.499997116089,10|0,1:2|0:0,0:0:0:0:
286,145,19488,6,0,P|307:221|314:253,1,84,6|0,1:2|1:2,0:0:0:0:
279,316,19968,1,10,0:0:0:0:
279,316,20208,2,0,P|341:312|373:329,1,84,2|2,0:0|0:0,0:0:0:0:
467,366,20688,2,0,P|474:298|500:201,2,168,2|2|2,1:2|0:0|1:2,0:0:0:0:
359,320,21888,1,8,0:0:0:0:
301,254,22128,2,0,P|347:233|406:250,1,84,2|0,0:0|0:0,0:0:0:0:
235,353,22608,2,0,L|214:255,1,84,2|8,1:2|0:0,0:0:0:0:
218,168,23088,1,2,0:0:0:0:
218,168,23328,6,0,P|169:192|122:193,1,84,2|0,1:2|1:2,0:0:0:0:
56,136,23808,1,10,0:0:0:0:
82,46,24048,2,0,P|131:22|178:21,1,84,2|0,0:0|0:0,0:0:0:0:
250,30,24528,1,2,1:2:0:0:
279,124,24768,1,10,0:0:0:0:
193,98,25008,1,2,0:0:0:0:
343,67,25248,6,0,P|368:131|320:202,1,126,2|0,1:2|0:0,0:0:0:0:
322,207,25728,1,8,0:0:0:0:
230,166,25968,2,0,P|190:160|133:192,1,84,2|0,0:0|0:0,0:0:0:0:
122,265,26448,2,0,P|79:249|58:211,1,84,0|10,1:2|0:0,0:0:0:0:
205,244,26928,1,2,0:0:0:0:
205,244,27048,1,0,0:0:0:0:
205,244,27168,6,0,L|185:350,1,84,6|0,1:2|1:2,0:0:0:0:
121,383,27648,1,8,0:0:0:0:
45,335,27888,2,0,P|84:301|206:359,1,168,2|0,0:0|1:2,0:0:0:0:
277,270,28608,2,0,P|322:269|384:238,1,84,10|0,0:0|0:0,0:0:0:0:
453,298,29088,5,2,1:2:0:0:
512,210,29328,1,0,1:2:0:0:
422,184,29568,1,8,0:0:0:0:
374,277,29808,2,0,P|375:325|488:370,1,168,2|0,0:0|1:2,0:0:0:0:
465,292,30528,2,0,L|387:359,1,84,10|0,0:0|0:0,0:0:0:0:
302,369,31008,6,0,P|254:358|229:313,1,84,2|0,1:2|1:2,0:0:0:0:
259,240,31488,1,10,0:0:0:0:
179,180,31728,2,0,P|123:172|87:185,1,84,2|0,0:0|0:0,0:0:0:0:
40,255,32208,1,2,1:2:0:0:
40,255,32448,1,10,0:0:0:0:
100,323,32688,6,0,P|134:267|75:168,1,168,2|2,0:0|1:2,0:0:0:0:
10,135,33408,1,10,0:0:0:0:
59,49,33648,2,0,L|48:3,2,42,2|0|0,0:0|0:0|0:0,0:0:0:0:
150,94,34128,2,0,L|218:83,1,42,2|0,1:1|0:0,0:0:0:0:
346,21,34368,1,8,0:0:0:0:
382,11,34488,1,8,0:0:0:0:
416,27,34608,1,8,1:3:0:0:
453,31,34728,1,8,0:3:0:0:
485,12,34848,6,0,P|469:71|465:104,1,84,6|0,1:2|1:2,0:0:0:0:
392,168,35328,2,0,P|338:169|297:141,1,84,10|2,0:0|0:0,0:0:0:0:
367,80,35808,1,2,0:0:0:0:
289,22,36048,2,0,P|235:21|194:49,1,84,2|8,1:2|0:0,0:0:0:0:
138,101,36528,1,2,1:2:0:0:
138,101,36648,1,2,0:0:0:0:
138,101,36768,6,0,P|80:84|37:54,1,84,0|2,1:2|1:2,0:0:0:0:
130,1,37248,1,8,0:0:0:0:
229,104,37488,2,0,P|210:178|195:244,1,126,2|0,0:0|0:0,0:0:0:0:
180,245,37968,2,0,P|139:249|94:282,1,84,2|8,1:2|0:0,0:0:0:0:
28,220,38448,1,2,0:0:0:0:
22,319,38688,6,0,P|71:363|115:359,1,84,2|0,1:2|1:2,0:0:0:0:
185,338,39168,1,10,0:0:0:0:
185,338,39408,2,0,L|300:352,1,84,2|0,0:0|0:0,0:0:0:0:
353,337,39888,2,0,L|364:291,1,42,2|0,1:2|0:0,0:0:0:0:
449,269,40128,2,0,L|487:318,1,42,10|0,0:0|0:0,0:0:0:0:
512,206,40368,2,0,L|468:169,1,42,2|0,0:0|0:0,0:0:0:0:
378,138,40608,6,0,P|416:89|489:90,1,126,2|0,1:2|0:0,0:0:0:0:
512,99,41088,1,8,0:0:0:0:
405,28,41328,1,2,0:0:0:0:
333,90,41568,2,0,P|273:90|243:72,1,84,0|0,0:0|1:2,0:0:0:0:
224,57,41928,1,2,0:0:0:0:
198,35,42048,2,0,L|214:126,1,84,10|0,0:0|0:0,0:0:0:0:
205,153,42408,1,2,0:0:0:0:
201,192,42528,6,0,L|185:283,1,84,6|0,1:2|1:2,0:0:0:0:
110,343,43008,1,8,0:0:0:0:
207,361,43248,2,0,P|275:309|268:238,1,126,2|0,0:0|0:0,0:0:0:0:
265,237,43728,1,0,1:2:0:0:
356,325,43968,2,0,P|433:335|464:310,1,84,10|0,0:0|0:0,0:0:0:0:
510,228,44448,6,0,P|481:194|409:274,1,168,2|8,1:2|0:0,0:0:0:0:
356,325,45168,2,0,P|279:335|248:310,1,84,2|0,0:0|0:0,0:0:0:0:
198,282,45648,1,0,1:2:0:0:
198,282,45888,2,0,L|207:174,1,84,10|0,0:0|0:0,0:0:0:0:
236,173,46248,1,2,0:0:0:0:
236,173,46368,1,2,1:2:0:0:
123,217,46608,5,0,1:2:0:0:
105,93,46848,1,10,0:0:0:0:
204,198,47088,2,0,P|271:190|298:172,1,84,2|0,0:0|0:0,0:0:0:0:
368,143,47568,2,0,L|379:91,1,42,2|0,1:2|0:0,0:0:0:0:
460,58,47808,2,0,L|470:121,1,42,10|0,0:0|0:0,0:0:0:0:
483,181,48048,1,2,0:0:0:0:
386,274,48288,1,2,1:2:0:0:
386,274,48528,6,0,P|305:265|277:245,1,84,2|10,1:2|0:0,0:0:0:0:
223,206,49008,2,0,P|267:157|254:70,1,141.749995674133,2|0,0:0|0:0,0:0:0:0:
214,30,49488,2,0,L|162:26,1,47.2499985580445,2|0,1:2|0:0,0:0:0:0:
26,23,49728,1,10,0:0:0:0:
36,64,49848,1,8,0:0:0:0:
67,95,49968,1,10,1:3:0:0:
58,147,50088,1,8,0:0:0:0:
34,181,50208,6,0,L|109:196,1,62.9999980773926,4|0,1:2|0:0,0:0:0:0:
183,147,50448,2,0,L|196:229,1,62.9999980773926,0|0,1:2|0:0,0:0:0:0:
136,274,50688,2,0,P|117:342|183:384,1,125.999996154785,8|0,0:0|0:0,0:0:0:0:
215,323,51048,6,0,P|247:299|334:305,1,125.999996154785,8|0,0:0|0:0,0:0:0:0:
407,324,51408,1,2,1:2:0:0:
304,209,51648,2,0,P|254:208|218:198,1,62.9999980773926,10|0,0:0|0:0,0:0:0:0:
160,163,51888,2,0,P|156:125|151:81,1,62.9999980773926,2|0,0:0|0:0,0:0:0:0:
71,61,52128,6,0,P|53:138|47:212,1,125.999996154785,0|0,1:2|1:2,0:0:0:0:
8,271,52488,1,0,0:0:0:0:
8,271,52608,2,0,P|105:256|121:232,1,125.999996154785,8|0,0:0|0:0,0:0:0:0:
47,184,52968,2,0,L|82:320,1,125.999996154785,8|0,0:0|0:0,0:0:0:0:
144,366,53328,2,0,P|182:358|213:340,1,62.9999980773926,2|0,1:2|0:0,0:0:0:0:
289,288,53568,2,0,P|243:276|224:268,1,62.9999980773926,10|0,0:0|0:0,0:0:0:0:
165,196,53808,2,0,P|171:163|172:117,1,62.9999980773926,2|0,0:0|0:0,0:0:0:0:
217,59,54048,6,0,P|249:52|296:52,1,62.9999980773926,0|0,1:2|0:0,0:0:0:0:
367,65,54288,2,0,P|373:97|374:144,1,62.9999980773926,2|0,1:2|0:0,0:0:0:0:
329,200,54528,2,0,P|296:206|250:207,1,62.9999980773926,10|0,0:0|0:0,0:0:0:0:
180,196,54768,2,0,P|173:163|173:117,1,62.9999980773926,2|8,0:0|0:0,0:0:0:0:
217,59,55008,2,0,P|294:53|370:33,2,125.999996154785,2|2|10,0:0|1:2|0:0,0:0:0:0:
64,21,55728,1,2,0:0:0:0:
64,21,55848,1,0,0:0:0:0:
64,21,55968,6,0,L|49:102,1,62.9999980773926,2|0,1:2|0:0,0:0:0:0:
23,174,56208,2,0,P|60:205|95:208,1,62.9999980773926,0|0,1:2|0:0,0:0:0:0:
168,239,56448,2,0,P|218:198|304:197,1,125.999996154785,8|0,0:0|0:0,0:0:0:0:
378,228,56808,2,0,P|410:179|357:106,1,125.999996154785,8|0,0:0|0:0,0:0:0:0:
301,72,57168,1,2,1:2:0:0:
174,135,57408,5,10,0:0:0:0:
135,152,57528,1,8,0:0:0:0:
90,157,57648,1,0,1:2:0:0:
49,144,57768,1,0,1:2:0:0:
13,120,57888,6,0,P|38:195|54:247,1,125.999996154785,4|2,1:2|1:2,0:0:0:0:
205,290,58368,2,0,P|239:277|288:272,1,62.9999980773926,10|0,0:0|0:0,0:0:0:0:
314,346,58608,2,0,P|412:349|449:258,1,188.999994232178,2|0,0:0|0:0,0:0:0:0:
423,188,59088,1,2,1:2:0:0:
320,29,59328,6,0,L|307:100,1,62.9999980773926,10|0,0:0|0:0,0:0:0:0:
240,143,59568,2,0,P|256:231|351:233,1,188.999994232178,2|0,0:0|0:0,0:0:0:0:
423,188,60048,1,2,1:2:0:0:
456,28,60288,6,0,L|361:36,1,62.9999980773926,10|0,0:0|0:0,0:0:0:0:
308,90,60528,2,0,B|224:101|224:101|134:48,1,188.999994232178,2|0,0:0|0:0,0:0:0:0:
55,6,61008,1,2,1:2:0:0:
36,124,61248,6,0,P|19:148|12:192,1,62.9999980773926,10|0,0:0|0:0,0:0:0:0:
102,213,61488,2,0,P|118:188|126:145,1,62.9999980773926,2|0,0:0|0:0,0:0:0:0:
35,124,61728,6,0,L|71:296,1,125.999996154785,0|0,1:2|1:2,0:0:0:0:
129,314,62088,1,0,0:0:0:0:
129,314,62208,2,0,P|92:341|7:329,1,125.999996154785,8|0,0:0|0:0,0:0:0:0:
60,247,62568,2,0,L|203:266,1,125.999996154785,8|0,0:0|0:0,0:0:0:0:
260,323,62928,2,0,P|319:318|334:313,1,62.9999980773926,0|0,1:2|0:0,0:0:0:0:
409,274,63168,1,8,0:0:0:0:
263,154,63408,2,0,L|344:150,1,62.9999980773926,2|0,0:0|0:0,0:0:0:0:
425,180,63648,6,0,P|511:94|492:30,1,188.999994232178,2|0,1:2|0:0,0:0:0:0:
484,11,64128,1,10,0:0:0:0:
347,62,64368,2,0,P|310:65|257:52,1,62.9999980773926,2|8,0:0|0:0,0:0:0:0:
183,27,64608,2,0,P|180:67|170:91,1,62.9999980773926,0|0,0:0|0:0,0:0:0:0:
91,142,64848,1,2,1:2:0:0:
177,250,65088,2,0,P|184:283|191:322,1,62.9999980773926,8|0,0:0|0:0,0:0:0:0:
264,197,65328,2,0,P|268:164|278:125,1,62.9999980773926,2|0,0:0|0:0,0:0:0:0:
334,274,65568,6,0,P|413:293|465:223,1,125.999996154785,2|0,1:2|1:2,0:0:0:0:
389,200,65928,1,0,0:0:0:0:
389,200,66048,2,0,P|370:257|355:321,1,125.999996154785,8|2,0:0|0:0,0:0:0:0:
272,361,66408,2,0,P|200:355|180:303,1,125.999996154785,8|0,0:0|0:0,0:0:0:0:
236,227,66768,1,2,1:2:0:0:
93,305,67008,6,0,L|52:239,1,62.9999980773926,10|8,0:0|0:0,0:0:0:0:
139,134,67248,2,0,L|139:218,1,62.9999980773926,8|8,1:3|1:3,0:0:0:0:
236,227,67488,1,6,1:2:0:0:
179,31,68208,5,8,1:3:0:0:
314,169,68688,5,0,1:3:0:0:
377,39,68928,1,4,1:3:0:0:
227,100,69168,1,0,1:3:0:0:
413,147,69408,5,4,1:2:0:0:
413,147,69888,6,0,P|458:147|513:130,1,84,2|0,0:0|0:0,0:0:0:0:
512,37,70368,2,0,P|467:37|412:54,1,84,2|0,0:0|0:0,0:0:0:0:
345,95,70848,1,2,0:0:0:0:
245,41,71088,2,0,L|260:134,1,84,2|0,0:0|0:0,0:0:0:0:
152,176,71568,2,0,L|167:83,1,84,2|0,0:0|0:0,0:0:0:0:
130,12,72048,1,2,0:0:0:0:
130,12,72528,6,0,P|105:32|73:71,1,62.9999980773926,10|0,0:0|0:0,0:0:0:0:
41,141,72768,2,0,P|102:186|202:159,1,157.5,14|0,0:0|0:0,0:0:0:0:
179,176,73248,6,0,L|171:265,1,73.4999977569581,6|0,1:2|0:0,0:0:0:0:
218,336,73488,2,0,P|269:346|319:342,1,73.4999977569581,8|0,0:0|0:0,0:0:0:0:
322,203,73728,2,0,P|284:232|261:287,1,73.4999977569581,2|0,1:2|0:0,0:0:0:0:
390,359,73968,1,10,0:0:0:0:
390,359,74088,6,0,P|383:311|347:264,1,73.4999977569581,0|0,0:0|1:2,0:0:0:0:
467,252,74328,1,0,0:0:0:0:
467,252,74448,2,0,P|473:204|509:157,1,73.4999977569581,10|0,0:0|0:0,0:0:0:0:
499,94,74688,2,0,P|449:108|422:111,1,73.4999977569581,2|0,1:2|0:0,0:0:0:0:
314,25,74928,2,0,P|362:28|411:33,1,73.4999977569581,10|0,0:0|0:0,0:0:0:0:
367,179,75168,2,0,P|347:148|336:102,1,73.4999977569581,0|0,1:2|0:0,0:0:0:0:
474,0,75408,6,0,L|443:162,1,146.999995513916,10|0,0:0|1:2,0:0:0:0:
457,230,75768,1,0,0:0:0:0:
457,230,75888,2,0,P|475:279|481:315,1,73.4999977569581,10|0,0:0|1:2,0:0:0:0:
411,361,76128,2,0,L|317:343,1,73.4999977569581,0|0,0:0|1:2,0:0:0:0:
248,334,76368,6,0,L|299:255,1,73.4999977569581,10|0,0:0|0:0,0:0:0:0:
227,126,76608,2,0,L|264:206,1,73.4999977569581,2|0,1:2|0:0,0:0:0:0:
157,316,76848,2,0,L|175:233,1,73.4999977569581,10|0,0:0|0:0,0:0:0:0:
123,171,77088,6,0,P|73:181|37:183,1,73.4999977569581,2|0,1:2|0:0,0:0:0:0:
48,30,77328,2,0,P|71:69|75:105,1,73.4999977569581,10|0,0:0|0:0,0:0:0:0:
172,244,77568,2,0,P|221:249|271:248,1,73.4999977569581,2|0,1:2|0:0,0:0:0:0:
242,93,77808,2,0,P|220:140|215:176,1,73.4999977569581,10|0,0:0|0:0,0:0:0:0:
117,326,78048,6,0,P|72:334|38:337,1,73.4999977569581,2|0,1:2|0:0,0:0:0:0:
50,182,78288,2,0,P|70:229|71:265,1,73.4999977569581,10|0,0:0|0:0,0:0:0:0:
193,369,78528,2,0,P|234:367|297:354,1,73.4999977569581,2|0,1:2|0:0,0:0:0:0:
319,241,78768,2,0,P|278:243|215:256,1,73.4999977569581,10|0,0:0|0:0,0:0:0:0:
355,370,79008,1,0,1:2:0:0:
461,255,79248,6,0,P|464:227|464:177,1,73.4999977569581,8|0,0:0|0:0,0:0:0:0:
382,140,79488,2,0,P|435:92|506:101,1,146.999995513916,0|14,1:2|0:0,0:0:0:0:
464,181,79848,2,0,P|398:171|297:161,1,146.999995513916,0|0,1:2|1:2,0:0:0:0:
238,200,80208,2,0,P|176:205|150:206,1,73.4999977569581,10|0,0:0|0:0,0:0:0:0:
103,141,80448,2,0,P|96:91|98:55,1,73.4999977569581,2|0,1:2|0:0,0:0:0:0:
168,10,80688,2,0,P|205:5|253:5,1,73.4999977569581,10|8,0:0|0:0,0:0:0:0:
331,78,80928,6,0,P|393:83|417:82,1,73.4999977569581,6|0,1:2|0:0,0:0:0:0:
507,10,81168,2,0,P|489:74|462:187,1,146.999995513916,10|0,0:0|1:2,0:0:0:0:
370,240,81648,5,10,0:0:0:0:
370,240,81768,2,0,P|390:293|395:322,1,73.4999977569581,0|0,0:0|1:2,0:0:0:0:
326,372,82008,1,0,0:0:0:0:
326,372,82128,2,0,P|272:378|239:375,1,73.4999977569581,10|0,0:0|0:0,0:0:0:0:
172,328,82368,2,0,P|203:294|226:259,1,73.4999977569581,2|0,1:2|0:0,0:0:0:0:
244,181,82608,2,0,P|208:140|172:127,1,73.4999977569581,10|0,0:0|0:0,0:0:0:0:
97,149,82848,6,0,P|66:183|43:218,1,73.4999977569581,2|0,1:2|0:0,0:0:0:0:
24,347,83088,2,0,P|96:284|150:207,1,146.999995513916,10|0,0:0|1:2,0:0:0:0:
191,132,83568,5,10,0:0:0:0:
191,132,83688,2,0,P|238:127|285:114,1,73.4999977569581,0|0,1:2|0:0,0:0:0:0:
395,65,83928,1,0,1:2:0:0:
395,65,84048,2,0,P|340:58|309:51,1,73.4999977569581,10|0,0:0|0:0,0:0:0:0:
237,16,84288,2,0,P|186:19|153:25,1,73.4999977569581,2|0,1:2|0:0,0:0:0:0:
71,90,84528,2,0,P|35:86|0:77,1,73.4999977569581,10|0,0:0|0:0,0:0:0:0:
103,193,84768,6,0,P|180:135|229:139,1,146.999995513916,2|10,1:2|0:0,0:0:0:0:
195,234,85128,1,0,0:0:0:0:
195,234,85248,2,0,P|187:274|176:312,1,73.4999977569581,2|0,1:2|0:0,0:0:0:0:
93,349,85488,2,0,P|85:309|74:271,1,73.4999977569581,10|0,0:0|0:0,0:0:0:0:
31,177,85728,6,0,P|79:188|118:196,1,73.4999977569581,2|0,1:2|0:0,0:0:0:0:
272,272,85968,2,0,P|325:259|361:251,1,73.4999977569581,10|0,0:0|0:0,0:0:0:0:
482,140,86208,2,0,P|466:192|461:219,1,73.4999977569581,2|0,1:2|0:0,0:0:0:0:
477,350,86448,1,10,0:0:0:0:
348,174,86688,6,0,L|211:155,1,112,2|0,1:2|0:0,0:0:0:0:
150,132,86928,6,0,P|161:214|198:240,1,112,10|0,0:0|1:2,0:0:0:0:
265,246,87168,6,0,P|279:307|289:369,1,112,14|0,0:0|0:0,0:0:0:0:
215,384,87408,6,0,L|124:374,1,56,10|8,0:0|0:0,0:0:0:0:
82,364,87568,1,8,0:0:0:0:
82,364,87648,6,0,P|105:275|82:220,1,112,2|0,1:2|0:0,0:0:0:0:
66,159,87888,6,0,P|176:178|224:158,1,112,6|0,1:2|0:0,0:0:0:0:
279,113,88128,6,0,P|260:223|280:271,1,112,14|8,0:0|1:3,0:0:0:0:
351,323,88368,6,0,P|241:304|193:324,1,112,2|8,1:2|1:3,0:0:0:0:
159,337,88608,6,0,P|160:275|173:235,1,73.4999977569581,6|0,1:2|0:0,0:0:0:0:
200,178,88848,2,0,P|251:188|297:186,1,73.4999977569581,10|0,0:0|0:0,0:0:0:0:
373,190,89088,2,0,P|386:134|381:105,1,73.4999977569581,2|0,1:2|0:0,0:0:0:0:
298,37,89328,5,10,0:0:0:0:
298,37,89448,2,0,P|285:93|290:122,1,73.4999977569581,0|2,0:0|1:2,0:0:0:0:
461,64,89688,1,0,0:0:0:0:
461,64,89808,2,0,P|430:41|384:30,1,73.4999977569581,10|0,0:0|0:0,0:0:0:0:
213,98,90048,2,0,P|245:103|295:108,1,73.4999977569581,2|0,1:2|0:0,0:0:0:0:
373,190,90288,2,0,P|413:174|458:171,1,73.4999977569581,10|0,0:0|0:0,0:0:0:0:
345,285,90528,2,0,P|293:257|271:221,1,73.4999977569581,0|0,1:2|0:0,0:0:0:0:
440,268,90768,6,0,P|427:342|347:378,1,146.999995513916,10|0,0:0|1:2,0:0:0:0:
267,377,91128,1,0,0:0:0:0:
267,377,91248,2,0,P|228:364|190:325,1,73.4999977569581,10|0,0:0|1:2,0:0:0:0:
122,282,91488,2,0,P|161:269|199:230,1,73.4999977569581,0|0,0:0|1:2,0:0:0:0:
250,176,91728,6,0,P|304:169|356:182,1,73.4999977569581,10|0,0:0|0:0,0:0:0:0:
370,91,91968,2,0,P|403:134|417:185,1,73.4999977569581,2|0,1:2|0:0,0:0:0:0:
504,157,92208,2,0,P|483:207|445:245,1,73.4999977569581,10|0,0:0|0:0,0:0:0:0:
512,308,92448,6,0,P|442:317|385:274,1,146.999995513916,2|8,1:2|0:0,0:0:0:0:
471,222,92808,1,0,0:0:0:0:
471,222,92928,2,0,P|479:167|487:137,1,73.4999977569581,2|0,1:2|0:0,0:0:0:0:
491,53,93168,2,0,P|436:64|400:70,1,73.4999977569581,10|0,0:0|0:0,0:0:0:0:
320,133,93408,2,0,P|375:144|411:150,1,73.4999977569581,2|0,1:2|0:0,0:0:0:0:
386,0,93648,2,0,P|331:11|295:17,1,73.4999977569581,10|0,0:0|0:0,0:0:0:0:
207,23,93888,2,0,P|228:76|220:120,1,73.4999977569581,2|0,1:2|0:0,0:0:0:0:
204,199,94128,2,0,P|183:252|191:296,1,73.4999977569581,10|0,0:0|0:0,0:0:0:0:
256,354,94368,6,0,L|86:344,1,146.999995513916,2|8,1:2|0:0,0:0:0:0:
21,371,94728,1,0,0:0:0:0:
21,371,94848,2,0,P|21:322|40:284,1,73.4999977569581,0|0,1:2|0:0,0:0:0:0:
72,217,95088,5,14,0:0:0:0:
72,217,95208,2,0,P|126:227|165:221,1,73.4999977569581,0|0,1:2|0:0,0:0:0:0:
229,200,95448,1,0,1:2:0:0:
229,200,95568,2,0,P|236:146|229:111,1,73.4999977569581,10|0,0:0|0:0,0:0:0:0:
211,36,95808,6,0,P|157:29|100:42,1,97.9999970092774,2|8,1:2|0:0,0:0:0:0:
65,102,96048,6,0,P|58:156|76:216,1,97.9999970092774,10|8,0:0|0:0,0:0:0:0:
106,280,96288,6,0,P|167:296|259:267,1,146.999995513916,6|10,1:2|0:0,0:0:0:0:
355,181,96768,2,0,P|410:194|451:200,1,73.4999977569581,0|0,1:2|0:0,0:0:0:0:
505,234,97008,1,10,0:0:0:0:
505,234,97128,2,0,P|492:288|490:311,1,73.4999977569581,0|0,0:0|1:2,0:0:0:0:
403,369,97368,1,0,0:0:0:0:
403,369,97488,2,0,P|398:332|388:297,1,73.4999977569581,10|0,0:0|0:0,0:0:0:0:
306,248,97728,6,0,P|250:243|215:229,1,73.4999977569581,2|0,1:2|0:0,0:0:0:0:
263,97,97968,2,0,P|284:160|274:188,1,73.4999977569581,10|0,0:0|0:0,0:0:0:0:
159,284,98208,2,0,P|125:297|88:296,1,73.4999977569581,2|0,1:2|0:0,0:0:0:0:
19,232,98448,6,0,P|66:178|41:89,1,146.999995513916,10|0,0:0|1:2,0:0:0:0:
217,0,98928,2,0,P|207:70|254:124,1,146.999995513916,10|0,0:0|0:0,0:0:0:0:
346,117,99288,1,0,1:2:0:0:
346,117,99408,2,0,P|407:98|441:100,1,73.4999977569581,10|0,0:0|0:0,0:0:0:0:
512,20,99648,2,0,P|478:14|415:9,1,73.4999977569581,2|0,1:2|0:0,0:0:0:0:
316,39,99888,1,10,0:0:0:0:
478,161,100128,6,0,P|495:236|431:300,1,146.999995513916,2|8,1:2|0:0,0:0:0:0:
384,360,100488,1,0,0:0:0:0:
384,360,100608,2,0,P|359:311|358:273,1,73.4999977569581,0|0,1:2|0:0,0:0:0:0:
290,223,100848,1,8,0:0:0:0:
290,223,100968,2,0,P|339:198|377:197,1,73.4999977569581,0|0,1:2|0:0,0:0:0:0:
227,330,101208,1,0,1:2:0:0:
227,330,101328,2,0,P|164:323|143:313,1,73.4999977569581,8|0,0:0|0:0,0:0:0:0:
39,173,101568,5,10,0:0:0:0:
129,221,101688,1,8,3:0:0:0:
222,169,101808,2,0,P|277:152|321:155,1,73.4999977569581,10|0,1:3|0:0,0:0:0:0:
155,319,102048,1,6,1:2:0:0:
408,213,103488,6,0,P|288:222|302:153,1,220.499993270874,10|0,1:3|0:0,0:0:0:0:
301,82,103968,6,0,P|352:71|404:62,1,105,6|0,1:2|0:0,0:0:0:0:
490,11,104448,1,0,1:2:0:0:
503,110,104688,1,8,1:3:0:0:
503,110,104808,2,0,P|520:158|506:208,2,105,8|0|0,1:3|0:0|0:0,0:0:0:0:
432,161,105408,2,0,P|380:171|328:180,1,105,8|0,0:0|1:2,0:0:0:0:
302,169,105768,1,0,1:2:0:0:
281,156,105888,6,0,P|300:207|308:271,1,105,4|0,1:2|0:0,0:0:0:0:
254,338,106368,1,0,1:2:0:0:
166,291,106608,2,0,P|96:284|37:282,1,105,2|0,0:0|1:2,0:0:0:0:
226,204,107088,2,0,P|233:134|235:75,1,105,6|4,1:3|1:3,0:0:0:0:
341,269,107568,1,2,1:2:0:0:
341,269,107688,1,0,1:2:0:0:
341,269,107808,6,0,P|411:276|470:278,1,105,4|0,1:2|0:0,0:0:0:0:
478,183,108288,1,0,1:2:0:0:
415,116,108528,2,0,P|361:88|315:101,1,105,8|0,1:3|1:2,0:0:0:0:
262,167,109008,2,0,P|226:103|236:65,1,105,0|10,0:0|1:3,0:0:0:0:
145,38,109488,1,2,1:2:0:0:
145,38,109608,1,0,1:2:0:0:
145,38,109728,6,0,P|95:41|30:60,1,105,4|0,3:2|0:0,0:0:0:0:
109,132,110208,2,0,P|126:205|88:235,1,105,0|8,1:2|1:3,0:0:0:0:
37,310,110688,1,0,1:2:0:0:
30,177,110928,1,8,0:0:0:0:
137,299,111168,1,8,0:0:0:0:
137,299,111288,1,8,0:0:0:0:
137,299,111408,1,8,1:3:0:0:
218,194,111648,6,0,P|259:237|319:244,1,84,6|0,1:2|1:2,0:0:0:0:
362,206,112128,1,10,0:0:0:0:
362,206,112368,2,0,L|346:322,1,84,2|2,0:0|0:0,0:0:0:0:
379,368,112848,2,0,P|431:324|432:275,1,84,2|8,1:2|0:0,0:0:0:0:
449,202,113328,6,0,P|427:149|394:128,1,84,2|0,0:0|1:2,0:0:0:0:
335,56,113808,1,2,1:2:0:0:
427,59,114048,1,8,0:0:0:0:
300,135,114288,2,0,P|250:91|249:58,1,84,2|0,0:0|0:0,0:0:0:0:
214,0,114768,2,0,P|164:44|163:77,1,84,2|8,1:2|0:0,0:0:0:0:
154,149,115248,1,2,0:0:0:0:
154,149,115488,6,0,P|50:189|17:136,1,168,2|10,1:2|0:0,0:0:0:0:
161,57,116208,2,0,P|227:90|236:183,1,168,2|2,0:0|1:2,0:0:0:0:
209,262,116928,1,10,0:0:0:0:
317,253,117168,1,2,0:0:0:0:
260,333,117408,6,0,P|194:348|168:336,1,84,2|0,1:2|1:2,0:0:0:0:
85,326,117888,1,8,0:0:0:0:
85,326,118128,2,0,L|93:163,1,126,2|0,0:0|0:0,0:0:0:0:
110,177,118608,1,0,1:2:0:0:
157,93,118848,2,0,P|216:87|250:106,1,84,10|2,0:0|0:0,0:0:0:0:
280,181,119328,6,0,P|332:135|337:95,1,84,6|0,1:2|1:2,0:0:0:0:
192,176,119808,1,10,0:0:0:0:
254,268,120048,2,0,P|310:267|405:195,1,168,2|0,0:0|1:2,0:0:0:0:
390,92,120768,2,0,P|334:135|311:153,1,84,10|0,0:0|0:0,0:0:0:0:
483,154,121248,6,0,P|500:222|505:265,1,84,2|0,1:2|1:2,0:0:0:0:
501,340,121728,1,8,0:0:0:0:
424,273,121968,2,0,P|341:235|262:285,1,168,2|0,0:0|1:2,0:0:0:0:
195,339,122688,2,0,P|173:270|145:249,1,84,10|0,0:0|0:0,0:0:0:0:
31,304,123168,6,0,P|88:338|116:332,1,84,2|0,1:2|1:2,0:0:0:0:
195,190,123648,1,10,0:0:0:0:
85,169,123888,2,0,L|98:270,1,84,2|0,0:0|0:0,0:0:0:0:
186,306,124368,1,2,1:2:0:0:
268,242,124608,1,10,0:0:0:0:
348,311,124848,1,2,0:0:0:0:
348,311,125088,6,0,P|357:270|371:223,1,84,2|0,1:2|1:2,0:0:0:0:
405,144,125568,1,8,0:0:0:0:
336,87,125808,2,0,P|368:61|409:56,1,84,2|0,0:0|0:0,0:0:0:0:
497,77,126288,2,0,L|484:145,1,42,2|0,1:1|0:0,0:0:0:0:
444,218,126528,1,10,0:0:0:0:
441,238,126648,1,8,0:0:0:0:
439,258,126768,1,10,1:3:0:0:
443,278,126888,1,8,0:0:0:0:
454,295,127008,6,0,L|345:286,1,84,6|0,1:2|1:2,0:0:0:0:
237,301,127488,1,10,0:0:0:0:
304,228,127728,1,2,0:0:0:0:
317,359,127968,1,2,0:0:0:0:
237,301,128208,2,0,P|160:293|125:295,1,84,2|8,1:2|0:0,0:0:0:0:
59,313,128688,1,2,0:0:0:0:
59,313,128808,1,0,0:0:0:0:
59,313,128928,6,0,P|97:371|139:383,1,84,0|2,1:2|1:2,0:0:0:0:
164,207,129408,1,8,0:0:0:0:
164,207,129648,2,0,P|97:225|79:247,1,84,2|0,0:0|0:0,0:0:0:0:
233,272,130128,2,0,P|261:199|248:161,1,84,2|8,1:2|0:0,0:0:0:0:
239,108,130608,1,2,0:0:0:0:
156,165,130848,6,0,P|96:157|20:143,1,126,2|0,1:2|0:0,0:0:0:0:
8,133,131328,1,10,0:0:0:0:
49,32,131568,2,0,P|105:48|150:42,1,84,2|0,0:0|0:0,0:0:0:0:
283,79,132048,1,2,1:2:0:0:
196,141,132288,1,10,0:0:0:0:
204,28,132528,1,2,0:0:0:0:
349,20,132768,6,0,P|371:86|331:148,1,126,2|0,1:2|0:0,0:0:0:0:
331,160,133248,1,8,0:0:0:0:
459,206,133488,2,0,P|459:131|486:107,1,84,2|0,0:0|0:0,0:0:0:0:
504,34,133968,1,0,1:2:0:0:
504,34,134208,2,0,P|443:45|419:50,1,84,10|0,0:0|0:0,0:0:0:0:
335,106,134688,6,0,P|249:133|176:68,1,168,6|10,1:2|0:0,0:0:0:0:
99,21,135408,2,0,P|104:91|104:119,1,84,2|0,0:0|0:0,0:0:0:0:
43,181,135888,1,0,1:2:0:0:
134,205,136128,2,0,P|185:182|223:184,1,84,10|0,0:0|0:0,0:0:0:0:
288,239,136608,6,0,P|343:266|415:176,1,168,2|8,1:2|0:0,0:0:0:0:
212,182,137328,2,0,P|194:244|205:288,1,84,2|0,0:0|0:0,0:0:0:0:
233,348,137808,1,0,1:2:0:0:
233,348,137928,1,2,0:0:0:0:
233,348,138048,2,0,P|309:334|344:328,1,84,10|0,0:0|0:0,0:0:0:0:
346,328,138408,1,2,0:0:0:0:
379,334,138528,6,0,P|438:356|480:355,1,84,2|0,1:2|1:2,0:0:0:0:
407,235,139008,1,10,0:0:0:0:
407,235,139248,2,0,P|339:245|319:247,1,84,2|0,0:0|0:0,0:0:0:0:
188,229,139728,1,2,1:2:0:0:
254,301,139968,1,10,0:0:0:0:
215,150,140208,5,2,0:0:0:0:
215,150,140328,1,0,0:0:0:0:
215,150,140448,1,2,1:2:0:0:
361,164,140688,6,0,P|389:156|433:139,1,52.5,6|0,1:2|0:0,0:0:0:0:
481,40,140928,1,10,0:0:0:0:
442,57,141048,1,8,1:3:0:0:
400,61,141168,1,2,1:2:0:0:
360,47,141288,1,4,1:3:0:0:
330,16,141408,6,0,P|321:57|315:68,1,52.5,8|0,0:0|0:0,0:0:0:0:
250,171,141648,2,0,P|241:130|235:119,1,52.5,2|0,1:2|0:0,0:0:0:0:
192,27,141888,1,10,0:0:0:0:
145,45,142008,1,8,0:0:0:0:
99,69,142128,1,10,1:3:0:0:
47,46,142248,1,4,1:3:0:0:
0,21,142368,6,0,P|9:60|17:111,1,62.9999980773926,4|0,1:2|0:0,0:0:0:0:
99,170,142608,2,0,P|104:139|112:108,1,62.9999980773926,0|0,1:2|0:0,0:0:0:0:
186,53,142848,2,0,P|244:29|316:64,1,125.999996154785,8|0,0:0|0:0,0:0:0:0:
381,104,143208,2,0,P|331:181|359:247,1,125.999996154785,8|0,0:0|0:0,0:0:0:0:
383,296,143568,1,2,1:2:0:0:
237,312,143808,2,0,P|190:336|176:337,1,62.9999980773926,10|0,0:0|0:0,0:0:0:0:
104,287,144048,2,0,P|102:247|113:219,1,62.9999980773926,2|0,0:0|0:0,0:0:0:0:
206,181,144288,6,0,P|249:215|259:231,1,62.9999980773926,0|0,1:2|0:0,0:0:0:0:
357,216,144528,2,0,P|354:247|342:276,1,62.9999980773926,0|0,1:2|0:0,0:0:0:0:
360,369,144768,2,0,P|286:358|256:310,1,125.999996154785,8|0,0:0|0:0,0:0:0:0:
342,276,145128,2,0,P|431:275|467:301,1,125.999996154785,8|0,0:0|0:0,0:0:0:0:
509,370,145488,1,2,1:2:0:0:
405,258,145728,2,0,P|395:205|404:175,1,62.9999980773926,10|0,0:0|0:0,0:0:0:0:
412,105,145968,2,0,P|446:73|472:65,1,62.9999980773926,2|0,0:0|0:0,0:0:0:0:
396,196,146208,6,0,P|357:208|314:205,1,62.9999980773926,0|0,1:2|0:0,0:0:0:0:
220,93,146448,2,0,P|235:143|233:167,1,62.9999980773926,2|0,1:2|0:0,0:0:0:0:
219,248,146688,2,0,P|206:296|190:316,1,62.9999980773926,10|0,0:0|0:0,0:0:0:0:
107,156,146928,2,0,P|122:205|122:223,1,62.9999980773926,2|8,0:0|0:0,0:0:0:0:
40,349,147168,6,0,P|74:325|106:315,1,62.9999980773926,2|0,0:0|0:0,0:0:0:0:
259,322,147408,2,0,P|225:318|181:293,1,62.9999980773926,2|0,1:2|0:0,0:0:0:0:
62,234,147648,2,0,P|94:221|137:215,1,62.9999980773926,10|0,0:0|0:0,0:0:0:0:
283,229,147888,2,0,P|252:222|222:211,1,62.9999980773926,2|0,0:0|0:0,0:0:0:0:
103,132,148128,6,0,P|159:87|248:114,1,125.999996154785,2|0,1:2|1:2,0:0:0:0:
298,114,148488,1,0,0:0:0:0:
298,114,148608,2,0,P|332:121|384:125,1,62.9999980773926,8|0,0:0|0:0,0:0:0:0:
448,77,148848,1,0,0:0:0:0:
448,77,148968,6,0,P|460:106|456:167,1,62.9999980773926,8|0,0:0|0:0,0:0:0:0:
312,164,149208,1,0,0:0:0:0:
312,164,149328,2,0,P|330:144|368:119,1,62.9999980773926,2|0,1:2|0:0,0:0:0:0:
469,221,149568,2,0,P|415:207|396:194,1,62.9999980773926,10|0,0:0|0:0,0:0:0:0:
277,275,149808,2,0,P|331:261|350:248,1,62.9999980773926,0|0,1:2|1:2,0:0:0:0:
453,365,150048,6,0,P|400:364|311:340,1,125.999996154785,4|2,1:2|1:2,0:0:0:0:
202,315,150528,2,0,L|132:320,1,62.9999980773926,10|0,0:0|0:0,0:0:0:0:
59,378,150768,2,0,P|110:316|66:226,1,188.999994232178,2|0,0:0|0:0,0:0:0:0:
0,163,151248,1,2,1:2:0:0:
103,61,151488,6,0,L|169:72,1,62.9999980773926,10|0,0:0|0:0,0:0:0:0:
248,3,151728,2,0,P|280:89|191:167,1,188.999994232178,2|0,0:0|0:0,0:0:0:0:
149,204,152208,1,2,1:2:0:0:
271,302,152448,6,0,L|260:229,1,62.9999980773926,10|0,0:0|0:0,0:0:0:0:
225,159,152688,2,0,B|324:127|326:230|430:184,1,188.999994232178,2|0,0:0|0:0,0:0:0:0:
497,147,153168,1,2,1:2:0:0:
434,290,153408,2,0,P|424:324|418:358,1,62.9999980773926,10|0,0:0|0:0,0:0:0:0:
332,247,153648,2,0,P|322:212|316:179,1,62.9999980773926,2|0,0:0|0:0,0:0:0:0:
266,316,153888,6,0,P|185:324|145:266,1,125.999996154785,0|0,1:2|1:2,0:0:0:0:
130,223,154248,1,0,0:0:0:0:
130,223,154368,2,0,L|141:147,1,62.9999980773926,8|0,0:0|0:0,0:0:0:0:
251,88,154608,1,0,0:0:0:0:
251,88,154728,2,0,L|230:164,1,62.9999980773926,8|0,0:0|0:0,0:0:0:0:
145,21,154968,1,0,0:0:0:0:
145,21,155088,2,0,L|162:106,1,62.9999980773926,2|0,1:2|0:0,0:0:0:0:
51,145,155328,2,0,L|64:65,1,62.9999980773926,10|0,0:0|0:0,0:0:0:0:
160,224,155568,2,0,L|147:144,1,62.9999980773926,2|0,0:0|0:0,0:0:0:0:
44,258,155808,6,0,P|92:332|229:306,1,188.999994232178,2|0,1:2|0:0,0:0:0:0:
226,319,156288,1,10,0:0:0:0:
326,235,156528,2,0,P|355:225|404:227,1,62.9999980773926,2|8,0:0|0:0,0:0:0:0:
440,306,156768,2,0,P|410:315|362:314,1,62.9999980773926,0|0,0:0|0:0,0:0:0:0:
326,235,157008,2,0,L|341:85,1,125.999996154785,2|8,1:2|0:0,0:0:0:0:
378,33,157368,1,0,0:0:0:0:
467,31,157488,1,2,0:0:0:0:
511,109,157608,1,0,0:0:0:0:
471,188,157728,6,0,P|440:184|408:174,1,62.9999980773926,2|0,1:2|0:0,0:0:0:0:
332,100,157968,2,0,P|301:104|269:114,1,62.9999980773926,0|0,1:2|0:0,0:0:0:0:
158,213,158208,2,0,P|202:213|229:197,1,62.9999980773926,8|0,0:0|0:0,0:0:0:0:
318,230,158448,1,2,0:0:0:0:
257,308,158568,2,0,P|259:338|273:371,1,62.9999980773926,4|0,1:2|0:0,0:0:0:0:
170,348,158808,5,8,0:0:0:0:
110,285,158928,1,10,1:3:0:0:
12,297,159048,1,8,1:3:0:0:
83,368,159168,1,10,0:0:0:0:
132,281,159288,1,8,0:0:0:0:
100,192,159408,1,8,1:3:0:0:
157,114,159528,1,8,1:3:0:0:
246,152,159648,1,6,1:2:0:0:
246,152,160368,6,0,L|275:162,2,31.4999990386963
159,154,160608,1,2,0:0:0:0:
157,312,160848,1,8,1:3:0:0:
40,263,161088,1,8,1:3:0:0:
192,230,161328,1,4,1:3:0:0:
57,351,161568,5,4,1:2:0:0:
57,351,162048,6,0,L|71:253,1,84,2|0,0:0|0:0,0:0:0:0:
147,224,162528,2,0,P|213:213|253:227,1,84,2|0,0:0|0:0,0:0:0:0:
315,287,163008,1,2,0:0:0:0:
180,375,163248,2,0,L|201:289,1,84,2|0,0:0|0:0,0:0:0:0:
294,205,163728,2,0,L|314:286,1,84,2|0,0:0|0:0,0:0:0:0:
405,343,164208,1,2,0:0:0:0:
405,343,164688,6,0,P|415:312|414:277,1,62.9999980773926,10|0,0:0|0:0,0:0:0:0:
371,208,164928,2,0,P|330:126|384:60,1,157.5,14|0,0:0|0:0,0:0:0:0:
358,74,165408,6,0,P|311:86|252:93,1,73.4999977569581,6|0,1:2|0:0,0:0:0:0:
234,162,165648,2,0,P|208:135|200:69,1,73.4999977569581,8|0,0:0|0:0,0:0:0:0:
324,29,165888,2,0,P|312:63|286:89,1,73.4999977569581,2|0,1:2|0:0,0:0:0:0:
169,15,166128,1,10,0:0:0:0:
169,15,166248,2,0,P|204:8|240:16,1,73.4999977569581,0|0,0:0|1:2,0:0:0:0:
138,152,166488,1,0,0:0:0:0:
138,152,166608,2,0,P|97:148|50:142,1,73.4999977569581,10|0,0:0|0:0,0:0:0:0:
0,54,166848,2,0,P|40:50|88:44,1,73.4999977569581,2|0,1:2|0:0,0:0:0:0:
203,84,167088,6,0,P|230:202|194:242,1,146.999995513916,10|0,0:0|1:2,0:0:0:0:
138,152,167448,1,0,0:0:0:0:
75,228,167568,2,0,L|90:318,1,73.4999977569581,10|0,0:0|0:0,0:0:0:0:
236,316,167808,2,0,P|197:288|144:287,1,73.4999977569581,0|0,1:2|0:0,0:0:0:0:
295,232,168048,5,10,0:0:0:0:
364,298,168168,2,0,P|403:326|456:327,1,73.4999977569581,0|0,1:2|0:0,0:0:0:0:
464,178,168408,1,0,1:2:0:0:
464,178,168528,2,0,P|436:217|435:270,1,73.4999977569581,10|0,0:0|0:0,0:0:0:0:
330,99,168768,2,0,P|358:138|359:191,1,73.4999977569581,2|0,1:2|0:0,0:0:0:0:
481,28,169008,2,0,P|453:67|452:120,1,73.4999977569581,10|0,0:0|0:0,0:0:0:0:
346,249,169248,6,0,P|307:236|283:206,1,73.4999977569581,2|0,1:2|0:0,0:0:0:0:
180,130,169488,2,0,P|141:143|117:173,1,73.4999977569581,10|0,0:0|0:0,0:0:0:0:
77,327,169728,2,0,P|112:274|110:249,1,73.4999977569581,2|0,1:2|0:0,0:0:0:0:
120,166,169968,2,0,P|115:131|88:89,1,73.4999977569581,10|0,0:0|0:0,0:0:0:0:
26,0,170208,6,0,P|20:35|-6:77,1,73.4999977569581,2|0,1:2|0:0,0:0:0:0:
73,166,170448,2,0,P|78:130|105:88,1,73.4999977569581,10|0,0:0|0:0,0:0:0:0:
170,3,170688,2,0,P|175:38|202:80,1,73.4999977569581,2|0,1:2|0:0,0:0:0:0:
261,140,170928,2,0,P|324:140|357:115,1,73.4999977569581,10|0,0:0|0:0,0:0:0:0:
331,0,171168,6,0,P|305:28|291:85,1,73.4999977569581,0|0,1:2|0:0,0:0:0:0:
262,235,171408,2,0,P|194:216|164:151,1,146.999995513916,8|0,0:0|1:2,0:0:0:0:
261,140,171768,1,0,0:0:0:0:
347,210,171888,6,0,P|344:287|266:328,1,146.999995513916,14|0,0:0|0:0,0:0:0:0:
219,258,172248,1,0,1:2:0:0:
137,317,172368,2,0,P|100:328|72:350,1,73.4999977569581,10|0,0:0|0:0,0:0:0:0:
47,252,172608,2,0,P|20:220|14:166,1,73.4999977569581,2|0,1:2|0:0,0:0:0:0:
39,98,172848,1,10,0:0:0:0:
135,112,172968,1,8,0:0:0:0:
168,201,173088,6,0,P|202:213|243:209,1,73.4999977569581,6|0,1:2|0:0,0:0:0:0:
316,272,173328,2,0,P|344:225|331:146,1,73.4999977569581,10|0,0:0|0:0,0:0:0:0:
448,176,173568,2,0,P|421:128|346:100,1,73.4999977569581,0|0,1:2|0:0,0:0:0:0:
272,98,173808,5,10,0:0:0:0:
272,98,173928,2,0,P|315:67|326:37,1,73.4999977569581,0|0,0:0|1:2,0:0:0:0:
467,32,174168,1,0,0:0:0:0:
467,32,174288,2,0,P|415:18|394:-5,1,73.4999977569581,10|0,0:0|0:0,0:0:0:0:
434,181,174528,2,0,P|428:144|407:115,1,73.4999977569581,2|0,1:2|0:0,0:0:0:0:
323,49,174768,2,0,P|293:70|257:75,1,73.4999977569581,10|0,0:0|0:0,0:0:0:0:
163,29,175008,6,0,P|151:76|161:108,1,73.4999977569581,2|0,1:2|0:0,0:0:0:0:
76,196,175248,2,0,L|285:226,1,146.999995513916,10|0,0:0|1:2,0:0:0:0:
389,292,175728,5,10,0:0:0:0:
464,251,175848,2,0,P|477:304|469:329,1,73.4999977569581,0|0,1:2|0:0,0:0:0:0:
389,200,176088,1,0,1:2:0:0:
312,246,176208,2,0,P|299:193|307:168,1,73.4999977569581,10|0,0:0|0:0,0:0:0:0:
389,292,176448,2,0,P|366:319|323:331,1,73.4999977569581,2|0,1:2|0:0,0:0:0:0:
238,365,176688,2,0,P|232:319|216:281,1,73.4999977569581,10|0,0:0|0:0,0:0:0:0:
159,244,176928,6,0,P|81:318|16:290,1,146.999995513916,2|10,1:2|0:0,0:0:0:0:
12,183,177288,1,0,0:0:0:0:
12,183,177408,6,0,P|55:203|80:243,1,73.4999977569581,2|0,1:2|0:0,0:0:0:0:
119,78,177648,2,0,P|133:121|132:161,1,73.4999977569581,10|0,0:0|0:0,0:0:0:0:
267,131,177888,2,0,P|245:174|209:196,1,73.4999977569581,2|0,1:2|0:0,0:0:0:0:
294,287,178128,2,0,P|255:287|221:275,1,73.4999977569581,10|0,0:0|0:0,0:0:0:0:
133,300,178368,5,2,1:2:0:0:
72,223,178488,1,2,0:0:0:0:
134,149,178608,1,10,0:0:0:0:
225,188,178728,1,2,0:0:0:0:
222,275,178848,6,0,P|310:285|373:248,1,112,2|0,1:2|0:0,0:0:0:0:
413,278,179088,6,0,P|483:241|507:185,1,112,10|0,0:0|1:2,0:0:0:0:
510,125,179328,6,0,P|485:52|421:22,1,112,14|0,0:0|0:0,0:0:0:0:
359,1,179568,6,0,P|344:61|307:90,1,56,10|8,0:0|0:0,0:0:0:0:
286,113,179728,1,8,0:0:0:0:
286,113,179808,6,0,P|225:98|187:49,1,112,2|0,1:2|0:0,0:0:0:0:
123,0,180048,6,0,P|84:48|24:63,1,112,6|0,1:2|0:0,0:0:0:0:
86,140,180288,6,0,P|147:148|190:193,1,112,14|8,0:0|1:3,0:0:0:0:
267,241,180528,6,0,P|184:286|131:273,1,112,2|8,1:2|1:3,0:0:0:0:
107,225,180768,6,0,P|87:250|83:311,1,73.4999977569581,6|0,1:2|0:0,0:0:0:0:
130,370,181008,2,0,P|168:379|226:354,1,73.4999977569581,10|0,0:0|0:0,0:0:0:0:
288,320,181248,2,0,P|321:303|372:303,1,73.4999977569581,2|0,1:2|0:0,0:0:0:0:
444,354,181488,1,10,0:0:0:0:
444,354,181608,6,0,P|477:371|528:371,1,73.4999977569581,0|2,0:0|1:2,0:0:0:0:
505,279,181848,1,0,0:0:0:0:
424,224,181968,2,0,P|425:188|464:123,1,73.4999977569581,10|0,0:0|0:0,0:0:0:0:
502,54,182208,2,0,P|451:74|415:68,1,73.4999977569581,2|0,1:2|0:0,0:0:0:0:
359,16,182448,2,0,P|338:53|341:107,1,73.4999977569581,10|0,0:0|0:0,0:0:0:0:
319,176,182688,6,0,P|253:135|242:107,1,73.4999977569581,0|0,1:2|0:0,0:0:0:0:
180,79,182928,2,0,P|67:113|48:178,1,146.999995513916,10|0,0:0|1:2,0:0:0:0:
147,168,183288,1,0,0:0:0:0:
77,234,183408,6,0,P|73:295|72:325,2,73.4999977569581,10|0|0,0:0|1:2|0:0,0:0:0:0:
145,369,183768,1,0,1:2:0:0:
209,295,183888,2,0,P|249:284|304:299,1,73.4999977569581,10|0,0:0|0:0,0:0:0:0:
384,320,184128,2,0,P|373:255|366:151,1,146.999995513916,2|8,1:2|0:0,0:0:0:0:
395,80,184488,1,0,0:0:0:0:
491,114,184608,6,0,P|478:145|473:193,1,73.4999977569581,2|0,1:2|0:0,0:0:0:0:
376,9,184848,2,0,P|388:40|394:88,1,73.4999977569581,10|0,0:0|0:0,0:0:0:0:
283,190,185088,2,0,P|287:153|301:119,1,73.4999977569581,2|0,1:2|0:0,0:0:0:0:
190,150,185328,6,0,P|151:179|109:181,1,73.4999977569581,10|0,0:0|0:0,0:0:0:0:
29,56,185568,2,0,P|76:67|107:98,1,73.4999977569581,2|0,1:2|0:0,0:0:0:0:
250,4,185808,2,0,P|203:15|172:46,1,73.4999977569581,10|0,0:0|0:0,0:0:0:0:
273,99,186048,2,0,P|340:89|361:65,1,73.4999977569581,2|0,1:2|0:0,0:0:0:0:
413,19,186288,1,10,0:0:0:0:
413,19,186528,6,0,P|378:117|394:169,1,146.999995513916,2|8,1:2|0:0,0:0:0:0:
333,237,186888,1,0,0:0:0:0:
333,237,187008,2,0,P|402:253|432:242,1,73.4999977569581,0|0,1:2|0:0,0:0:0:0:
470,315,187248,1,14,0:0:0:0:
512,233,187368,2,0,P|497:175|476:154,1,73.4999977569581,0|0,1:2|0:0,0:0:0:0:
444,75,187608,1,0,1:2:0:0:
387,155,187728,2,0,P|337:148|300:128,1,73.4999977569581,10|0,0:0|0:0,0:0:0:0:
268,61,187968,6,0,P|154:64|139:77,1,97.9999970092774,2|8,1:2|0:0,0:0:0:0:
98,98,188208,6,0,P|95:212|82:227,1,97.9999970092774,10|8,0:0|0:0,0:0:0:0:
36,282,188448,6,0,P|74:271|126:278,1,73.4999977569581,6|0,1:2|0:0,0:0:0:0:
221,339,188688,2,0,P|154:366|71:352,1,146.999995513916,10|0,0:0|1:2,0:0:0:0:
228,188,189168,1,10,0:0:0:0:
228,188,189288,2,0,P|247:226|244:277,1,73.4999977569581,0|0,0:0|1:2,0:0:0:0:
330,312,189528,1,0,0:0:0:0:
361,219,189648,2,0,P|398:195|447:193,1,73.4999977569581,10|0,0:0|0:0,0:0:0:0:
500,290,189888,2,0,P|463:293|425:273,1,73.4999977569581,2|0,1:2|0:0,0:0:0:0:
291,230,190128,2,0,P|328:233|366:213,1,73.4999977569581,10|0,0:0|0:0,0:0:0:0:
389,32,190368,6,0,P|368:63|364:108,1,73.4999977569581,2|0,1:2|0:0,0:0:0:0:
291,230,190608,2,0,P|260:253|150:237,1,146.999995513916,10|0,0:0|1:2,0:0:0:0:
129,35,191088,1,10,0:0:0:0:
129,35,191208,2,0,P|152:71|142:126,1,73.4999977569581,0|0,1:2|0:0,0:0:0:0:
94,179,191448,1,0,1:2:0:0:
16,133,191568,2,0,P|49:101|85:88,1,73.4999977569581,10|0,0:0|0:0,0:0:0:0:
254,42,191808,2,0,P|232:78|229:127,1,73.4999977569581,2|0,1:2|0:0,0:0:0:0:
286,182,192048,2,0,P|347:164|382:130,1,73.4999977569581,10|0,0:0|0:0,0:0:0:0:
449,63,192288,6,0,L|443:145,1,73.4999977569581,2|0,1:2|0:0,0:0:0:0:
386,0,192528,1,8,0:0:0:0:
320,72,192648,2,0,P|293:84|237:84,1,73.4999977569581,0|0,0:0|1:2,0:0:0:0:
168,26,192888,2,0,P|151:59|154:108,1,73.4999977569581,0|8,0:0|0:0,0:0:0:0:
69,145,193128,2,0,P|136:184|224:152,1,146.999995513916,0|0,1:2|1:2,0:0:0:0:
296,140,193488,2,0,P|333:122|378:124,1,73.4999977569581,8|0,0:0|0:0,0:0:0:0:
353,209,193728,5,10,0:0:0:0:
296,140,193848,1,0,1:0:0:0:
315,47,193968,1,10,1:3:0:0:
412,17,194088,1,8,0:0:0:0:
480,82,194208,1,6,1:2:0:0:
465,36,195168,6,0,L|446:128,1,68.2499968757631,8|0,0:0|0:0,0:0:0:0:
334,186,195408,2,0,L|349:109,1,68.2499968757631,4|0,1:2|0:0,0:0:0:0:
472,252,195648,2,0,L|427:241,2,45.4999979171754,10|8|8,0:0|0:0|0:0,0:0:0:0:
362,283,195888,2,0,L|317:272,2,45.4999979171754,8|8|8,0:0|0:0|0:0,0:0:0:0:
250,214,196128,6,0,P|160:178|103:203,1,146.999995513916,6|10,1:2|0:0,0:0:0:0:
40,248,196488,1,2,0:0:0:0:
95,329,196608,1,2,1:2:0:0:
176,269,196728,1,0,0:0:0:0:
116,192,196848,2,0,L|104:114,1,73.4999977569581,10|2,0:0|0:0,0:0:0:0:
130,25,197088,5,2,1:2:0:0:
184,99,197208,1,2,0:0:0:0:
220,16,197328,1,10,0:0:0:0:
275,89,197448,1,2,0:0:0:0:
379,6,197568,6,0,P|365:77|356:159,1,146.999995513916,2|10,1:2|0:0,0:0:0:0:
378,248,197928,1,2,0:0:0:0:
443,174,198048,2,0,P|498:160|519:168,1,73.4999977569581,2|0,1:2|0:0,0:0:0:0:
411,340,198288,6,0,P|322:330|285:271,1,146.999995513916,10|0,0:0|1:2,0:0:0:0:
222,44,198768,2,0,P|257:126|225:187,1,146.999995513916,10|0,0:0|0:0,0:0:0:0:
58,355,199248,2,0,P|111:282|180:280,1,146.999995513916,10|0,0:0|1:2,0:0:0:0:
296,134,199728,6,0,P|264:163|187:180,1,73.4999977569581,10|0,0:0|0:0,0:0:0:0:
141,135,199968,6,0,P|56:74|10:121,1,146.999995513916,2|10,1:2|0:0,0:0:0:0:
57,173,200328,1,2,0:0:0:0:
98,252,200448,1,2,1:2:0:0:
187,249,200568,1,0,0:0:0:0:
236,175,200688,2,0,P|302:111|378:132,1,146.999995513916,10|2,0:0|1:2,0:0:0:0:
452,151,201048,5,2,0:0:0:0:
367,206,201168,1,10,0:0:0:0:
458,253,201288,1,2,0:0:0:0:
373,308,201408,2,0,B|330:286|261:280|261:280|292:321,1,146.999995513916,2|10,1:2|0:0,0:0:0:0:
468,345,201768,1,2,0:0:0:0:
458,253,201888,2,0,L|453:165,1,73.4999977569581,2|0,1:2|0:0,0:0:0:0:
368,131,202128,6,0,P|440:82|517:101,1,146.999995513916,10|0,0:0|1:2,0:0:0:0:
321,281,202608,2,0,P|242:243|220:166,1,146.999995513916,10|0,0:0|0:0,0:0:0:0:
396,0,203088,2,0,P|402:86|347:144,1,146.999995513916,10|2,0:0|1:2,0:0:0:0:
273,117,203448,1,0,0:0:0:0:
273,117,203568,2,0,P|234:104|187:109,1,73.4999977569581,8|0,0:0|0:0,0:0:0:0:
72,209,203808,6,0,P|115:204|154:168,1,73.4999977569581,6|0,1:2|0:0,0:0:0:0:
82,108,204048,1,10,0:0:0:0:
72,209,204168,1,2,0:0:0:0:
158,266,204288,1,2,1:2:0:0:
240,210,204408,1,0,0:0:0:0:
320,272,204528,2,0,P|342:245|345:190,1,73.4999977569581,10|2,0:0|0:0,0:0:0:0:
258,73,204768,6,0,P|295:110|325:117,1,73.4999977569581,2|2,1:2|0:0,0:0:0:0:
425,126,205008,2,0,P|465:120|499:88,1,73.4999977569581,10|2,0:0|0:0,0:0:0:0:
348,207,205248,2,0,P|330:297|387:361,1,146.999995513916,2|10,1:2|0:0,0:0:0:0:
426,264,205608,1,2,0:0:0:0:
356,340,205728,2,0,L|277:333,1,73.4999977569581,2|0,1:2|0:0,0:0:0:0:
85,257,205968,6,0,L|274:234,1,146.999995513916,10|0,0:0|1:2,0:0:0:0:
128,68,206448,2,0,L|263:146,1,146.999995513916,10|0,0:0|0:0,0:0:0:0:
382,68,206928,2,0,L|247:146,1,146.999995513916,10|0,0:0|1:2,0:0:0:0:
427,257,207408,2,0,L|332:252,1,73.4999977569581,10|0,0:0|0:0,0:0:0:0:
261,284,207648,6,0,B|229:216|293:201|245:124,1,146.999995513916,4|10,1:2|0:0,0:0:0:0:
230,47,208008,1,2,0:0:0:0:
171,122,208128,2,0,P|128:136|87:124,1,73.4999977569581,2|0,1:2|0:0,0:0:0:0:
261,47,208368,5,10,0:0:0:0:
335,112,208488,1,2,0:0:0:0:
317,212,208608,1,2,1:2:0:0:
220,253,208728,1,2,0:0:0:0:
143,191,208848,6,0,P|81:155|12:175,1,146.999995513916,10|0,0:0|1:2,0:0:0:0:
160,323,209328,2,0,P|228:343|290:307,1,146.999995513916,10|0,0:0|1:2,0:0:0:0:
360,169,209808,2,0,P|388:197|391:265,1,97.9999970092774,8|0,0:0|1:2,0:0:0:0:
395,267,210048,2,0,P|440:269|480:242,1,73.4999977569581,6|0,1:2|0:0,0:0:0:0:
290,306,210288,2,0,L|250:301,2,35,10|8|8,0:0|0:0|0:0,0:0:0:0:
211,234,210528,6,0,P|99:242|53:246,1,146.999995513916,8|2,0:0|0:1,0:0:0:0:
0,303,210888,1,0,0:0:0:0:
71,234,211008,2,0,P|70:117|34:104,1,146.999995513916,8|8,0:0|1:3,0:0:0:0:
60,111,211488,5,12,0:0:0:0:
208,175,211728,1,2,0:0:0:0:
208,175,211848,1,2,1:2:0:0:
208,175,211968,1,8,0:0:0:0:
149,34,212208,1,2,1:2:0:0:
283,109,212448,1,8,0:0:0:0:
118,212,212688,5,2,0:0:0:0:
118,212,212808,1,2,1:2:0:0:
118,212,212928,1,10,0:0:0:0:
208,87,213168,1,2,1:2:0:0:
248,259,213408,6,0,P|284:278|334:275,1,57.7500017623902,10|0,0:0|0:0,0:0:0:0:
331,271,213648,2,0,P|370:247|412:247,1,57.7500017623902,2|0,0:0|1:2,0:0:0:0:
419,247,213888,1,8,0:0:0:0:
382,345,214128,1,2,1:2:0:0:
331,163,214368,1,10,0:0:0:0:
476,319,214608,5,6,1:2:0:0:
476,319,214728,1,0,0:0:0:0:
476,319,214848,1,2,0:0:0:0:
474,147,215088,1,2,0:0:0:0:
304,256,215328,1,12,0:0:0:0:
330,123,215568,5,2,0:0:0:0:
330,123,215688,1,0,1:2:0:0:
330,123,215808,1,10,0:0:0:0:
399,249,216048,1,0,1:2:0:0:
176,265,216288,1,8,0:0:0:0:
240,128,216528,6,0,L|247:211,1,57.7500017623902,2|0,0:0|1:2,0:0:0:0:
180,322,216768,2,0,L|175:264,1,57.7500017623902,8|0,0:0|0:0,0:0:0:0:
122,140,217008,1,0,1:2:0:0:
292,267,217248,6,0,P|340:204|317:130,1,115.50000352478,10|6,0:0|1:2,0:0:0:0:
348,131,217608,2,0,P|317:57|241:40,1,115.50000352478,2|0,0:0|0:0,0:0:0:0:
267,11,217968,2,0,P|188:0|135:57,1,115.50000352478,2|8,0:0|0:0,0:0:0:0:
133,49,218328,1,8,0:0:0:0:
136,58,218448,1,10,1:3:0:0:
48,176,218688,1,10,0:0:0:0:
50,197,218808,1,8,0:0:0:0:
52,219,218928,1,10,1:3:0:0:
55,240,219048,1,8,0:0:0:0:
57,262,219168,6,0,P|86:277|126:278,1,62.9999980773926,4|0,1:2|0:0,0:0:0:0:
160,368,219408,2,0,P|187:350|208:316,1,62.9999980773926,0|0,1:2|0:0,0:0:0:0:
265,195,219648,2,0,P|370:189|399:228,1,125.999996154785,8|0,0:0|0:0,0:0:0:0:
323,265,220008,2,0,L|162:235,1,125.999996154785,8|0,0:0|0:0,0:0:0:0:
96,258,220368,1,2,1:2:0:0:
37,67,220608,2,0,L|62:146,1,62.9999980773926,10|0,0:0|0:0,0:0:0:0:
143,174,220848,2,0,L|168:95,1,62.9999980773926,2|0,0:0|0:0,0:0:0:0:
226,42,221088,6,0,P|319:36|363:93,1,125.999996154785,0|0,1:2|1:2,0:0:0:0:
435,93,221448,1,0,0:0:0:0:
435,93,221568,2,0,P|475:86|502:60,1,62.9999980773926,8|0,0:0|0:0,0:0:0:0:
356,149,221808,1,0,0:0:0:0:
356,149,221928,2,0,P|343:186|342:228,1,62.9999980773926,8|0,0:0|0:0,0:0:0:0:
286,286,222168,1,0,0:0:0:0:
286,286,222288,6,0,P|322:302|355:303,1,62.9999980773926,2|0,1:2|0:0,0:0:0:0:
426,359,222528,2,0,P|442:322|443:290,1,62.9999980773926,10|0,0:0|0:0,0:0:0:0:
498,229,222768,2,0,P|461:212|429:212,1,62.9999980773926,2|0,0:0|0:0,0:0:0:0:
356,149,223008,6,0,P|319:165|287:166,1,62.9999980773926,0|0,1:2|0:0,0:0:0:0:
220,218,223248,2,0,P|203:181|203:149,1,62.9999980773926,2|0,1:2|0:0,0:0:0:0:
147,87,223488,2,0,P|183:70|216:70,1,62.9999980773926,10|0,0:0|0:0,0:0:0:0:
286,22,223728,2,0,P|302:58|303:91,1,62.9999980773926,2|8,0:0|0:0,0:0:0:0:
220,218,223968,2,0,P|185:222|155:206,1,62.9999980773926,2|0,0:0|0:0,0:0:0:0:
57,150,224208,2,0,P|57:179|70:239,1,62.9999980773926,2|0,1:2|0:0,0:0:0:0:
108,347,224448,2,0,P|108:318|121:258,1,62.9999980773926,10|0,0:0|0:0,0:0:0:0:
161,211,224688,1,2,0:0:0:0:
290,299,224928,6,0,P|378:289|408:248,2,125.999996154785,2|0|8,1:2|1:2|0:0,0:0:0:0:
244,166,225648,1,0,0:0:0:0:
244,166,225768,2,0,P|284:175|324:190,1,62.9999980773926,8|0,0:0|0:0,0:0:0:0:
409,124,226008,1,0,0:0:0:0:
409,124,226128,2,0,P|391:169|379:214,1,62.9999980773926,2|0,1:2|0:0,0:0:0:0:
478,292,226368,2,0,P|468:262|455:233,1,62.9999980773926,14|0,0:0|0:0,0:0:0:0:
304,182,226608,2,0,P|274:191|245:204,1,62.9999980773926,0|0,1:2|1:2,0:0:0:0:
183,283,226848,5,4,1:2:0:0:
183,283,227088,1,2,1:2:0:0:
371,261,227328,1,10,0:0:0:0:
245,203,227568,5,2,0:0:0:0:
245,203,227688,2,0,P|231:170|225:125,1,62.9999980773926,8|0,0:0|0:0,0:0:0:0:
196,63,227928,1,0,0:0:0:0:
196,63,228048,2,0,P|209:30|216:-15,1,62.9999980773926,2|0,1:2|0:0,0:0:0:0:
303,95,228288,2,0,P|410:109|434:67,1,125.999996154785,10|2,0:0|0:0,0:0:0:0:
505,7,228768,5,0,1:2:0:0:
505,7,229008,1,2,1:2:0:0:
413,106,229248,2,0,P|416:146|431:184,1,62.9999980773926,10|0,0:0|0:0,0:0:0:0:
509,118,229488,1,2,0:0:0:0:
424,184,229608,2,0,L|353:191,1,62.9999980773926,8|0,0:0|0:0,0:0:0:0:
262,129,229848,1,0,0:0:0:0:
262,129,229968,2,0,P|277:162|284:208,1,62.9999980773926,2|0,1:2|0:0,0:0:0:0:
318,275,230208,2,0,P|274:332|180:319,1,125.999996154785,10|2,0:0|0:0,0:0:0:0:
65,290,230688,5,2,1:2:0:0:
65,290,230928,1,0,1:2:0:0:
240,224,231168,2,0,P|245:196|235:153,1,62.9999980773926,8|0,0:0|0:0,0:0:0:0:
150,122,231408,1,0,0:0:0:0:
150,122,231528,2,0,P|144:149|155:193,1,62.9999980773926,8|0,0:0|0:0,0:0:0:0:
165,277,231768,1,0,0:0:0:0:
240,224,231888,2,0,P|274:216|310:215,1,62.9999980773926,0|0,1:2|0:0,0:0:0:0:
493,137,232128,2,0,P|437:180|369:166,1,125.999996154785,8|0,0:0|0:0,0:0:0:0:
254,87,232608,5,0,1:2:0:0:
254,87,232848,1,0,1:2:0:0:
408,24,233088,2,0,P|422:65|414:101,1,62.9999980773926,8|0,0:0|0:0,0:0:0:0:
384,175,233328,1,0,0:0:0:0:
384,175,233448,2,0,P|369:216|378:252,1,62.9999980773926,8|0,0:0|0:0,0:0:0:0:
413,328,233688,1,0,0:0:0:0:
413,328,233808,2,0,P|347:275|301:287,2,125.999996154785,2|10|2,1:2|0:0|0:0,0:0:0:0:
254,361,234528,5,2,1:2:0:0:
254,361,234768,1,0,1:2:0:0:
216,244,235008,2,0,P|210:212|218:171,1,62.9999980773926,8|0,0:0|0:0,0:0:0:0:
253,93,235248,1,0,0:0:0:0:
161,118,235368,2,0,L|89:125,1,62.9999980773926,12|0,0:0|0:0,0:0:0:0:
188,24,235608,1,0,0:0:0:0:
253,93,235728,2,0,L|325:100,1,62.9999980773926,0|0,1:2|0:0,0:0:0:0:
394,46,235968,5,10,0:0:0:0:
485,66,236088,1,8,0:0:0:0:
511,155,236208,1,8,1:3:0:0:
465,236,236328,1,8,1:3:0:0:
374,252,236448,1,6,1:2:0:0:
374,252,237408,5,2,0:0:0:0:
491,365,237768,5,2,0:0:0:0:
377,164,238128,5,2,0:0:0:0:
285,305,238368,1,2,0:0:0:0:
256,192,238488,12,2,240288,0:0:0:0:
203,99,242208,5,2,0:0:0:0:
128,46,242448,1,2,0:0:0:0:
75,121,242688,1,2,0:0:0:0:
150,174,242928,1,2,0:0:0:0:
309,99,244128,5,2,0:0:0:0:
384,46,244368,1,2,0:0:0:0:
437,121,244608,1,2,0:0:0:0:
362,174,244848,1,2,0:0:0:0:
225,227,246048,5,2,0:0:0:0:
225,227,246288,1,2,0:0:0:0:
126,245,246528,1,2,0:0:0:0:
196,317,246768,1,2,0:0:0:0:
387,260,247968,5,2,0:0:0:0:
387,260,248208,1,2,0:0:0:0:
477,246,248448,1,2,0:0:0:0:
424,171,248688,1,2,0:0:0:0:
424,171,249888,5,10,1:3:0:0:
426,154,250128,1,10,1:3:0:0:
428,137,250368,1,10,1:3:0:0:
430,120,250608,1,10,1:3:0:0:
432,103,250848,5,10,0:0:0:0:
357,44,251088,1,10,0:0:0:0:
298,119,251328,1,10,0:0:0:0:
373,178,251568,1,10,0:0:0:0:
314,253,251808,5,10,0:0:0:0:
216,169,252048,1,10,0:0:0:0:
132,267,252288,1,10,0:0:0:0:
34,183,252528,1,10,0:0:0:0:
118,85,252768,5,10,0:0:0:0:
132,267,253008,1,10,0:0:0:0:
357,44,253728,5,6,1:2:0:0:
468,329,255648,5,6,1:2:0:0:
181,285,257568,5,6,1:2:0:0:
324,53,258528,6,0,P|353:103|340:160,2,105,2|2|10,0:0|0:0|0:0,0:0:0:0:
310,38,259128,1,8,0:0:0:0:
296,24,259248,2,0,L|225:30,1,52.5,10|0,1:3|0:0,0:0:0:0:
102,110,259488,1,10,0:0:0:0:
221,187,259728,6,0,P|261:251|249:316,1,105.000004005432,4|0,1:2|0:0,0:0:0:0:
266,319,259968,6,0,P|202:359|137:347,1,105.000004005432,4|0,1:2|0:0,0:0:0:0:
139,376,260208,6,0,P|99:312|115:230,1,157.500006008148,6|0,1:2|0:0,0:0:0:0:
245,171,260688,6,0,P|295:178|328:189,1,78.7500030040742,2|0,1:1|0:0,0:0:0:0:
435,249,260928,2,0,L|413:191,2,52.5000020027161,10|8|8,0:0|0:0|0:0,0:0:0:0:
391,131,261168,2,0,L|412:78,2,52.5000020027161,10|8|8,0:0|0:0|0:0,0:0:0:0:
430,3,261408,6,0,L|335:20,1,73.4999977569581,6|0,1:2|0:0,0:0:0:0:
275,80,261648,2,0,P|208:63|197:49,1,73.4999977569581,10|0,0:0|0:0,0:0:0:0:
99,4,261888,2,0,P|115:36|115:92,1,73.4999977569581,0|0,1:2|0:0,0:0:0:0:
95,174,262128,5,10,0:0:0:0:
95,174,262248,2,0,L|188:159,1,73.4999977569581,0|0,0:0|1:2,0:0:0:0:
261,215,262488,1,0,0:0:0:0:
261,215,262608,2,0,P|275:178|264:127,1,73.4999977569581,10|0,0:0|0:0,0:0:0:0:
173,270,262848,2,0,P|198:300|247:316,1,73.4999977569581,2|0,1:2|0:0,0:0:0:0:
327,189,263088,2,0,P|287:195|249:230,1,73.4999977569581,10|0,0:0|0:0,0:0:0:0:
321,363,263328,6,0,P|335:326|324:275,1,73.4999977569581,2|0,1:2|0:0,0:0:0:0:
271,144,263568,2,0,P|234:130|183:141,1,73.4999977569581,10|0,0:0|0:0,0:0:0:0:
98,237,263808,2,0,P|93:271|111:324,1,73.4999977569581,0|0,1:2|0:0,0:0:0:0:
164,379,264048,5,10,0:0:0:0:
210,294,264168,2,0,P|250:293|282:303,1,73.4999977569581,0|0,1:2|0:0,0:0:0:0:
380,345,264408,1,0,1:2:0:0:
347,247,264528,2,0,P|342:224|344:175,1,73.4999977569581,10|0,0:0|0:0,0:0:0:0:
455,132,264768,2,0,P|459:154|458:204,1,73.4999977569581,2|0,1:2|0:0,0:0:0:0:
314,109,265008,2,0,L|299:38,1,73.4999977569581,10|0,0:0|0:0,0:0:0:0:
415,1,265248,6,0,L|389:70,1,73.4999977569581,2|0,1:2|0:0,0:0:0:0:
336,186,265488,2,0,P|298:185|247:159,1,73.4999977569581,10|0,0:0|0:0,0:0:0:0:
135,97,265728,2,0,L|168:187,1,73.4999977569581,2|0,1:2|0:0,0:0:0:0:
214,282,265968,2,0,P|252:281|303:255,1,73.4999977569581,10|0,0:0|0:0,0:0:0:0:
417,194,266208,2,0,L|384:284,1,73.4999977569581,2|0,1:2|0:0,0:0:0:0:
338,379,266448,2,0,P|300:378|249:352,1,73.4999977569581,10|0,0:0|0:0,0:0:0:0:
130,238,266688,2,0,P|93:244|59:257,1,73.4999977569581,2|0,1:2|0:0,0:0:0:0:
174,379,266928,2,0,L|204:288,1,73.4999977569581,10|0,0:0|0:0,0:0:0:0:
250,243,267168,6,0,P|265:145|239:99,1,112,2|0,1:2|0:0,0:0:0:0:
222,56,267408,6,0,P|172:119|180:171,1,112,10|0,0:0|1:2,0:0:0:0:
194,227,267648,6,0,P|237:270|298:273,1,112,14|0,0:0|0:0,0:0:0:0:
373,251,267888,6,0,P|316:194|264:202,1,112,10|8,0:0|0:0,0:0:0:0:
194,227,268128,6,0,P|131:229|83:185,1,112,2|0,1:2|0:0,0:0:0:0:
12,154,268368,6,0,P|59:114|120:116,1,112,6|0,1:2|0:0,0:0:0:0:
202,145,268608,6,0,P|263:147|310:107,1,112,14|8,0:0|1:3,0:0:0:0:
387,68,268848,6,0,P|339:28|278:30,1,112,2|8,1:2|1:3,0:0:0:0:
184,32,269088,6,0,L|198:109,1,73.4999977569581,6|0,1:2|0:0,0:0:0:0:
259,240,269328,2,0,L|273:163,1,73.4999977569581,10|0,0:0|0:0,0:0:0:0:
335,96,269568,2,0,P|374:78|433:81,1,73.4999977569581,2|0,1:2|0:0,0:0:0:0:
261,238,269808,5,10,0:0:0:0:
261,238,269928,2,0,P|224:233|191:217,1,73.4999977569581,0|2,0:0|1:2,0:0:0:0:
382,161,270168,1,0,0:0:0:0:
382,161,270288,2,0,L|399:260,1,73.4999977569581,10|0,0:0|0:0,0:0:0:0:
453,315,270528,2,0,P|421:329|364:324,1,73.4999977569581,2|0,1:2|0:0,0:0:0:0:
303,383,270768,6,0,P|289:351|294:294,1,73.4999977569581,10|0,0:0|0:0,0:0:0:0:
221,201,271008,2,0,P|191:183|142:186,1,73.4999977569581,0|0,1:2|0:0,0:0:0:0:
45,300,271248,2,0,P|77:283|92:228,1,73.4999977569581,10|0,0:0|0:0,0:0:0:0:
9,100,271488,2,0,P|30:132|27:183,1,73.4999977569581,2|0,1:2|0:0,0:0:0:0:
112,99,271728,5,10,0:0:0:0:
153,182,271848,2,0,P|189:179|219:158,1,73.4999977569581,0|0,1:2|0:0,0:0:0:0:
306,67,272088,1,0,1:2:0:0:
213,70,272208,2,0,P|216:33|238:4,1,73.4999977569581,10|0,0:0|0:0,0:0:0:0:
369,5,272448,2,0,P|390:33|394:70,1,73.4999977569581,2|0,1:2|0:0,0:0:0:0:
336,154,272688,2,0,P|300:161|266:149,1,73.4999977569581,10|0,0:0|0:0,0:0:0:0:
447,164,272928,6,0,P|472:194|481:235,1,73.4999977569581,2|0,1:2|0:0,0:0:0:0:
351,299,273168,2,0,P|360:263|385:236,1,73.4999977569581,8|0,0:0|0:0,0:0:0:0:
481,101,273408,2,0,P|471:136|446:163,1,73.4999977569581,2|0,1:2|0:0,0:0:0:0:
281,230,273648,2,0,P|229:222|196:186,1,73.4999977569581,10|0,0:0|0:0,0:0:0:0:
177,89,273888,2,0,L|145:166,1,73.4999977569581,2|0,1:2|0:0,0:0:0:0:
61,211,274128,2,0,L|91:288,1,73.4999977569581,10|0,0:0|0:0,0:0:0:0:
160,375,274368,2,0,L|186:306,1,73.4999977569581,2|0,1:2|0:0,0:0:0:0:
213,209,274608,1,10,0:0:0:0:
213,209,274848,6,0,P|258:186|328:192,1,73.4999977569581,2|0,1:2|0:0,0:0:0:0:
401,209,275088,2,0,L|343:218,2,48.9999985046387,8|8|0,0:0|1:3|1:2,0:0:0:0:
485,202,275328,2,0,L|460:324,1,110.249996635437,4|0,1:3|0:0,0:0:0:0:
461,348,275568,6,0,P|373:375|319:352,1,146.999995513916,14|0,0:0|0:0,0:0:0:0:
227,330,275928,1,0,1:2:0:0:
296,270,276048,2,0,P|312:237|307:176,1,73.4999977569581,10|0,0:0|0:0,0:0:0:0:
267,130,276288,2,0,L|258:65,2,48.9999985046387,8|8|8,0:0|0:0|0:0,0:0:0:0:
174,35,276528,2,0,L|162:97,2,48.9999985046387,10|8|8,0:0|0:0|0:0,0:0:0:0:
100,142,276768,6,0,P|163:169|184:164,1,73.4999977569581,6|0,1:2|0:0,0:0:0:0:
332,66,277008,2,0,L|236:88,1,73.4999977569581,10|0,0:0|0:0,0:0:0:0:
214,246,277248,2,0,P|237:225|255:173,1,73.4999977569581,0|0,1:2|0:0,0:0:0:0:
165,168,277488,5,10,0:0:0:0:
126,258,277608,2,0,P|137:298|175:328,1,73.4999977569581,0|0,0:0|1:2,0:0:0:0:
239,361,277848,1,0,0:0:0:0:
158,320,277968,2,0,P|99:329|69:346,1,73.4999977569581,10|0,0:0|0:0,0:0:0:0:
0,368,278208,2,0,P|10:331|19:282,1,73.4999977569581,2|0,1:2|0:0,0:0:0:0:
54,153,278448,2,0,P|64:190|73:239,1,73.4999977569581,10|0,0:0|0:0,0:0:0:0:
163,100,278688,2,0,P|153:137|144:186,1,73.4999977569581,2|0,1:2|0:0,0:0:0:0:
242,42,278928,2,0,P|252:79|261:128,1,73.4999977569581,10|0,0:0|0:0,0:0:0:0:
325,187,279168,6,0,P|381:176|409:145,1,73.4999977569581,0|0,1:2|0:0,0:0:0:0:
424,68,279408,1,10,0:0:0:0:
331,106,279528,2,0,L|240:115,1,73.4999977569581,0|0,1:2|0:0,0:0:0:0:
212,32,279768,1,0,1:2:0:0:
257,113,279888,2,0,P|257:162|241:204,1,73.4999977569581,10|0,0:0|0:0,0:0:0:0:
189,253,280128,1,2,1:2:0:0:
209,343,280248,1,2,0:0:0:0:
304,355,280368,1,10,0:0:0:0:
363,284,280488,1,2,0:0:0:0:
319,208,280608,6,0,P|274:189|241:184,1,73.4999977569581,2|0,1:2|0:0,0:0:0:0:
86,183,280848,1,8,0:0:0:0:
86,183,280968,2,0,P|121:175|155:159,1,73.4999977569581,0|0,0:0|1:2,0:0:0:0:
282,43,281208,2,0,P|243:66|215:113,1,73.4999977569581,0|8,0:0|0:0,0:0:0:0:
273,253,281448,2,0,P|266:220|235:164,1,73.4999977569581,0|0,1:2|0:0,0:0:0:0:
225,88,281688,1,0,1:2:0:0:
155,159,281808,2,0,P|111:153|74:128,1,73.4999977569581,8|0,0:0|0:0,0:0:0:0:
52,43,282048,5,10,0:0:0:0:
143,65,282168,1,8,0:0:0:0:
155,159,282288,1,10,1:3:0:0:
65,206,282408,1,8,0:0:0:0:
0,128,282528,1,4,1:2:0:0:
340,241,283728,5,2,1:2:0:0:
340,241,283968,2,0,P|404:206|486:242,1,141.749995674133,14|0,0:0|0:0,0:0:0:0:
467,224,284448,6,0,L|456:140,1,62.9999980773926,6|0,1:2|0:0,0:0:0:0:
399,81,284688,2,0,L|410:-3,1,62.9999980773926,8|0,0:0|0:0,0:0:0:0:
504,2,284928,2,0,L|512:64,1,62.9999980773926,0|0,1:2|0:0,0:0:0:0:
458,161,285168,5,8,0:0:0:0:
399,81,285288,2,0,P|369:69|322:70,1,62.9999980773926,0|0,1:2|0:0,0:0:0:0:
200,75,285528,1,0,1:2:0:0:
225,0,285648,2,0,P|260:23|274:58,1,62.9999980773926,8|0,0:0|0:0,0:0:0:0:
248,141,285888,2,0,P|223:155|181:151,1,62.9999980773926,0|0,1:2|0:0,0:0:0:0:
110,117,286128,1,8,0:0:0:0:
204,231,286368,6,0,P|222:263|224:320,1,62.9999980773926,0|0,1:2|0:0,0:0:0:0:
189,361,286608,2,0,P|157:379|100:381,1,62.9999980773926,8|0,0:0|0:0,0:0:0:0:
54,349,286848,2,0,P|36:317|34:260,1,62.9999980773926,0|0,1:2|0:0,0:0:0:0:
5,172,287088,5,10,0:0:0:0:
77,223,287208,2,0,P|107:216|134:199,1,62.9999980773926,0|0,1:2|0:0,0:0:0:0:
180,118,287448,1,0,1:2:0:0:
90,76,287568,2,0,P|80:111|88:161,1,62.9999980773926,10|0,0:0|0:0,0:0:0:0:
214,205,287808,2,0,P|242:191|264:169,1,62.9999980773926,0|0,1:2|0:0,0:0:0:0:
190,55,288048,2,0,L|175:141,1,62.9999980773926,10|0,0:0|0:0,0:0:0:0:
134,199,288288,6,0,L|149:285,1,62.9999980773926,0|0,1:2|0:0,0:0:0:0:
195,345,288528,2,0,P|227:345|265:320,1,62.9999980773926,8|0,0:0|0:0,0:0:0:0:
326,266,288768,2,0,P|358:265|396:291,1,62.9999980773926,0|0,1:2|0:0,0:0:0:0:
460,349,289008,1,8,0:0:0:0:
460,349,289128,2,0,P|481:315|484:261,1,62.9999980773926,0|0,1:2|0:0,0:0:0:0:
512,206,289368,1,0,1:2:0:0:
512,206,289488,2,0,P|503:175|485:150,1,62.9999980773926,8|0,0:0|0:0,0:0:0:0:
399,91,289728,2,0,P|373:109|343:117,1,62.9999980773926,2|0,1:2|0:0,0:0:0:0:
263,21,289968,2,0,P|266:52|258:82,1,62.9999980773926,10|0,0:0|0:0,0:0:0:0:
169,131,290208,6,0,P|140:118|118:96,1,62.9999980773926,0|0,1:2|0:0,0:0:0:0:
50,1,290448,2,0,L|34:82,1,62.9999980773926,8|0,0:0|0:0,0:0:0:0:
130,158,290688,2,0,L|114:77,1,62.9999980773926,0|0,1:2|0:0,0:0:0:0:
169,10,290928,1,8,0:0:0:0:
237,72,291048,2,0,P|285:62|321:40,1,62.9999980773926,0|0,1:2|0:0,0:0:0:0:
388,13,291288,1,0,1:2:0:0:
388,13,291408,2,0,P|417:24|448:28,1,62.9999980773926,8|0,0:0|0:0,0:0:0:0:
512,110,291648,6,0,P|482:121|451:125,1,62.9999980773926,14|0,0:0|0:0,0:0:0:0:
305,181,291888,2,0,P|334:192|365:196,1,62.9999980773926,12|0,0:0|0:0,0:0:0:0:
476,238,292128,6,0,P|494:309|493:329,1,73.4999977569581,6|0,1:2|0:0,0:0:0:0:
383,372,292368,2,0,P|401:301|400:281,1,73.4999977569581,8|0,0:0|0:0,0:0:0:0:
305,181,292608,2,0,P|323:252|322:272,1,73.4999977569581,0|0,1:2|0:0,0:0:0:0:
287,333,292848,5,8,0:0:0:0:
227,252,292968,2,0,P|195:238|133:241,1,73.4999977569581,0|0,1:2|0:0,0:0:0:0:
58,268,293208,1,0,1:2:0:0:
92,173,293328,2,0,P|96:121|72:68,1,73.4999977569581,8|0,0:0|0:0,0:0:0:0:
0,0,293568,2,0,P|-4:52|20:105,1,73.4999977569581,0|0,1:2|0:0,0:0:0:0:
92,173,293808,2,0,P|142:168|173:144,1,73.4999977569581,8|0,0:0|0:0,0:0:0:0:
264,85,294048,6,0,P|314:83|348:104,1,73.4999977569581,0|0,1:2|0:0,0:0:0:0:
320,249,294288,2,0,L|289:156,1,73.4999977569581,8|0,0:0|0:0,0:0:0:0:
421,89,294528,2,0,P|415:126|390:154,1,73.4999977569581,0|0,1:2|0:0,0:0:0:0:
296,179,294768,5,10,0:0:0:0:
401,231,294888,2,0,P|423:259|429:295,1,73.4999977569581,0|0,1:2|0:0,0:0:0:0:
380,384,295128,1,0,1:2:0:0:
325,314,295248,2,0,L|246:307,1,73.4999977569581,10|0,0:0|0:0,0:0:0:0:
145,242,295488,2,0,L|223:235,1,73.4999977569581,0|0,1:2|0:0,0:0:0:0:
304,160,295728,2,0,L|225:153,1,73.4999977569581,10|0,0:0|0:0,0:0:0:0:
150,90,295968,6,0,P|131:193|168:232,2,146.999995513916,0|8|0,1:2|0:0|1:2,0:0:0:0:
20,13,296688,1,8,0:0:0:0:
20,13,296808,2,0,P|35:52|28:100,1,73.4999977569581,0|0,1:2|0:0,0:0:0:0:
111,160,297048,1,0,1:2:0:0:
111,160,297168,2,0,P|96:199|103:247,1,73.4999977569581,8|0,0:0|0:0,0:0:0:0:
87,329,297408,2,0,P|128:326|159:307,1,73.4999977569581,2|0,1:2|0:0,0:0:0:0:
260,229,297648,2,0,P|228:211|191:210,1,73.4999977569581,10|0,0:0|0:0,0:0:0:0:
224,368,297888,6,0,P|351:338|357:306,1,146.999995513916,0|8,1:2|0:0,0:0:0:0:
370,248,298248,1,0,0:0:0:0:
451,299,298368,2,0,P|465:264|455:210,1,73.4999977569581,8|0,0:0|0:0,0:0:0:0:
398,160,298608,2,0,L|380:110,2,48.9999985046387,8|8|8,1:3|0:0|0:0,0:0:0:0:
370,248,298848,1,8,0:0:0:0:
237,302,299088,5,8,1:3:0:0:
237,302,299208,1,8,0:0:0:0:
166,253,299328,5,10,0:0:0:0:
257,224,299448,1,8,0:0:0:0:
313,301,299568,1,0,1:2:0:0:
257,378,299688,1,0,1:2:0:0:
166,349,299808,6,0,B|124:316|109:271|129:226|143:221|156:217|208:158|218:92|186:56|138:44|138:44|100:65|88:113|103:160|173:204|173:204|255:214|292:188|326:148|326:148|363:188|408:191,1,819,6|2,1:2|0:0,0:0:0:0:
256,192,304608,12,0,316688,0:0:0:0:
