osu file format v14

[General]
AudioFilename: audio.mp3
AudioLeadIn: 0
PreviewTime: 46561
Countdown: 0
SampleSet: Soft
StackLeniency: 0.7
Mode: 0
LetterboxInBreaks: 0
WidescreenStoryboard: 1

[Editor]
Bookmarks: 1640
DistanceSpacing: 1.8
BeatDivisor: 4
GridSize: 8
TimelineZoom: 2.18

[Metadata]
Title:SAVIOR OF SONG (TV Size)
TitleUnicode:SAVIOR OF SONG (TV Size)
Artist:nano feat. MY FIRST STORY
ArtistUnicode:ナノ feat. MY FIRST STORY
Creator:PikAqours
Version:SEA'S INSANE
Source:蒼き鋼のアルペジオ -アルス・ノヴァ-
Tags:anime japanese rock j-rock opening aoki hagane no arpeggio of blue steel ars - Liban - TheSea Hantrik Kaguya_Sama Kaguya Sama Mnyui Respirte Resp nova
BeatmapID:2185880
BeatmapSetID:1040690

[Difficulty]
HPDrainRate:5
CircleSize:4
OverallDifficulty:7.5
ApproachRate:9
SliderMultiplier:1.7
SliderTickRate:1

[Events]
//Background and Video events
0,0,"bg.png",0,0
//Break Periods
2,8953,10463
2,21888,23275
//Storyboard Layer 0 (Background)
//Storyboard Layer 1 (Fail)
//Storyboard Layer 2 (Pass)
//Storyboard Layer 3 (Foreground)
//Storyboard Layer 4 (Overlay)
//Storyboard Sound Samples

[TimingPoints]
1688,312.5,4,2,1,40,1,0
1688,-166.666666666667,4,2,1,40,0,0
10906,-166.666666666667,4,2,1,40,0,0
11063,-100,4,2,1,70,0,0
21688,-100,4,2,1,40,0,0
23875,-133.333333333333,4,2,1,40,0,0
24188,-133.333333333333,4,2,1,50,0,0
24656,-133.333333333333,4,2,1,50,0,0
33406,-133.333333333333,4,2,1,50,0,0
33563,-133.333333333333,4,2,1,60,0,0
34188,-117.647058823529,4,2,1,65,0,0
41688,-117.647058823529,4,2,1,70,0,0
43563,-133.333333333333,4,2,1,50,0,0
44188,-117.647058823529,4,2,1,40,0,0
46688,-166.666666666667,4,2,1,40,0,0
47000,-166.666666666667,4,2,1,40,0,0
47078,-166.666666666667,4,2,1,5,0,0
47156,-90.9090909090909,4,2,1,85,0,0
47313,312.5,4,2,1,85,1,1
47313,-90.9090909090909,4,2,1,85,0,1
47469,-90.9090909090909,4,2,1,85,0,1
51765,-90.9090909090909,4,2,1,85,0,1
51843,-90.9090909090909,4,2,1,85,0,1
52233,-90.9090909090909,4,2,1,5,0,1
52312,-90.9090909090909,4,2,1,85,0,1
55046,-90.9090909090909,4,2,1,5,0,1
55124,-90.9090909090909,4,2,1,85,0,1
56140,-90.9090909090909,4,2,1,5,0,1
56218,-90.9090909090909,4,2,1,85,0,1
57078,-90.9090909090909,4,2,1,85,0,0
57156,-90.9090909090909,4,2,1,85,0,1
59890,-90.9090909090909,4,2,1,5,0,1
59968,-90.9090909090909,4,2,1,85,0,1
61765,-90.9090909090909,4,2,1,5,0,1
61843,-90.9090909090909,4,2,1,85,0,1
62233,-90.9090909090909,4,2,1,5,0,1
62312,-90.9090909090909,4,2,1,85,0,1
63171,-90.9090909090909,4,2,1,5,0,1
63249,-90.9090909090909,4,2,1,85,0,1
63640,-90.9090909090909,4,2,1,5,0,1
63718,-90.9090909090909,4,2,1,85,0,1
65046,-90.9090909090909,4,2,1,5,0,1
65124,-90.9090909090909,4,2,1,85,0,1
66140,-90.9090909090909,4,2,1,5,0,1
66218,-90.9090909090909,4,2,1,85,0,1
77155,-90.9090909090909,4,2,1,85,0,1
77156,-100,4,2,1,70,0,0

[Colours]
Combo1 : 253,165,142
Combo2 : 151,28,71
Combo3 : 65,164,213
Combo4 : 19,56,108

[HitObjects]
100,149,1688,6,0,L|109:37,1,101.999996887207,2|0,0:2|0:2,0:0:0:0:
196,76,2156,2,0,L|186:187,1,101.999996887207,2|0,0:2|0:0,0:0:0:0:
118,237,2625,1,2,0:2:0:0:
408,150,4188,6,0,L|399:38,1,101.999996887207,2|0,0:0|0:2,0:0:0:0:
313,77,4656,2,0,L|323:188,1,101.999996887207,2|0,0:2|0:0,0:0:0:0:
391,239,5125,1,2,0:2:0:0:
206,249,6688,6,0,P|254:234|303:251,1,101.999996887207,2|0,0:0|0:2,0:0:0:0:
302,341,7156,2,0,P|254:355|206:339,1,101.999996887207,2|0,0:2|0:0,0:0:0:0:
130,288,7625,1,2,0:2:0:0:
381,294,11063,5,8,0:2:0:0:
412,287,11141,1,8,0:2:0:0:
439,269,11219,1,8,0:2:0:0:
456,243,11297,1,8,0:2:0:0:
463,212,11375,1,8,0:2:0:0:
459,180,11453,1,8,0:2:0:0:
443,153,11531,6,0,L|268:138,1,170,6|2,3:2|3:2,0:0:0:0:
177,212,12000,2,0,L|264:219,1,85,8|2,0:2|0:2,0:0:0:0:
100,121,12313,1,0,3:2:0:0:
189,128,12469,1,2,3:2:0:0:
56,36,12625,1,8,0:2:0:0:
93,206,12781,6,0,L|100:119,1,85,2|0,3:2|0:2,0:0:0:0:
177,212,13094,2,0,L|170:299,1,85,2|8,3:2|0:2,0:0:0:0:
6,325,13406,2,0,P|38:298|80:294,1,85,2|0,0:2|3:2,0:0:0:0:
206,378,13719,2,0,P|165:383|124:372,1,85,2|8,3:2|0:2,0:0:0:0:
273,138,14031,6,0,B|289:178|289:178|281:322,1,170,6|2,3:2|3:2,0:0:0:0:
374,378,14500,2,0,L|381:291,1,85,10|2,0:2|0:2,0:0:0:0:
471,216,14813,1,0,3:2:0:0:
464,305,14969,1,2,3:2:0:0:
398,166,15125,1,8,0:2:0:0:
482,41,15281,6,0,L|475:128,1,85,2|0,3:2|0:2,0:0:0:0:
314,41,15594,1,2,3:2:0:0:
314,41,15750,2,0,L|321:128,1,85,10|2,0:2|0:2,0:0:0:0:
391,250,16063,2,0,L|398:163,1,85,2|2,3:2|3:2,0:0:0:0:
306,285,16375,1,10,0:2:0:0:
115,231,16531,6,0,P|181:181|261:199,1,170,6|2,3:2|3:2,0:0:0:0:
207,354,17000,2,0,L|201:270,1,85,10|2,0:2|0:2,0:0:0:0:
254,110,17313,1,0,3:2:0:0:
261,199,17469,1,2,3:2:0:0:
181,60,17625,1,8,0:2:0:0:
338,115,17781,6,0,L|253:109,1,85,2|0,3:2|0:2,0:0:0:0:
96,54,18094,2,0,L|181:60,1,85,2|8,3:2|0:2,0:0:0:0:
21,87,18406,2,0,P|16:46|32:5,1,85,2|0,0:2|3:2,0:0:0:0:
180,59,18719,2,0,P|185:100|169:141,1,85,2|8,3:2|0:2,0:0:0:0:
42,321,19031,6,0,B|48:258|48:258|72:223|72:223|77:158,1,170,6|2,3:2|3:2,0:0:0:0:
138,298,19500,2,0,L|132:382,1,85,10|2,0:2|0:2,0:0:0:0:
229,221,19813,1,0,3:2:0:0:
222,310,19969,1,2,3:2:0:0:
314,177,20125,1,8,0:2:0:0:
383,283,20281,6,0,P|343:267|301:272,1,85,2|0,3:2|0:2,0:0:0:0:
147,210,20594,1,0,3:2:0:0:
147,210,20750,2,0,P|186:225|228:220,1,85,8|0,0:2|0:2,0:0:0:0:
337,151,21063,5,0,3:2:0:0:
354,123,21141,1,0,3:2:0:0:
356,90,21219,1,0,3:2:0:0:
345,59,21297,1,0,3:2:0:0:
319,37,21375,1,8,0:2:0:0:
288,28,21453,1,8,0:2:0:0:
256,34,21531,1,8,0:2:0:0:
229,53,21609,1,8,0:2:0:0:
214,83,21688,5,2,0:2:0:0:
214,83,23875,5,2,0:2:0:0:
213,83,24188,2,0,P|276:73|338:86,1,127.500004863739,6|0,3:2|0:2,0:0:0:0:
424,139,24656,2,0,B|436:170|436:170|430:285,1,127.500004863739,2|0,0:2|0:2,0:0:0:0:
330,285,25125,2,0,L|336:213,1,63.7500024318696,2|0,0:2|0:0,0:0:0:0:
390,349,25438,2,0,P|334:376|276:356,1,127.500004863739,0|0,0:2|0:0,0:0:0:0:
210,275,25906,2,0,L|82:263,1,127.500004863739,0|0,0:2|0:0,0:0:0:0:
14,339,26375,1,2,0:2:0:0:
14,339,26688,6,0,L|142:351,1,127.500004863739,2|0,0:2|0:2,0:0:0:0:
76,148,27156,2,0,P|56:207|83:263,1,127.500004863739,2|0,0:2|0:2,0:0:0:0:
159,114,27625,2,0,P|117:67|55:62,1,127.500004863739,2|0,0:2|0:2,0:0:0:0:
151,203,28094,2,0,B|182:215|182:215|297:209,1,127.500004863739,2|0,0:2|0:2,0:0:0:0:
353,144,28563,1,2,0:2:0:0:
271,123,28719,1,2,0:2:0:0:
359,232,28875,1,2,0:2:0:0:
359,232,29188,6,0,P|418:211|444:154,1,127.500004863739,0|2,0:2|0:2,0:0:0:0:
366,18,29656,2,0,L|354:144,1,127.500004863739,0|0,0:2|0:2,0:0:0:0:
497,79,30125,2,0,L|433:73,1,63.7500024318696,2|2,0:2|0:2,0:0:0:0:
271,123,30438,2,0,P|208:133|146:120,1,127.500004863739,2|2,0:2|0:2,0:0:0:0:
51,15,30906,2,0,L|63:141,1,127.500004863739,0|0,0:0|0:0,0:0:0:0:
114,230,31375,1,2,0:2:0:0:
114,230,31688,6,0,P|177:220|239:233,1,127.500004863739,2|0,0:2|0:2,0:0:0:0:
300,313,32156,2,0,P|238:323|176:310,1,127.500004863739,2|0,0:2|0:2,0:0:0:0:
348,221,32625,2,0,L|336:349,1,127.500004863739,2|0,0:2|0:2,0:0:0:0:
428,304,33094,2,0,L|436:216,1,63.7500024318696,2|0,0:2|0:0,0:0:0:0:
398,118,33406,1,0,3:2:0:0:
398,118,33484,1,0,3:0:0:0:
398,118,33563,1,10,0:2:0:0:
345,223,33719,1,2,3:2:0:0:
487,140,33875,1,2,3:2:0:0:
433,240,34031,1,0,3:2:0:0:
233,131,34188,6,0,L|306:138,1,72.2500013780594,4|0,3:2|0:2,0:0:0:0:
196,211,34500,2,0,L|122:203,1,72.2500013780594,2|0,3:2|0:2,0:0:0:0:
224,300,34813,2,0,L|298:308,1,72.2500013780594,2|0,3:2|0:2,0:0:0:0:
187,380,35125,2,0,L|114:373,1,72.2500013780594,2|0,3:2|0:2,0:0:0:0:
30,260,35438,6,0,P|10:188|46:127,1,144.500002756119,2|0,3:2|3:2,0:0:0:0:
267,217,35906,2,0,L|115:202,1,144.500002756119,2|0,0:2|0:2,0:0:0:0:
156,26,36375,2,0,L|148:99,1,72.2500013780594,2|0,3:2|0:2,0:0:0:0:
304,133,36688,6,0,P|268:122|231:129,1,72.2500013780594,0|0,3:2|0:2,0:0:0:0:
385,105,37000,2,0,P|365:72|335:50,1,72.2500013780594,2|0,3:2|0:2,0:0:0:0:
461,145,37313,2,0,P|469:107|463:71,1,72.2500013780594,2|0,3:2|0:2,0:0:0:0:
382,199,37625,1,2,3:2:0:0:
486,225,37781,1,2,0:2:0:0:
375,272,37938,6,0,L|382:198,1,72.2500013780594,2|0,3:2|0:2,0:0:0:0:
454,308,38250,2,0,L|446:381,1,72.2500013780594,2|0,3:2|0:2,0:0:0:0:
295,347,38563,2,0,L|368:354,1,72.2500013780594,2|0,3:2|0:2,0:0:0:0:
224,257,38875,2,0,L|297:265,1,72.2500013780594,2|0,3:2|0:2,0:0:0:0:
134,226,39188,6,0,P|128:263|137:297,1,72.2500013780594,0|0,3:2|0:2,0:0:0:0:
205,164,39500,2,0,P|175:140|140:130,1,72.2500013780594,2|0,3:2|0:2,0:0:0:0:
69,75,39813,2,0,P|97:50|133:40,1,72.2500013780594,2|0,3:2|0:2,0:0:0:0:
283,74,40125,2,0,L|209:66,1,72.2500013780594,2|0,3:2|0:2,0:0:0:0:
365,20,40438,5,2,3:2:0:0:
365,20,40594,2,0,L|438:27,1,72.2500013780594,2|0,0:2|3:2,0:0:0:0:
366,255,40906,2,0,B|353:223|353:223|359:106,1,144.500002756119,2|0,0:2|0:2,0:0:0:0:
512,212,41375,2,0,P|475:217|440:208,1,72.2500013780594,2|0,3:2|0:2,0:0:0:0:
282,160,41688,5,10,0:2:0:0:
485,119,41844,1,10,0:2:0:0:
373,333,42000,1,10,0:2:0:0:
396,151,42156,1,10,0:2:0:0:
273,278,42625,5,10,0:2:0:0:
476,318,42781,1,10,0:2:0:0:
364,104,42938,1,10,0:2:0:0:
386,287,43094,1,10,0:2:0:0:
386,287,43563,6,0,P|344:240|282:235,1,127.500004863739,2|2,0:0|0:0,0:0:0:0:
223,295,44031,1,2,0:0:0:0:
256,192,44188,12,0,46531,0:0:0:0:
195,236,46688,5,2,0:2:0:0:
195,236,46844,2,0,L|189:299,1,50.9999984436036,2|0,0:2|0:0,0:0:0:0:
128,351,47156,6,0,B|112:311|112:311|125:167,1,187.000005706787,6|0,3:2|3:2,0:0:0:0:
231,49,47625,2,0,L|222:144,1,93.5000028533936,10|0,0:2|0:2,0:0:0:0:
64,105,47938,2,0,P|103:82|153:84,1,93.5000028533936,2|0,3:2|3:2,0:0:0:0:
311,110,48250,1,10,0:2:0:0:
283,296,48406,2,0,L|292:201,1,93.5000028533936,2|0,3:2|0:2,0:0:0:0:
489,150,48719,6,0,B|418:143|418:143|379:116|379:116|306:110,1,187.000005706787,2|0,3:2|0:2,0:0:0:0:
386,240,49188,1,0,3:2:0:0:
386,240,49344,2,0,L|481:249,1,93.5000028533936,2|8,3:2|0:2,0:0:0:0:
348,351,49656,6,0,P|264:377|200:315,1,187.000005706787,6|2,3:2|3:2,0:0:0:0:
159,200,50125,1,10,0:2:0:0:
283,296,50281,1,2,0:2:0:0:
115,276,50438,2,0,L|20:267,1,93.5000028533936,2|0,3:2|3:2,0:0:0:0:
125,361,50750,1,10,0:2:0:0:
236,230,50906,6,0,P|237:179|209:134,1,93.5000028533936,2|0,3:2|0:2,0:0:0:0:
65,191,51219,2,0,L|160:200,1,93.5000028533936,2|8,3:2|0:2,0:0:0:0:
310,151,51531,2,0,L|215:142,1,93.5000028533936,2|0,0:2|3:0,0:0:0:0:
121,97,51844,1,2,3:2:0:0:
121,97,52000,2,0,P|120:46|148:1,1,93.5000028533936,10|0,0:2|0:0,0:0:0:0:
267,69,52313,1,4,3:2:0:0:
267,69,52625,6,0,L|361:78,1,93.5000028533936,10|0,0:2|0:2,0:0:0:0:
492,163,52938,2,0,P|447:174|403:161,1,93.5000028533936,2|0,3:2|3:2,0:0:0:0:
451,60,53250,1,8,0:2:0:0:
352,239,53406,2,0,B|312:255|312:255|168:242,1,187.000005706787,2|2,0:2|0:2,0:0:0:0:
120,161,53875,2,0,P|165:152|211:159,1,93.5000028533936,10|0,0:2|0:2,0:0:0:0:
119,328,54188,2,0,P|88:292|71:249,1,93.5000028533936,2|0,3:2|0:2,0:0:0:0:
265,250,54500,2,0,P|249:293|220:330,1,93.5000028533936,10|0,0:2|0:2,0:0:0:0:
19,163,54813,6,0,P|43:93|155:62,1,187.000005706787,2|10,3:2|0:2,0:0:0:0:
304,168,55281,2,0,L|209:159,1,93.5000028533936,2|0,0:2|3:2,0:0:0:0:
381,79,55594,2,0,L|286:70,1,93.5000028533936,2|8,0:2|0:2,0:0:0:0:
349,343,55906,6,0,B|355:272|355:272|383:233|383:233|388:160,1,187.000005706787,2|2,0:2|0:2,0:0:0:0:
449,27,56375,2,0,P|466:71|461:117,1,93.5000028533936,10|0,0:2|0:2,0:0:0:0:
311,201,56688,1,10,0:2:0:0:
277,214,56766,1,8,0:2:0:0:
240,215,56844,1,8,0:2:0:0:
206,201,56922,1,8,0:2:0:0:
185,177,57000,1,8,0:2:0:0:
151,161,57078,1,8,0:2:0:0:
115,160,57156,6,0,L|96:382,1,187.000005706787,4|0,3:2|3:2,0:0:0:0:
260,138,57625,2,0,L|267:44,1,93.5000028533936,10|0,0:2|0:2,0:0:0:0:
387,164,57938,2,0,L|380:258,1,93.5000028533936,2|0,3:2|3:2,0:0:0:0:
249,257,58250,1,10,0:2:0:0:
345,83,58406,2,0,P|390:72|434:86,1,93.5000028533936,2|0,3:2|0:2,0:0:0:0:
464,358,58719,6,0,L|479:171,1,187.000005706787,2|0,3:2|0:0,0:0:0:0:
384,340,59188,1,0,3:2:0:0:
384,340,59344,2,0,P|338:348|293:334,1,93.5000028533936,2|8,3:2|0:2,0:0:0:0:
164,156,59656,6,0,P|249:170|249:257,1,187.000005706787,6|2,3:2|3:2,0:0:0:0:
76,206,60125,1,8,0:2:0:0:
176,53,60281,1,2,0:2:0:0:
154,267,60438,2,0,L|147:361,1,93.5000028533936,2|0,3:2|3:2,0:0:0:0:
249,256,60750,1,10,0:2:0:0:
82,112,60906,6,0,L|75:206,1,93.5000028533936,2|0,3:2|0:2,0:0:0:0:
265,58,61219,2,0,P|220:44|175:52,1,93.5000028533936,2|8,3:2|0:2,0:0:0:0:
310,145,61531,2,0,P|344:113|360:70,1,93.5000028533936,2|0,0:2|3:0,0:0:0:0:
213,147,61844,1,2,3:2:0:0:
213,147,62000,2,0,P|223:192|252:227,1,93.5000028533936,10|0,0:2|0:0,0:0:0:0:
392,245,62313,1,4,3:2:0:0:
392,245,62625,6,0,L|385:339,1,93.5000028533936,10|0,0:2|0:2,0:0:0:0:
482,199,62938,2,0,L|489:293,1,93.5000028533936,2|0,3:2|0:0,0:0:0:0:
398,145,63250,1,10,0:2:0:0:
270,329,63406,6,0,B|203:325|203:325|164:297|164:297|93:291,1,187.000005706787,2|2,0:2|0:2,0:0:0:0:
43,369,63875,2,0,L|137:376,1,93.5000028533936,10|0,0:2|0:2,0:0:0:0:
6,201,64188,2,0,P|-8:246|0:291,1,93.5000028533936,2|0,3:2|0:2,0:0:0:0:
183,202,64500,1,10,0:2:0:0:
92,290,64656,1,2,0:2:0:0:
279,223,64813,6,0,P|253:127|173:99,1,187.000005706787,2|10,3:2|0:2,0:0:0:0:
0,102,65281,2,0,L|94:109,1,93.5000028533936,2|0,0:2|3:2,0:0:0:0:
260,21,65594,2,0,L|166:14,1,93.5000028533936,2|8,0:2|0:2,0:0:0:0:
329,104,65906,6,0,B|369:88|369:88|513:101,1,187.000005706787,2|2,0:2|0:2,0:0:0:0:
383,268,66375,2,0,P|375:222|389:178,1,93.5000028533936,10|0,0:2|0:2,0:0:0:0:
473,313,66688,1,10,0:2:0:0:
448,341,66766,1,8,0:2:0:0:
416,358,66844,1,8,0:2:0:0:
379,364,66922,1,8,0:2:0:0:
344,358,67000,1,8,0:2:0:0:
315,343,67078,1,8,0:2:0:0:
287,318,67156,1,8,0:2:0:0:
254,303,67234,1,8,0:2:0:0:
218,297,67313,6,0,L|122:288,1,93.5000028533936,6|2,3:2|0:2,0:0:0:0:
253,211,67625,1,10,0:2:0:0:
383,268,67781,2,0,L|390:174,1,93.5000028533936,2|0,0:2|3:2,0:0:0:0:
259,117,68094,2,0,L|252:211,1,93.5000028533936,2|8,3:2|0:2,0:0:0:0:
346,94,68406,6,0,L|353:0,1,93.5000028533936,2|0,0:2|3:2,0:0:0:0:
184,41,68719,2,0,P|229:27|274:35,1,93.5000028533936,2|8,0:2|0:2,0:0:0:0:
165,149,69031,2,0,P|120:163|75:155,1,93.5000028533936,2|0,0:2|3:2,0:0:0:0:
117,73,69344,1,0,3:2:0:0:
252,210,69500,2,0,P|259:255|245:299,1,93.5000028533936,8|0,0:2|0:2,0:0:0:0:
84,243,69813,6,0,L|180:252,1,93.5000028533936,6|2,3:2|0:2,0:0:0:0:
343,303,70125,1,10,0:2:0:0:
195,367,70281,2,0,L|99:358,1,93.5000028533936,2|2,0:2|3:2,0:0:0:0:
348,210,70594,2,0,P|394:228|428:264,1,93.5000028533936,2|8,3:2|0:2,0:0:0:0:
512,370,70906,6,0,L|503:274,1,93.5000028533936,2|0,0:2|3:2,0:0:0:0:
412,175,71219,1,2,0:2:0:0:
424,258,71375,1,10,0:2:0:0:
484,109,71531,2,0,L|493:205,1,93.5000028533936,2|0,0:2|3:2,0:0:0:0:
403,87,71844,1,0,3:2:0:0:
348,219,72000,2,0,L|252:210,1,93.5000028533936,8|2,0:2|0:2,0:0:0:0:
181,116,72313,5,14,0:2:0:0:
310,123,72469,1,2,3:2:0:0:
107,287,72625,2,0,L|116:191,1,93.5000028533936,10|2,0:2|3:2,0:0:0:0:
189,22,72938,2,0,L|180:118,1,93.5000028533936,8|2,0:2|3:2,0:0:0:0:
0,93,73250,2,0,P|45:85|89:99,1,93.5000028533936,8|2,0:2|3:2,0:0:0:0:
296,216,73563,6,0,P|251:224|207:210,1,93.5000028533936,8|2,0:2|3:2,0:0:0:0:
396,109,73875,2,0,P|430:139|446:183,1,93.5000028533936,8|2,0:2|3:2,0:0:0:0:
458,370,74188,2,0,P|423:339|407:295,1,93.5000028533936,8|2,0:2|3:2,0:0:0:0:
512,275,74500,1,8,0:2:0:0:
349,370,74656,6,0,L|253:361,1,93.5000028533936,2|8,3:2|0:2,0:0:0:0:
383,222,74969,1,2,3:2:0:0:
199,299,75125,2,0,P|191:254|205:210,1,93.5000028533936,10|0,0:2|3:2,0:0:0:0:
389,132,75438,2,0,P|397:177|383:221,1,93.5000028533936,10|0,0:2|3:2,0:0:0:0:
271,76,75750,1,10,0:2:0:0:
366,41,75906,6,0,L|462:32,1,93.5000028533936,2|8,3:2|0:2,0:0:0:0:
301,168,76219,1,2,3:2:0:0:
179,124,76375,2,0,L|188:28,1,93.5000028533936,10|0,0:2|3:2,0:0:0:0:
41,121,76688,1,10,0:2:0:0:
38,151,76766,1,8,0:2:0:0:
35,182,76844,1,8,0:2:0:0:
32,212,76922,1,8,0:2:0:0:
30,243,77000,1,8,0:2:0:0:
27,273,77078,1,8,0:2:0:0:
24,304,77156,6,0,L|199:319,1,170,4|2,3:2|3:2,0:0:0:0:
335,258,77625,2,0,L|248:251,1,85,10|2,0:2|0:2,0:0:0:0:
412,349,77938,1,0,3:2:0:0:
323,342,78094,1,2,3:2:0:0:
462,275,78250,1,8,0:2:0:0:
335,258,78406,6,0,P|330:217|341:176,1,85,2|0,3:2|0:2,0:0:0:0:
435,101,78719,2,0,P|440:141|429:182,1,85,2|8,3:2|0:2,0:0:0:0:
271,89,79031,2,0,L|358:96,1,85,2|0,0:2|3:2,0:0:0:0:
258,170,79344,2,0,L|171:163,1,85,2|8,3:2|0:2,0:0:0:0:
43,60,79656,6,0,B|59:100|59:100|51:244,1,170,4|2,3:2|3:2,0:0:0:0:
133,331,80125,2,0,L|140:244,1,85,10|2,0:2|0:2,0:0:0:0:
246,213,80438,1,0,3:2:0:0:
239,302,80594,1,2,3:2:0:0:
173,163,80750,1,8,0:2:0:0:
323,308,80906,6,0,L|236:301,1,85,2|0,3:2|0:2,0:0:0:0:
418,210,81219,1,2,3:2:0:0:
418,210,81375,2,0,L|331:217,1,85,10|2,0:2|0:2,0:0:0:0:
421,316,81688,1,2,3:2:0:0:
506,253,81844,2,0,P|511:212|500:171,1,85,2|10,3:2|0:2,0:0:0:0:
398,65,82156,6,0,B|335:59|335:59|300:35|300:35|235:30,1,170,6|2,3:2|3:2,0:0:0:0:
142,105,82625,2,0,L|229:112,1,85,10|2,0:2|0:2,0:0:0:0:
65,14,82938,1,0,3:2:0:0:
154,21,83094,1,2,3:2:0:0:
46,110,83250,1,8,0:2:0:0:
135,189,83406,6,0,L|142:102,1,85,2|0,3:2|0:2,0:0:0:0:
235,247,83719,2,0,L|228:160,1,85,2|8,3:2|0:2,0:0:0:0:
199,325,84031,2,0,P|240:329|281:319,1,85,2|0,0:2|3:2,0:0:0:0:
401,234,84344,2,0,P|360:229|319:240,1,85,2|8,3:2|0:2,0:0:0:0:
468,324,84656,6,0,P|514:255|499:174,1,170,4|2,3:2|3:2,0:0:0:0:
407,63,85125,2,0,L|414:150,1,85,10|2,0:2|0:2,0:0:0:0:
360,307,85438,1,0,3:2:0:0:
353,218,85594,1,2,3:2:0:0:
289,362,85750,1,8,0:2:0:0:
279,270,85906,6,0,P|274:229|285:188,1,85,2|0,0:2|3:2,0:0:0:0:
230,41,86219,1,0,3:2:0:0:
230,41,86375,2,0,P|235:82|224:123,1,85,8|0,0:2|0:2,0:0:0:0:
161,226,86688,5,0,3:2:0:0:
133,243,86766,1,0,3:2:0:0:
100,245,86844,1,0,3:2:0:0:
69,234,86922,1,8,0:2:0:0:
47,208,87000,1,10,3:2:0:0:
38,177,87078,1,8,3:2:0:0:
44,145,87156,1,10,3:2:0:0:
63,118,87234,1,0,3:2:0:0:
