osu file format v14

[General]
AudioFilename: audio.mp3
AudioLeadIn: 0
PreviewTime: 46561
Countdown: 0
SampleSet: Soft
StackLeniency: 0.4
Mode: 0
LetterboxInBreaks: 0
WidescreenStoryboard: 1

[Editor]
DistanceSpacing: 1.4
BeatDivisor: 4
GridSize: 4
TimelineZoom: 2.28

[Metadata]
Title:SAVIOR OF SONG (TV Size)
TitleUnicode:SAVIOR OF SONG (TV Size)
Artist:nano feat. MY FIRST STORY
ArtistUnicode:ナノ feat. MY FIRST STORY
Creator:PikAqours
Version:RESP'S HARD
Source:蒼き鋼のアルペジオ -アルス・ノヴァ-
Tags:anime japanese rock j-rock opening aoki hagane no arpeggio of blue steel ars - Liban - TheSea Hantrik Kaguya_Sama Kaguya Sama Mnyui Respirte Resp nova
BeatmapID:2187087
BeatmapSetID:1040690

[Difficulty]
HPDrainRate:4.8
CircleSize:3.8
OverallDifficulty:6.3
ApproachRate:7.8
SliderMultiplier:1.2
SliderTickRate:1

[Events]
//Background and Video events
0,0,"bg.png",0,0
//Break Periods
2,8919,10284
2,21809,23096
//Storyboard Layer 0 (Background)
//Storyboard Layer 1 (Fail)
//Storyboard Layer 2 (Pass)
//Storyboard Layer 3 (Foreground)
//Storyboard Layer 4 (Overlay)
//Storyboard Sound Samples

[TimingPoints]
1688,312.5,4,2,1,40,1,0
1688,-100,4,2,1,40,0,0
2938,-100,4,2,1,40,0,0
3094,-100,4,2,1,40,0,0
3250,-100,4,2,1,40,0,0
3406,-100,4,2,1,40,0,0
3641,-100,4,2,1,40,0,0
3719,-100,4,2,1,40,0,0
5438,-100,4,2,1,40,0,0
5594,-100,4,2,1,40,0,0
5750,-100,4,2,1,40,0,0
5906,-100,4,2,1,40,0,0
6219,-100,4,2,1,40,0,0
6531,-100,4,2,1,40,0,0
8250,-100,4,2,1,40,0,0
8406,-100,4,2,1,40,0,0
8563,-100,4,2,1,40,0,0
8719,-100,4,2,1,40,0,0
8875,-100,4,2,1,40,0,0
11063,-90.9090909090909,4,2,1,70,0,0
11531,-83.3333333333333,4,2,1,70,0,0
21688,-125,4,2,1,40,0,0
23875,-100,4,2,1,40,0,0
24109,-100,4,2,1,40,0,0
24188,-100,4,2,1,50,0,0
24656,-100,4,2,1,50,0,0
26375,-100,4,2,1,50,0,0
26609,-100,4,2,1,50,0,0
26688,-100,4,2,1,50,0,0
29109,-100,4,2,1,5,0,0
29188,-100,4,2,1,50,0,0
29422,-100,4,2,1,50,0,0
29500,-100,4,2,1,50,0,0
33406,-100,4,2,1,50,0,0
33484,-100,4,2,1,5,0,0
33563,-100,4,2,1,60,0,0
34188,-100,4,2,1,65,0,0
36688,-100,4,2,1,65,0,0
39188,-100,4,2,1,65,0,0
41688,-100,4,2,1,70,0,0
43563,-100,4,2,1,50,0,0
44188,-100,4,2,1,40,0,0
46531,-100,4,2,1,5,0,0
46688,-100,4,2,1,40,0,0
47078,-100,4,2,1,5,0,0
47156,-83.3333333333333,4,2,1,85,0,1
47313,312.5,4,2,1,85,1,1
47624,-83.3333333333333,4,2,1,85,0,1
51765,-83.3333333333333,4,2,1,85,0,1
51843,-83.3333333333333,4,2,1,85,0,1
52233,-83.3333333333333,4,2,1,5,0,1
52312,-83.3333333333333,4,2,1,85,0,1
53171,-83.3333333333333,4,2,1,85,0,1
53249,-83.3333333333333,4,2,1,85,0,1
55046,-83.3333333333333,4,2,1,5,0,1
55124,-83.3333333333333,4,2,1,85,0,1
56140,-83.3333333333333,4,2,1,5,0,1
56218,-83.3333333333333,4,2,1,85,0,1
57078,-83.3333333333333,4,2,1,85,0,0
57156,-83.3333333333333,4,2,1,85,0,1
59890,-83.3333333333333,4,2,1,5,0,1
59968,-83.3333333333333,4,2,1,85,0,1
61765,-83.3333333333333,4,2,1,5,0,1
61843,-83.3333333333333,4,2,1,85,0,1
62233,-83.3333333333333,4,2,1,5,0,1
62312,-83.3333333333333,4,2,1,85,0,1
63171,-83.3333333333333,4,2,1,5,0,1
63249,-83.3333333333333,4,2,1,85,0,1
63640,-83.3333333333333,4,2,1,5,0,1
63718,-83.3333333333333,4,2,1,85,0,1
65046,-83.3333333333333,4,2,1,5,0,1
65124,-83.3333333333333,4,2,1,85,0,1
66140,-83.3333333333333,4,2,1,5,0,1
66218,-83.3333333333333,4,2,1,85,0,1
67234,-83.3333333333333,4,2,1,85,0,0
67313,-83.3333333333333,4,2,1,85,0,1
77155,-83.3333333333333,4,2,1,85,0,1
77156,-83.3333333333333,4,2,1,70,0,0

[Colours]
Combo1 : 253,165,142
Combo2 : 151,28,71
Combo3 : 65,164,213
Combo4 : 19,56,108

[HitObjects]
133,177,1688,6,0,P|189:159|243:182,1,120,2|2,0:2|0:0,0:0:0:0:
311,241,2156,1,2,0:2:0:0:
311,241,2313,2,0,P|367:259|421:236,1,120,2|2,0:2|0:2,0:0:0:0:
496,198,2781,6,0,P|504:241|493:276,1,60,2|0,0:2|0:0,0:0:0:0:
495,340,3094,2,0,P|453:325|428:298,1,60,2|0,0:2|0:0,0:0:0:0:
420,234,3406,2,0,B|359:228|368:286|288:273,1,120,2|2,0:2|0:2,0:0:0:0:
147,233,4031,6,0,B|112:213|61:231|61:231|78:199,1,120,2|2,0:2|0:2,0:0:0:0:
85,119,4500,2,0,L|163:114,1,60,2|2,0:2|0:2,0:0:0:0:
224,146,4813,2,0,P|253:218|234:281,1,120,2|2,0:2|0:2,0:0:0:0:
211,334,5281,6,0,P|254:342|289:331,1,60,2|0,0:2|0:0,0:0:0:0:
353,333,5594,2,0,P|338:291|311:266,1,60,2|0,0:2|0:0,0:0:0:0:
247,258,5906,2,0,P|304:200|398:233,1,180,2|0,0:2|0:0,0:0:0:0:
434,151,6531,6,0,P|443:108|437:76,1,60,2|0,0:2|0:0,0:0:0:0:
396,20,6844,1,2,0:2:0:0:
396,20,7000,2,0,L|328:27,1,60,2|2,0:2|0:2,0:0:0:0:
275,84,7313,2,0,P|221:66|150:98,1,120,2|2,0:2|0:2,0:0:0:0:
122,158,7781,1,2,0:2:0:0:
42,185,7938,6,0,P|39:155|44:125,2,60,2|2|0,0:2|0:2|0:0,0:0:0:0:
106,239,8406,1,2,0:2:0:0:
256,164,8719,1,2,0:2:0:0:
286,268,11063,6,0,L|299:297,4,33.0000010070801,8|8|8|8|8,0:2|0:2|0:2|0:2|0:2,0:0:0:0:
193,229,11531,6,0,P|241:177|311:171,1,143.999995605469,6|2,3:2|3:2,0:0:0:0:
331,187,11922,1,2,0:2:0:0:
351,202,12000,2,0,P|384:213|438:209,1,71.9999978027344,8|2,0:2|0:2,0:0:0:0:
510,165,12313,2,0,P|486:138|438:115,1,71.9999978027344,0|2,3:2|3:2,0:0:0:0:
356,100,12625,1,8,0:2:0:0:
321,194,12781,6,0,L|309:273,1,71.9999978027344,2|0,3:2|0:2,0:0:0:0:
212,291,13094,2,0,L|224:212,1,71.9999978027344,2|8,3:2|0:2,0:0:0:0:
123,244,13406,2,0,L|113:316,1,71.9999978027344,2|0,0:2|3:2,0:0:0:0:
14,341,13719,2,0,L|26:262,1,71.9999978027344,2|8,3:2|0:2,0:0:0:0:
70,180,14031,6,0,B|94:146|90:105|90:105|125:114|164:96,1,143.999995605469,6|2,3:2|3:2,0:0:0:0:
173,84,14422,1,2,0:2:0:0:
196,72,14500,2,0,P|249:63|278:68,1,71.9999978027344,10|2,0:2|0:2,0:0:0:0:
353,118,14813,2,0,P|311:152|283:162,1,71.9999978027344,0|2,3:2|3:2,0:0:0:0:
195,172,15125,1,8,0:2:0:0:
262,246,15281,6,0,P|281:286|281:323,1,71.9999978027344,2|0,3:2|0:0,0:0:0:0:
181,316,15594,2,0,P|156:317|124:310,2,35.9999989013672,2|2|10,3:2|0:0|0:2,0:0:0:0:
114,240,15906,2,0,P|139:239|171:246,2,35.9999989013672,2|2|2,0:2|0:2|3:2,0:0:0:0:
33,301,16219,1,2,3:2:0:0:
20,201,16375,1,10,0:2:0:0:
112,158,16531,6,0,B|153:169|202:140|202:140|218:173|241:190,1,143.999995605469,6|2,3:2|3:2,0:0:0:0:
251,195,16922,1,2,0:2:0:0:
275,202,17000,2,0,P|326:198|347:184,1,71.9999978027344,10|2,0:2|0:2,0:0:0:0:
438,154,17313,2,0,P|415:200|417:226,1,71.9999978027344,0|2,3:2|3:2,0:0:0:0:
460,310,17625,1,8,0:2:0:0:
369,354,17781,6,0,L|290:342,1,71.9999978027344,2|0,3:2|0:2,0:0:0:0:
272,245,18094,2,0,L|351:257,1,71.9999978027344,2|8,3:2|0:2,0:0:0:0:
318,157,18406,2,0,L|246:146,1,71.9999978027344,2|0,0:2|3:2,0:0:0:0:
222,47,18719,2,0,L|301:59,1,71.9999978027344,2|8,3:2|0:2,0:0:0:0:
390,34,19031,6,0,B|363:64|368:108|398:133|398:133|452:122,1,143.999995605469,6|2,3:2|3:2,0:0:0:0:
454,133,19422,1,2,0:2:0:0:
472,149,19500,2,0,P|480:187|473:224,1,71.9999978027344,10|2,0:2|0:2,0:0:0:0:
409,296,19813,2,0,P|371:288|334:295,1,71.9999978027344,0|2,3:2|3:2,0:0:0:0:
250,340,20125,1,8,0:2:0:0:
222,243,20281,6,0,B|212:187|212:187|227:153|227:153|220:96,1,143.999995605469,2|0,3:2|3:2,0:0:0:0:
133,51,20750,2,0,L|142:131,1,71.9999978027344,8|0,0:2|0:2,0:0:0:0:
120,221,21063,2,0,L|76:208,3,35.9999989013672,0|0|0|0,3:2|3:2|3:2|3:2,0:0:0:0:
36,221,21375,2,0,L|-8:208,3,35.9999989013672,8|8|8|8,0:2|0:2|0:2|0:2,0:0:0:0:
235,136,23875,5,2,0:2:0:0:
235,136,24188,6,0,P|294:114|360:130,1,120,6|0,3:2|0:2,0:0:0:0:
420,81,24656,2,0,P|392:125|389:197,1,120,2|0,0:2|0:2,0:0:0:0:
411,272,25125,1,2,0:2:0:0:
411,272,25438,2,0,B|351:262|351:262|287:270,1,120,0|0,0:2|0:0,0:0:0:0:
223,316,25906,2,0,B|164:323|164:323|104:313,1,120,0|0,0:0|0:0,0:0:0:0:
46,251,26375,1,2,0:2:0:0:
16,85,26688,6,0,P|59:126|133:112,1,120,2|0,0:2|0:2,0:0:0:0:
156,49,27156,2,0,P|197:93|184:171,1,120,2|0,0:2|0:2,0:0:0:0:
141,214,27625,1,2,0:2:0:0:
141,214,27938,2,0,B|185:203|185:203|273:217,1,120,0|0,0:2|0:0,0:0:0:0:
319,272,28406,2,0,B|392:283|392:283|436:272,1,120,0|2,0:2|0:2,0:0:0:0:
512,237,28875,1,2,0:2:0:0:
403,365,29188,6,0,P|349:372|275:342,1,120,0|2,0:2|0:2,0:0:0:0:
216,307,29656,2,0,P|159:286|100:293,1,120,0|0,0:2|0:2,0:0:0:0:
28,337,30125,1,2,0:2:0:0:
28,337,30438,2,0,B|12:204,1,120,2|2,0:2|0:2,0:0:0:0:
57,146,30906,2,0,B|50:86|50:86|76:24,1,120,0|0,0:0|0:0,0:0:0:0:
153,4,31375,1,2,0:2:0:0:
281,112,31688,6,0,P|380:119|442:66,2,180,2|2|2,0:2|0:2|0:2,0:0:0:0:
128,182,32938,2,0,P|79:215|64:272,1,120,0|0,0:2|0:0,0:0:0:0:
112,341,33406,1,0,0:0:0:0:
163,274,33563,2,0,L|230:272,1,60,10|2,0:2|3:2,0:0:0:0:
292,319,33875,2,0,L|359:321,1,60,2|0,3:2|3:2,0:0:0:0:
426,359,34188,6,0,B|441:318|441:318|430:239,1,120,4|2,3:2|3:2,0:0:0:0:
375,178,34656,1,0,0:2:0:0:
307,229,34813,2,0,L|247:230,1,60,2|0,3:2|0:2,0:0:0:0:
206,157,35125,2,0,L|265:155,1,60,2|0,3:2|0:2,0:0:0:0:
326,96,35438,6,0,L|385:94,1,60,2|0,3:2|0:0,0:0:0:0:
419,17,35750,2,0,L|359:18,1,60,0|2,3:2|0:2,0:0:0:0:
275,33,36063,1,0,3:0:0:0:
124,107,36375,1,2,3:2:0:0:
40,105,36531,1,0,0:2:0:0:
79,179,36688,6,0,B|94:222|94:222|83:320,1,120,0|2,3:2|3:2,0:0:0:0:
44,368,37156,1,0,0:2:0:0:
128,368,37313,2,0,L|187:366,1,60,2|0,3:2|0:2,0:0:0:0:
260,324,37625,2,0,L|320:323,1,60,2|2,3:2|0:2,0:0:0:0:
354,245,37938,6,0,L|294:246,1,60,2|0,3:2|0:2,0:0:0:0:
215,216,38250,2,0,L|155:217,1,60,2|0,3:2|0:2,0:0:0:0:
79,179,38563,1,2,3:2:0:0:
216,82,38875,1,2,3:2:0:0:
300,80,39031,1,0,0:2:0:0:
368,130,39188,6,0,B|345:181|345:181|356:264,1,120,0|2,3:2|3:2,0:0:0:0:
413,303,39656,1,0,0:2:0:0:
462,234,39813,2,0,L|463:174,1,60,2|0,3:2|0:2,0:0:0:0:
422,100,40125,2,0,L|423:40,1,60,2|0,3:2|0:2,0:0:0:0:
341,60,40438,6,0,P|281:54|215:94,1,120,2|0,3:2|3:2,0:0:0:0:
195,156,40906,1,2,0:2:0:0:
154,230,41063,2,0,P|100:255|41:249,1,120,0|2,3:0|3:2,0:0:0:0:
71,84,41688,6,0,L|80:143,2,60,10|10|10,0:2|0:2|0:2,0:0:0:0:
56,1,42156,1,10,0:2:0:0:
264,144,42625,6,0,L|254:84,2,60,10|10|10,0:2|0:2|0:2,0:0:0:0:
279,227,43094,1,10,0:2:0:0:
279,227,44188,5,2,0:0:0:0:
343,280,44344,2,0,P|382:288|415:275,1,60,2|0,0:0|0:0,0:0:0:0:
379,202,44656,2,0,P|414:183|432:151,1,60,2|0,0:0|0:0,0:0:0:0:
356,119,44969,2,0,P|370:81|364:46,2,60,2|2|2,0:0|0:0|0:0,0:0:0:0:
284,74,45438,6,0,L|214:72,1,60,2|0,0:0|0:0,0:0:0:0:
147,39,45750,1,2,0:0:0:0:
155,122,45906,1,2,0:0:0:0:
79,87,46063,2,0,P|93:179|188:201,1,180,2|0,0:0|0:0,0:0:0:0:
231,152,46688,6,0,L|290:153,1,60,2|2,0:2|0:2,0:0:0:0:
343,88,47000,1,0,0:0:0:0:
392,175,47156,6,0,P|409:248|376:344,1,143.999995605469,6|0,3:2|3:2,0:0:0:0:
301,354,47625,2,0,L|222:346,1,71.9999978027344,10|0,0:2|0:2,0:0:0:0:
135,383,47938,2,0,L|127:304,1,71.9999978027344,2|0,3:2|3:2,0:0:0:0:
117,211,48250,1,10,0:2:0:0:
117,211,48406,6,0,B|184:224|184:224|262:201,1,143.999995605469,2|2,3:2|3:2,0:0:0:0:
279,103,48875,2,0,B|209:123,2,71.9999978027344,8|0|0,0:0|0:0|3:2,0:0:0:0:
362,45,49344,2,0,P|376:83|376:131,1,71.9999978027344,2|8,3:2|0:2,0:0:0:0:
342,207,49656,6,0,B|321:254|338:308|338:308|308:293|270:294,1,143.999995605469,6|2,3:2|3:2,0:0:0:0:
211,246,50125,1,10,0:2:0:0:
178,341,50281,1,2,0:2:0:0:
112,264,50438,2,0,P|99:222|108:168,1,71.9999978027344,2|0,3:2|3:2,0:0:0:0:
138,101,50750,1,10,0:2:0:0:
226,149,50906,6,0,P|265:148|314:171,1,71.9999978027344,2|0,3:2|0:2,0:0:0:0:
342,248,51219,2,0,P|368:223|401:210,1,71.9999978027344,2|8,3:2|0:2,0:0:0:0:
480,273,51531,2,0,P|497:238|497:183,1,71.9999978027344,2|0,0:2|3:0,0:0:0:0:
507,109,51844,1,2,3:2:0:0:
507,109,52000,1,10,0:2:0:0:
309,78,52313,6,0,L|210:58,1,71.9999978027344,4|0,3:2|0:2,0:0:0:0:
151,12,52625,2,0,P|156:69|141:108,1,71.9999978027344,10|0,0:2|0:2,0:0:0:0:
84,157,52938,2,0,P|144:161|212:214,1,143.999995605469,2|8,3:2|0:2,0:0:0:0:
213,310,53406,6,0,P|260:277|348:269,1,143.999995605469,2|2,0:2|0:2,0:0:0:0:
441,298,53875,2,0,P|398:275|368:240,1,71.9999978027344,10|0,0:2|0:2,0:0:0:0:
366,159,54188,1,2,3:2:0:0:
301,349,54500,1,10,0:2:0:0:
445,207,54813,6,0,P|456:155|451:117,1,71.9999978027344,2|0,3:2|0:0,0:0:0:0:
409,46,55125,1,10,0:2:0:0:
409,46,55281,2,0,L|334:57,1,71.9999978027344,2|0,0:2|3:2,0:0:0:0:
242,22,55594,2,0,L|167:33,1,71.9999978027344,2|8,0:2|0:2,0:0:0:0:
97,101,55906,6,0,P|109:144|104:175,1,71.9999978027344,2|0,0:2|3:0,0:0:0:0:
51,256,56219,1,2,0:2:0:0:
51,256,56375,2,0,L|134:263,1,71.9999978027344,10|0,0:2|0:2,0:0:0:0:
205,320,56688,2,0,B|209:337|209:337|204:354,4,35.9999989013672,10|8|8|8|8,0:2|0:2|0:2|0:2|0:2,0:0:0:0:
214,219,57156,6,0,P|268:185|358:202,1,143.999995605469,4|0,3:2|3:2,0:0:0:0:
410,270,57625,2,0,P|437:233|444:202,1,71.9999978027344,10|0,0:2|0:2,0:0:0:0:
417,110,57938,2,0,L|344:95,1,71.9999978027344,2|0,3:2|3:2,0:0:0:0:
248,116,58250,1,10,0:2:0:0:
248,116,58406,6,0,B|220:111|204:95|204:95|165:129|109:120,1,143.999995605469,2|2,3:2|3:2,0:0:0:0:
41,189,58875,2,0,P|56:232|45:267,1,71.9999978027344,8|0,0:0|0:0,0:0:0:0:
100,345,59188,2,0,P|50:342|31:351,2,71.9999978027344,0|2|8,3:2|3:2|0:2,0:0:0:0:
188,296,59656,6,0,B|242:313|242:313|327:297,1,143.999995605469,6|2,3:2|3:2,0:0:0:0:
382,212,60125,1,8,0:2:0:0:
429,300,60281,1,2,0:2:0:0:
474,209,60438,2,0,P|483:170|478:135,1,71.9999978027344,2|0,3:2|3:2,0:0:0:0:
415,60,60750,1,10,0:2:0:0:
327,108,60906,6,0,P|289:132|244:134,1,71.9999978027344,2|0,3:2|0:2,0:0:0:0:
165,107,61219,2,0,P|209:105|249:125,1,71.9999978027344,2|8,3:2|0:2,0:0:0:0:
266,210,61531,2,0,P|228:210|179:230,1,71.9999978027344,2|0,0:2|3:0,0:0:0:0:
114,278,61844,1,2,3:2:0:0:
114,278,62000,1,10,0:2:0:0:
181,88,62313,6,0,L|266:104,1,71.9999978027344,4|0,3:2|0:2,0:0:0:0:
349,77,62625,2,0,P|336:119|339:160,1,71.9999978027344,10|0,0:2|0:2,0:0:0:0:
385,235,62938,2,0,P|316:232|251:267,1,143.999995605469,2|10,3:2|0:2,0:0:0:0:
188,345,63406,6,0,P|156:276|73:238,1,143.999995605469,2|2,0:2|0:2,0:0:0:0:
5,278,63875,2,0,P|51:236|62:202,1,71.9999978027344,10|0,0:2|0:2,0:0:0:0:
93,134,64188,1,2,3:2:0:0:
189,162,64344,2,0,L|263:177,2,71.9999978027344,0|10|2,0:2|0:2|0:2,0:0:0:0:
108,223,64813,6,0,P|95:264|98:300,1,71.9999978027344,2|0,3:2|0:0,0:0:0:0:
163,367,65125,1,10,0:2:0:0:
216,281,65281,2,0,L|291:288,1,71.9999978027344,2|0,0:2|3:2,0:0:0:0:
373,341,65594,2,0,L|444:347,1,71.9999978027344,2|8,0:2|0:2,0:0:0:0:
418,250,65906,6,0,P|387:207|392:100,1,143.999995605469,2|2,0:2|0:2,0:0:0:0:
439,33,66375,1,10,0:2:0:0:
285,164,66688,2,0,L|235:174,3,35.9999989013672,10|8|8|8,0:2|0:2|0:2|0:2,0:0:0:0:
215,207,67000,2,0,L|165:217,3,35.9999989013672,8|8|8|8,0:2|0:2|0:2|0:2,0:0:0:0:
134,238,67313,6,0,B|148:166|148:166|131:95,1,143.999995605469,6|10,3:2|0:2,0:0:0:0:
38,58,67781,2,0,B|57:140,1,71.9999978027344,2|0,0:2|3:2,0:0:0:0:
43,228,68094,2,0,B|62:310,1,71.9999978027344,2|8,3:2|0:2,0:0:0:0:
141,356,68406,6,0,P|205:320|289:332,1,143.999995605469,2|2,0:2|0:2,0:0:0:0:
361,376,68875,1,8,0:2:0:0:
432,305,69031,2,0,B|422:258|422:258|439:212|439:212|426:150,1,143.999995605469,2|0,0:2|3:2,0:0:0:0:
334,131,69500,2,0,B|349:202,1,71.9999978027344,8|0,0:2|0:2,0:0:0:0:
300,290,69813,5,6,3:2:0:0:
300,290,69969,2,0,P|269:267|254:213,1,71.9999978027344,2|10,0:2|0:2,0:0:0:0:
253,136,70281,2,0,P|190:168|106:161,1,143.999995605469,2|2,0:2|3:2,0:0:0:0:
56,84,70750,1,8,0:2:0:0:
28,180,70906,6,0,B|12:220|12:220|27:327,1,143.999995605469,2|2,0:2|0:2,0:0:0:0:
106,381,71375,1,10,0:2:0:0:
181,314,71531,2,0,P|232:300|326:320,1,143.999995605469,2|0,0:2|3:2,0:0:0:0:
398,380,72000,1,8,0:2:0:0:
432,285,72156,1,2,0:2:0:0:
381,197,72313,6,0,P|372:149|378:119,1,71.9999978027344,14|2,0:2|3:2,0:0:0:0:
292,69,72625,2,0,P|301:117|295:147,1,71.9999978027344,10|2,0:2|3:2,0:0:0:0:
391,176,72938,2,0,P|382:128|388:98,1,71.9999978027344,8|2,0:2|3:2,0:0:0:0:
302,48,73250,2,0,P|311:96|305:126,1,71.9999978027344,8|2,0:2|3:2,0:0:0:0:
230,184,73563,6,0,P|182:193|152:187,1,71.9999978027344,8|2,0:2|3:2,0:0:0:0:
102,273,73875,2,0,P|150:264|180:270,1,71.9999978027344,8|2,0:2|3:2,0:0:0:0:
209,174,74188,2,0,P|161:183|131:177,1,71.9999978027344,8|2,0:2|3:2,0:0:0:0:
81,263,74500,2,0,P|129:254|159:260,1,71.9999978027344,8|2,0:2|3:2,0:0:0:0:
246,291,74813,6,0,P|294:300|324:294,1,71.9999978027344,8|2,0:2|3:2,0:0:0:0:
374,380,75125,2,0,P|326:371|296:377,1,71.9999978027344,10|0,0:2|3:2,0:0:0:0:
267,281,75438,2,0,P|315:290|345:284,1,71.9999978027344,10|0,0:2|3:2,0:0:0:0:
395,370,75750,2,0,P|347:361|317:367,1,71.9999978027344,10|2,0:2|3:2,0:0:0:0:
224,349,76063,6,0,P|197:316|192:267,1,71.9999978027344,8|2,0:2|3:2,0:0:0:0:
141,200,76375,2,0,P|125:239|85:268,1,71.9999978027344,10|0,0:2|3:2,0:0:0:0:
42,179,76688,2,0,L|5:150,4,35.9999989013672,10|8|8|8|8,0:2|0:2|0:2|0:2|0:2,0:0:0:0:
123,117,77156,6,0,P|188:93|250:126,1,143.999995605469,4|2,3:2|3:2,0:0:0:0:
266,146,77547,1,2,0:2:0:0:
287,160,77625,2,0,P|320:171|374:167,1,71.9999978027344,10|2,0:2|0:2,0:0:0:0:
446,123,77938,2,0,P|422:96|374:73,1,71.9999978027344,0|2,3:2|3:2,0:0:0:0:
292,58,78250,1,8,0:2:0:0:
321,154,78406,6,0,L|315:233,1,71.9999978027344,2|0,3:2|0:2,0:0:0:0:
221,260,78719,2,0,L|226:180,1,71.9999978027344,2|8,3:2|0:2,0:0:0:0:
128,221,79031,2,0,L|124:293,1,71.9999978027344,2|0,0:2|3:2,0:0:0:0:
31,327,79344,2,0,L|36:247,1,71.9999978027344,2|8,3:2|0:2,0:0:0:0:
20,155,79656,6,0,B|25:105|51:72|51:72|77:94|120:103,1,143.999995605469,4|2,3:2|3:2,0:0:0:0:
123,102,80047,1,2,0:2:0:0:
147,95,80125,2,0,P|200:86|229:91,1,71.9999978027344,10|2,0:2|0:2,0:0:0:0:
302,143,80438,2,0,P|260:177|232:187,1,71.9999978027344,0|2,3:2|3:2,0:0:0:0:
143,184,80750,1,8,0:2:0:0:
79,262,80906,6,0,P|119:281|155:281,1,71.9999978027344,2|0,3:2|0:0,0:0:0:0:
244,260,81219,2,0,P|269:259|301:266,2,35.9999989013672,2|2|10,3:2|0:0|0:2,0:0:0:0:
311,336,81531,2,0,P|286:337|254:330,2,35.9999989013672,2|2|2,0:2|0:2|3:2,0:0:0:0:
361,248,81844,1,2,3:2:0:0:
424,326,82000,1,10,0:2:0:0:
442,227,82156,6,0,B|424:176|452:135|452:135|417:122|398:101,1,143.999995605469,6|2,3:2|3:2,0:0:0:0:
391,95,82547,1,2,0:2:0:0:
368,83,82625,2,0,P|317:87|296:101,1,71.9999978027344,10|2,0:2|0:2,0:0:0:0:
265,192,82938,2,0,P|239:166|205:156,1,71.9999978027344,0|2,3:2|3:2,0:0:0:0:
110,188,83250,1,8,0:2:0:0:
87,286,83406,6,0,L|112:361,1,71.9999978027344,2|0,3:2|0:2,0:0:0:0:
212,362,83719,2,0,L|186:286,1,71.9999978027344,2|8,3:2|0:2,0:0:0:0:
290,302,84031,2,0,L|313:370,1,71.9999978027344,2|0,0:2|3:2,0:0:0:0:
415,377,84344,2,0,L|389:301,1,71.9999978027344,2|8,3:2|0:2,0:0:0:0:
346,218,84656,6,0,B|316:166|333:114|333:114|316:128|286:137,1,143.999995605469,4|2,3:2|3:2,0:0:0:0:
278,141,85047,1,2,0:2:0:0:
254,148,85125,2,0,P|215:152|179:142,1,71.9999978027344,10|2,0:2|0:2,0:0:0:0:
142,51,85438,2,0,P|180:43|217:50,1,71.9999978027344,0|2,3:2|3:2,0:0:0:0:
261,136,85750,1,8,0:2:0:0:
240,234,85906,6,0,B|296:224|296:224|330:239|330:239|387:232,1,143.999995605469,2|0,0:2|3:2,0:0:0:0:
417,326,86375,2,0,L|337:337,1,71.9999978027344,8|0,0:2|0:2,0:0:0:0:
251,373,86688,2,0,L|238:329,3,35.9999989013672,0|0|0|8,3:2|3:2|3:2|0:2,0:0:0:0:
192,324,87000,2,0,L|179:280,3,35.9999989013672,10|8|10|0,3:2|3:2|3:2|3:2,0:0:0:0:
