osu file format v14

[General]
AudioFilename: audio.mp3
AudioLeadIn: 0
PreviewTime: 46561
Countdown: 0
SampleSet: Soft
StackLeniency: 0.7
Mode: 0
LetterboxInBreaks: 0
WidescreenStoryboard: 1

[Editor]
DistanceSpacing: 1
BeatDivisor: 4
GridSize: 4
TimelineZoom: 1.012

[Metadata]
Title:SAVIOR OF SONG (TV Size)
TitleUnicode:SAVIOR OF SONG (TV Size)
Artist:nano feat. MY FIRST STORY
ArtistUnicode:ナノ feat. MY FIRST STORY
Creator:PikAqours
Version:MNYUI'S EXTRA
Source:蒼き鋼のアルペジオ -アルス・ノヴァ-
Tags:anime japanese rock j-rock opening aoki hagane no arpeggio of blue steel ars - Liban - TheSea Hantrik Kaguya_Sama Kaguya Sama Mnyui Respirte Resp nova
BeatmapID:2176002
BeatmapSetID:1040690

[Difficulty]
HPDrainRate:6
CircleSize:3.8
OverallDifficulty:8.6
ApproachRate:9.2
SliderMultiplier:1.7
SliderTickRate:1

[Events]
//Background and Video events
0,0,"bg.png",0,0
//Break Periods
2,9231,10493
//Storyboard Layer 0 (Background)
//Storyboard Layer 1 (Fail)
//Storyboard Layer 2 (Pass)
//Storyboard Layer 3 (Foreground)
//Storyboard Layer 4 (Overlay)
//Storyboard Sound Samples

[TimingPoints]
1688,312.5,4,2,1,40,1,0
1688,-125,4,2,1,40,0,0
11063,-100,4,2,1,70,0,0
11531,-100,4,2,1,70,0,0
21688,-111.111111111111,4,2,1,40,0,0
24188,-125,4,2,1,50,0,0
24656,-125,4,2,1,50,0,0
33406,-125,4,2,1,50,0,0
33563,-125,4,2,1,60,0,0
34188,-111.111111111111,4,2,1,65,0,0
41688,-111.111111111111,4,2,1,70,0,0
43563,-111.111111111111,4,2,1,50,0,0
44188,-111.111111111111,4,2,1,40,0,0
46844,-333.333333333332,4,2,1,40,0,0
47078,-333.333333333332,4,2,1,5,0,0
47156,-83.3333333333333,4,2,1,85,0,0
47312,-83.3333333333333,4,2,1,85,0,0
47313,312.5,4,2,1,85,1,0
47469,-83.3333333333333,4,2,1,85,0,0
52233,-83.3333333333333,4,2,1,5,0,0
52312,-83.3333333333333,4,2,1,85,0,0
55046,-83.3333333333333,4,2,1,5,0,0
55124,-83.3333333333333,4,2,1,85,0,0
56140,-83.3333333333333,4,2,1,5,0,0
56218,-83.3333333333333,4,2,1,85,0,0
59890,-83.3333333333333,4,2,1,5,0,0
59968,-83.3333333333333,4,2,1,85,0,0
61765,-83.3333333333333,4,2,1,5,0,0
61843,-83.3333333333333,4,2,1,85,0,0
62233,-83.3333333333333,4,2,1,5,0,0
62312,-83.3333333333333,4,2,1,85,0,0
63171,-83.3333333333333,4,2,1,5,0,0
63249,-83.3333333333333,4,2,1,85,0,0
63640,-83.3333333333333,4,2,1,5,0,0
63718,-83.3333333333333,4,2,1,85,0,0
65046,-83.3333333333333,4,2,1,5,0,0
65124,-83.3333333333333,4,2,1,85,0,0
66140,-83.3333333333333,4,2,1,5,0,0
66218,-83.3333333333333,4,2,1,85,0,0
77155,-90.9090909090909,4,2,1,85,0,0
77156,-90.9090909090909,4,2,1,70,0,0

[Colours]
Combo1 : 253,165,142
Combo2 : 151,28,71
Combo3 : 65,164,213
Combo4 : 19,56,108

[HitObjects]
76,75,1688,5,2,0:2:0:0:
147,136,1844,2,0,P|178:139|220:122,1,68,2|2,0:2|0:2,0:0:0:0:
169,51,2156,1,2,0:2:0:0:
121,223,2313,2,0,P|186:229|275:193,1,136,2|2,0:2|0:2,0:0:0:0:
323,63,2781,2,0,P|299:99|304:135,1,68,2|0,0:2|0:2,0:0:0:0:
384,252,3094,2,0,P|364:213|331:199,1,68,2|0,0:2|0:2,0:0:0:0:
358,339,3406,2,0,P|422:335|469:276,1,136,2|2,0:2|0:2,0:0:0:0:
510,133,4031,6,0,B|459:124|459:124|434:135|434:135|366:120,1,136,2|2,0:2|0:2,0:0:0:0:
259,91,4500,1,2,0:2:0:0:
419,43,4656,1,2,0:2:0:0:
304,171,4813,2,0,L|322:311,1,136,2|2,0:2|0:2,0:0:0:0:
218,384,5281,2,0,L|227:316,1,68,2|0,0:2|0:2,0:0:0:0:
311,237,5594,2,0,L|321:305,1,68,2|0,0:2|0:2,0:0:0:0:
79,228,5906,2,0,P|138:201|218:224,1,136,2|0,0:2|0:2,0:0:0:0:
429,384,6531,6,0,P|408:322|455:244,1,136,2|2,0:2|0:2,0:0:0:0:
501,193,7000,1,2,0:2:0:0:
501,325,7156,1,2,0:2:0:0:
370,195,7313,2,0,L|390:57,1,136,2|2,0:2|0:2,0:0:0:0:
474,107,7781,1,2,0:2:0:0:
282,161,7938,5,2,0:2:0:0:
282,161,8094,2,0,P|248:113|224:109,1,68,2|0,0:2|0:2,0:0:0:0:
136,202,8406,2,0,P|194:196|210:177,1,68,2|0,0:2|0:2,0:0:0:0:
379,34,8719,2,0,P|354:87|362:110,1,68,2|0,0:2|0:2,0:0:0:0:
383,232,9031,1,2,0:2:0:0:
62,91,11063,5,8,0:2:0:0:
94,79,11141,1,8,0:2:0:0:
126,88,11219,1,8,0:2:0:0:
147,114,11297,1,8,0:2:0:0:
150,147,11375,1,8,0:2:0:0:
133,176,11453,1,8,0:2:0:0:
102,189,11531,6,0,B|148:167|148:167|267:202,1,170,6|2,3:2|3:2,0:0:0:0:
395,322,12000,2,0,P|368:268|384:228,1,85,8|2,0:2|0:2,0:0:0:0:
463,71,12313,1,0,3:2:0:0:
459,263,12469,1,2,3:2:0:0:
372,49,12625,1,8,0:2:0:0:
262,200,12781,6,0,P|254:150|215:119,1,85,2|0,3:2|0:2,0:0:0:0:
93,185,13094,2,0,P|140:203|186:184,1,85,2|8,3:2|0:2,0:0:0:0:
187,47,13406,2,0,P|147:78|140:128,1,85,2|0,0:2|3:2,0:0:0:0:
125,320,13719,2,0,P|156:292|198:289,1,85,2|8,3:2|0:2,0:0:0:0:
441,314,14031,6,0,B|409:342|409:342|388:190,1,170,6|2,3:2|3:2,0:0:0:0:
301,79,14500,2,0,L|284:187,1,85,10|2,0:2|0:2,0:0:0:0:
411,30,14813,1,0,3:2:0:0:
230,1,14969,1,2,3:2:0:0:
388,126,15125,1,8,0:2:0:0:
165,196,15281,6,0,L|72:176,1,85,2|0,3:2|0:2,0:0:0:0:
220,11,15594,1,2,3:2:0:0:
155,207,15750,2,0,L|62:187,1,85,10|2,0:2|0:2,0:0:0:0:
287,162,16063,1,2,3:2:0:0:
178,311,16219,1,2,3:2:0:0:
421,245,16375,1,10,0:2:0:0:
421,245,16453,1,8,0:2:0:0:
421,245,16531,6,0,B|347:217|320:285|239:243,1,170,6|2,3:2|3:2,0:0:0:0:
493,307,17000,2,0,P|514:264|511:224,1,85,10|2,0:2|0:2,0:0:0:0:
397,87,17313,1,0,3:2:0:0:
386,330,17469,1,2,3:2:0:0:
465,156,17625,1,8,0:2:0:0:
376,340,17781,6,0,L|280:331,1,85,2|0,3:2|0:2,0:0:0:0:
126,384,18094,2,0,P|164:317|153:280,1,85,2|8,3:2|0:2,0:0:0:0:
56,161,18406,2,0,L|64:265,1,85,2|0,0:2|3:2,0:0:0:0:
142,89,18719,1,2,3:2:0:0:
156,223,18875,1,8,0:2:0:0:
55,43,19031,6,0,P|95:5|221:28,1,170,6|2,3:2|3:2,0:0:0:0:
278,186,19500,2,0,P|258:141|262:103,1,85,10|2,0:2|0:2,0:0:0:0:
383,215,19813,1,0,3:2:0:0:
166,153,19969,1,2,3:2:0:0:
357,52,20125,1,8,0:2:0:0:
247,294,20281,6,0,P|170:255|78:284,1,170,2|0,3:2|3:2,0:0:0:0:
318,358,20750,2,0,P|339:309|321:249,1,85,8|0,0:2|0:2,0:0:0:0:
201,120,21063,1,0,3:2:0:0:
213,146,21141,1,0,3:2:0:0:
232,169,21219,1,0,3:2:0:0:
257,186,21297,1,0,3:2:0:0:
283,197,21375,2,0,L|348:185,3,42.5,8|8|8|8,0:2|0:2|0:2|0:2,0:0:0:0:
499,152,21688,5,2,0:2:0:0:
429,101,21844,2,0,P|413:144|428:200,1,76.4999976654053,2|0,0:2|0:2,0:0:0:0:
440,345,22156,2,0,P|399:284|326:282,1,152.999995330811,2|0,0:2|0:2,0:0:0:0:
356,365,22625,1,2,0:2:0:0:
248,239,22781,6,0,P|234:278|243:320,1,76.4999976654053,2|0,0:2|0:2,0:0:0:0:
176,183,23094,2,0,P|141:255|147:327,1,152.999995330811,2|0,0:2|0:2,0:0:0:0:
289,154,23563,1,2,0:2:0:0:
156,94,23719,1,2,0:2:0:0:
299,164,23875,2,0,L|383:155,1,76.4999976654053,2|0,0:2|0:2,0:0:0:0:
512,261,24188,6,0,B|489:234|489:234|388:244,1,136,6|0,3:2|0:2,0:0:0:0:
300,371,24656,2,0,P|319:317|276:249,1,136,2|0,0:2|0:2,0:0:0:0:
117,278,25125,2,0,P|154:321|234:318,1,136,2|0,0:2|0:2,0:0:0:0:
288,166,25594,2,0,P|231:176|194:247,1,136,2|0,0:2|0:2,0:0:0:0:
27,89,26375,2,0,L|97:79,1,68,2|0,0:2|0:2,0:0:0:0:
231,14,26688,6,0,B|274:35|274:35|317:16|381:34,1,136,2|0,0:2|0:2,0:0:0:0:
489,12,27156,2,0,P|455:63|491:132,1,136,2|0,0:2|0:2,0:0:0:0:
325,115,27625,2,0,P|362:133|302:181,1,136,2|0,0:2|0:2,0:0:0:0:
435,222,28094,2,0,P|404:261|309:275,1,136,2|0,0:2|0:2,0:0:0:0:
213,213,28563,1,2,0:2:0:0:
330,178,28719,1,2,0:2:0:0:
236,308,28875,1,2,0:2:0:0:
388,295,29188,2,0,L|306:274,1,68,0|0,0:2|0:2,0:0:0:0:
223,149,29500,6,0,P|217:207|197:225,1,68,2|0,0:2|0:2,0:0:0:0:
117,317,29813,2,0,L|105:222,1,68,2|0,0:2|0:2,0:0:0:0:
83,80,30125,1,2,0:2:0:0:
137,164,30281,1,2,0:2:0:0:
287,89,30438,2,0,P|255:63|215:64,1,68,2|0,0:2|0:2,0:0:0:0:
299,196,30750,2,0,P|364:155|437:175,1,136,2|0,0:2|0:2,0:0:0:0:
227,252,31375,6,0,P|209:207|220:162,1,68,2|0,0:2|0:2,0:0:0:0:
286,323,31688,2,0,B|259:352|259:352|162:333,1,136,2|0,0:2|0:2,0:0:0:0:
344,253,32156,2,0,P|381:315|349:387,1,136,2|0,0:2|0:2,0:0:0:0:
227,252,32625,2,0,B|217:151|217:151|231:137|253:143,1,136,2|0,0:2|0:2,0:0:0:0:
145,93,33094,2,0,P|198:54|290:66,1,136,2|0,0:2|0:2,0:0:0:0:
467,184,33563,5,10,0:2:0:0:
374,33,33719,1,2,3:2:0:0:
312,207,33875,1,2,3:2:0:0:
420,108,34031,1,0,3:2:0:0:
302,217,34188,6,0,L|207:201,1,76.4999976654053,4|0,3:2|0:2,0:0:0:0:
176,146,34500,2,0,L|100:158,1,76.4999976654053,2|0,3:2|0:2,0:0:0:0:
40,111,34813,2,0,P|22:159|49:211,1,76.4999976654053,2|0,3:2|0:2,0:0:0:0:
79,313,35125,2,0,B|88:212,1,76.4999976654053,2|0,3:2|0:2,0:0:0:0:
296,342,35438,6,0,B|217:327|228:395|131:367,1,152.999995330811,2|0,3:2|3:2,0:0:0:0:
173,163,35906,2,0,P|202:190|160:292,1,152.999995330811,2|0,0:2|0:2,0:0:0:0:
97,121,36375,2,0,P|132:84|168:77,1,76.4999976654053,2|0,3:2|0:2,0:0:0:0:
277,143,36688,2,0,L|388:125,1,76.4999976654053,0|0,3:2|0:2,0:0:0:0:
457,49,37000,6,0,P|438:90|463:150,1,76.4999976654053,2|0,3:2|0:2,0:0:0:0:
479,278,37313,2,0,L|493:181,1,76.4999976654053,2|0,3:2|0:2,0:0:0:0:
366,257,37625,1,2,3:2:0:0:
469,288,37781,1,2,0:2:0:0:
356,267,37938,2,0,L|248:274,1,76.4999976654053,2|0,3:2|0:2,0:0:0:0:
146,349,38250,2,0,P|174:300|173:273,1,76.4999976654053,2|0,3:2|0:2,0:0:0:0:
66,143,38563,2,0,P|94:191|118:204,1,76.4999976654053,2|0,3:2|0:2,0:0:0:0:
294,184,38875,2,0,P|237:184|214:198,1,76.4999976654053,2|0,3:2|0:2,0:0:0:0:
356,267,39188,5,0,3:2:0:0:
353,99,39344,1,0,0:2:0:0:
366,277,39500,2,0,L|385:365,1,76.4999976654053,2|0,3:2|0:2,0:0:0:0:
484,191,39813,2,0,L|467:265,1,76.4999976654053,2|0,3:2|0:2,0:0:0:0:
381,161,40125,2,0,L|364:86,1,76.4999976654053,2|0,3:2|0:2,0:0:0:0:
290,236,40438,5,2,3:2:0:0:
457,112,40594,1,2,0:2:0:0:
278,69,40750,1,0,3:2:0:0:
372,308,40906,2,0,P|393:231|377:151,1,152.999995330811,2|0,0:2|0:2,0:0:0:0:
278,69,41375,2,0,L|271:162,1,76.4999976654053,2|0,3:2|0:2,0:0:0:0:
235,352,41688,5,10,0:2:0:0:
165,124,41844,1,10,0:2:0:0:
142,327,42000,1,10,0:2:0:0:
278,69,42156,1,10,0:2:0:0:
429,321,42625,5,10,0:2:0:0:
205,222,42781,1,10,0:2:0:0:
456,223,42938,1,10,0:2:0:0:
142,327,43094,1,10,0:2:0:0:
0,134,43563,6,0,B|83:94|61:166|158:124,1,152.999995330811,2|2,0:0|0:0,0:0:0:0:
343,73,44031,1,2,0:0:0:0:
256,192,44188,12,0,46531,0:0:0:0:
440,214,46688,5,2,0:2:0:0:
440,214,46844,2,0,B|393:206,1,38.2499988327027,2|0,0:2|0:2,0:0:0:0:
451,228,47156,6,0,B|380:220|380:220|323:249|323:249|205:239,1,203.999993774414,6|0,3:2|3:2,0:0:0:0:
131,384,47625,2,0,P|159:311|144:280,1,101.999996887207,10|0,0:2|0:2,0:0:0:0:
5,146,47938,2,0,P|54:206|88:209,1,101.999996887207,2|0,3:2|3:2,0:0:0:0:
238,131,48250,1,10,0:2:0:0:
134,14,48406,2,0,P|116:72|142:134,1,101.999996887207,2|0,3:2|0:2,0:0:0:0:
152,292,48719,6,0,P|207:239|340:259,1,203.999993774414,2|0,3:2|0:2,0:0:0:0:
441,346,49188,1,0,3:2:0:0:
416,160,49344,2,0,L|410:264,1,101.999996887207,2|8,3:2|0:2,0:0:0:0:
462,79,49656,6,0,B|367:36|356:137|255:76,1,203.999993774414,6|2,3:2|3:2,0:0:0:0:
134,0,50125,1,10,0:2:0:0:
312,4,50281,1,2,0:2:0:0:
204,155,50438,2,0,P|200:210|223:265,1,101.999996887207,2|0,3:2|3:2,0:0:0:0:
266,82,50750,1,10,0:2:0:0:
116,206,50906,6,0,L|13:190,1,101.999996887207,2|0,3:2|0:2,0:0:0:0:
299,313,51219,2,0,L|402:297,1,101.999996887207,2|8,3:2|0:2,0:0:0:0:
259,87,51531,2,0,B|203:153|203:153|223:279,1,203.999993774414,2|2,0:2|3:2,0:0:0:0:
344,64,52000,2,0,P|308:10|269:3,1,101.999996887207,10|0,0:2|0:0,0:0:0:0:
63,74,52313,2,0,L|192:62,1,101.999996887207,4|0,3:2|0:2,0:0:0:0:
344,64,52625,6,0,P|322:126|334:167,1,101.999996887207,10|0,0:2|0:2,0:0:0:0:
495,292,52938,2,0,P|440:230|337:274,1,203.999993774414,2|8,3:2|0:2,0:0:0:0:
199,384,53406,2,0,B|184:309|184:309|212:262|212:262|195:171,1,203.999993774414,2|2,0:2|0:2,0:0:0:0:
284,336,53875,2,0,P|343:358|398:330,1,101.999996887207,10|0,0:2|0:2,0:0:0:0:
116,238,54188,2,0,P|57:216|2:244,1,101.999996887207,2|0,3:2|0:2,0:0:0:0:
186,307,54500,1,10,0:2:0:0:
170,71,54656,1,0,0:2:0:0:
287,329,54813,6,0,L|313:192,1,101.999996887207,2|0,3:2|0:0,0:0:0:0:
335,43,55125,1,10,0:2:0:0:
387,204,55281,2,0,P|356:157|278:157,1,101.999996887207,2|0,0:2|3:2,0:0:0:0:
157,233,55594,1,2,0:2:0:0:
306,228,55750,1,8,0:2:0:0:
103,64,55906,6,0,P|85:114|110:178,1,101.999996887207,2|0,0:2|3:0,0:0:0:0:
220,304,56219,1,2,0:2:0:0:
262,77,56375,2,0,P|209:86|166:140,1,101.999996887207,10|0,0:2|0:2,0:0:0:0:
311,153,56688,2,0,L|380:133,1,50.9999984436036,10|8,0:2|0:2,0:0:0:0:
357,8,56844,2,0,L|339:77,1,50.9999984436036,8|8,0:2|0:2,0:0:0:0:
468,122,57000,2,0,L|416:72,1,50.9999984436036,8|8,0:2|0:2,0:0:0:0:
287,245,57156,6,0,P|335:288|440:222,1,203.999993774414,4|0,3:2|3:2,0:0:0:0:
212,199,57625,2,0,P|201:270|220:304,1,101.999996887207,10|0,0:2|0:2,0:0:0:0:
215,111,57938,2,0,P|148:136|128:170,1,101.999996887207,2|0,3:2|3:2,0:0:0:0:
287,245,58250,1,10,0:2:0:0:
294,67,58406,2,0,P|238:21|199:21,1,101.999996887207,2|0,3:2|0:2,0:0:0:0:
380,237,58719,5,2,3:2:0:0:
397,35,58875,1,8,0:0:0:0:
512,223,59031,1,0,0:0:0:0:
409,47,59188,1,0,3:2:0:0:
369,226,59344,2,0,P|330:178|286:174,1,101.999996887207,2|8,3:2|0:2,0:0:0:0:
78,350,59656,6,0,B|96:296|87:212|87:212|102:256|156:261,1,203.999993774414,6|2,3:2|3:2,0:0:0:0:
310,332,60125,1,8,0:2:0:0:
166,177,60281,1,2,0:2:0:0:
233,384,60438,2,0,P|217:326|240:269,1,101.999996887207,2|0,3:2|3:2,0:0:0:0:
361,220,60750,1,10,0:2:0:0:
141,68,60906,6,0,L|152:194,1,101.999996887207,2|0,3:2|0:2,0:0:0:0:
227,286,61219,2,0,P|249:218|238:186,1,101.999996887207,2|8,3:2|0:2,0:0:0:0:
86,355,61531,2,0,B|155:346|155:346|190:381|190:381|292:369,1,203.999993774414,2|2,0:2|3:2,0:0:0:0:
351,210,62000,2,0,P|333:284|353:320,1,101.999996887207,10|0,0:2|0:0,0:0:0:0:
512,153,62313,6,0,L|391:136,1,101.999996887207,4|0,3:2|0:2,0:0:0:0:
235,55,62625,2,0,P|211:110|227:162,1,101.999996887207,10|0,0:2|0:2,0:0:0:0:
501,142,62938,2,0,L|298:113,1,203.999993774414,2|10,3:2|0:2,0:0:0:0:
110,0,63406,6,0,P|127:86|38:179,1,203.999993774414,2|2,0:2|0:2,0:0:0:0:
151,311,63875,2,0,P|141:253|165:202,1,101.999996887207,10|0,0:2|0:2,0:0:0:0:
313,380,64188,2,0,L|208:373,1,101.999996887207,2|0,3:2|0:2,0:0:0:0:
22,360,64500,1,10,0:2:0:0:
230,266,64656,1,2,0:2:0:0:
51,70,64813,6,0,L|67:313,1,203.999993774414,2|10,3:2|0:2,0:0:0:0:
216,16,65281,2,0,L|106:2,1,101.999996887207,2|0,0:2|3:2,0:0:0:0:
217,149,65594,2,0,L|327:135,1,101.999996887207,2|8,0:2|0:2,0:0:0:0:
460,8,65906,6,0,L|446:211,1,203.999993774414,2|2,0:2|0:2,0:0:0:0:
512,361,66375,2,0,P|471:321|395:337,1,101.999996887207,10|0,0:2|0:2,0:0:0:0:
278,370,66688,1,10,0:2:0:0:
241,379,66766,1,8,0:2:0:0:
203,374,66844,1,8,0:2:0:0:
171,354,66922,1,8,0:2:0:0:
148,324,67000,2,0,L|141:251,1,50.9999984436036,8|8,0:2|0:2,0:0:0:0:
317,216,67156,2,0,L|312:266,1,50.9999984436036,8|8,0:2|0:2,0:0:0:0:
205,83,67313,6,0,L|219:216,1,101.999996887207,6|2,3:2|0:2,0:0:0:0:
231,293,67625,1,10,0:2:0:0:
286,58,67781,2,0,P|252:7|193:7,1,101.999996887207,2|0,0:2|3:2,0:0:0:0:
76,58,68094,1,2,3:2:0:0:
290,138,68250,1,8,0:2:0:0:
35,237,68406,6,0,L|32:93,1,101.999996887207,2|0,0:2|3:2,0:0:0:0:
118,300,68719,1,2,0:2:0:0:
153,130,68875,1,8,0:2:0:0:
22,341,69031,1,2,0:2:0:0:
270,348,69188,1,0,3:2:0:0:
112,203,69344,1,0,3:2:0:0:
260,358,69500,2,0,L|363:341,1,101.999996887207,8|0,0:2|0:2,0:0:0:0:
253,99,69813,5,6,3:2:0:0:
343,343,69969,1,2,0:2:0:0:
412,143,70125,1,10,0:2:0:0:
249,347,70281,2,0,P|205:299|156:301,1,101.999996887207,2|2,0:2|3:2,0:0:0:0:
6,357,70594,1,2,3:2:0:0:
180,287,70750,1,8,0:2:0:0:
36,153,70906,6,0,L|31:286,1,101.999996887207,2|0,0:2|3:2,0:0:0:0:
167,129,71219,1,2,0:2:0:0:
45,267,71375,1,10,0:2:0:0:
2,52,71531,1,2,0:2:0:0:
106,198,71688,1,0,3:2:0:0:
139,13,71844,1,0,3:2:0:0:
251,165,72000,2,0,L|360:152,1,101.999996887207,8|2,0:2|0:2,0:0:0:0:
512,134,72313,5,14,0:2:0:0:
267,59,72469,1,2,3:2:0:0:
512,251,72625,5,10,0:2:0:0:
343,73,72781,1,2,3:2:0:0:
433,324,72938,6,0,L|428:211,1,101.999996887207,8|2,0:2|3:2,0:0:0:0:
251,165,73250,2,0,L|246:266,1,101.999996887207,8|2,0:2|3:2,0:0:0:0:
420,133,73563,5,8,0:2:0:0:
160,166,73719,1,2,3:2:0:0:
428,222,73875,5,8,0:2:0:0:
207,87,74031,1,2,3:2:0:0:
354,369,74188,6,0,L|341:236,1,101.999996887207,8|2,0:2|3:2,0:0:0:0:
319,34,74500,5,8,0:2:0:0:
246,266,74656,1,2,3:2:0:0:
236,0,74813,5,8,0:2:0:0:
302,196,74969,1,2,3:2:0:0:
71,61,75125,5,10,0:2:0:0:
347,117,75281,1,0,3:2:0:0:
135,235,75438,6,0,L|121:126,1,101.999996887207,10|0,0:2|3:2,0:0:0:0:
0,377,75750,5,10,0:2:0:0:
247,250,75906,1,2,3:2:0:0:
29,277,76063,5,8,0:2:0:0:
312,357,76219,1,2,3:2:0:0:
122,133,76375,6,0,L|136:254,1,101.999996887207,10|0,0:2|3:2,0:0:0:0:
214,73,76688,6,0,L|197:-6,1,50.9999984436036,10|8,0:2|0:2,0:0:0:0:
337,128,76844,2,0,L|331:187,1,50.9999984436036,8|8,0:2|0:2,0:0:0:0:
225,62,77000,2,0,L|208:-17,1,50.9999984436036,8|8,0:2|0:2,0:0:0:0:
247,250,77156,6,0,B|386:266|386:266|411:251|409:203,1,187.000005706787,4|2,3:2|3:2,0:0:0:0:
179,198,77625,2,0,P|158:249|172:292,1,93.5000028533936,10|2,0:2|0:2,0:0:0:0:
262,162,77938,1,0,3:2:0:0:
74,188,78094,1,2,3:2:0:0:
241,337,78250,1,8,0:2:0:0:
130,125,78406,6,0,L|145:28,1,93.5000028533936,2|0,3:2|0:2,0:0:0:0:
274,174,78719,2,0,L|288:266,1,93.5000028533936,2|8,3:2|0:2,0:0:0:0:
119,114,79031,2,0,L|134:17,1,93.5000028533936,2|0,0:2|3:2,0:0:0:0:
264,164,79344,1,2,3:2:0:0:
84,253,79500,1,8,0:2:0:0:
224,85,79656,6,0,P|308:86|347:194,1,187.000005706787,4|2,3:2|3:2,0:0:0:0:
421,338,80125,2,0,P|403:292|434:232,1,93.5000028533936,10|2,0:2|0:2,0:0:0:0:
476,150,80438,1,0,3:2:0:0:
494,290,80594,1,2,3:2:0:0:
403,72,80750,1,8,0:2:0:0:
308,269,80906,6,0,P|284:225|239:214,1,93.5000028533936,2|0,3:2|0:2,0:0:0:0:
97,264,81219,1,2,3:2:0:0:
178,78,81375,2,0,L|174:172,1,93.5000028533936,10|2,0:2|0:2,0:0:0:0:
286,99,81688,1,2,3:2:0:0:
77,38,81844,1,2,3:2:0:0:
244,213,82000,2,0,L|289:202,1,46.7500014266968,10|0,0:2|0:2,0:0:0:0:
443,95,82156,6,0,B|425:87|406:64|406:64|426:221,1,187.000005706787,6|2,3:2|3:2,0:0:0:0:
351,360,82625,2,0,L|353:244,1,93.5000028533936,10|2,0:2|0:2,0:0:0:0:
440,384,82938,1,0,3:2:0:0:
257,334,83094,1,2,3:2:0:0:
470,303,83250,1,8,0:2:0:0:
247,344,83406,6,0,L|138:326,1,93.5000028533936,2|0,3:2|0:2,0:0:0:0:
286,158,83719,2,0,L|268:267,1,93.5000028533936,2|8,3:2|0:2,0:0:0:0:
102,127,84031,2,0,L|211:145,1,93.5000028533936,2|0,0:2|3:2,0:0:0:0:
374,170,84344,1,2,3:2:0:0:
254,70,84500,1,8,0:2:0:0:
420,247,84656,6,0,P|465:179|398:85,1,187.000005706787,4|2,3:2|3:2,0:0:0:0:
359,314,85125,2,0,P|401:336|463:328,1,93.5000028533936,10|2,0:2|0:2,0:0:0:0:
277,191,85438,1,0,3:2:0:0:
275,374,85594,1,2,3:2:0:0:
374,170,85750,1,8,0:2:0:0:
199,322,85906,6,0,L|81:296,1,93.5000028533936,2|0,0:2|3:2,0:0:0:0:
287,201,86219,1,0,3:2:0:0:
285,384,86375,1,8,0:2:0:0:
148,224,86531,1,0,0:2:0:0:
347,313,86688,6,0,L|399:301,1,46.7500014266968,0|0,3:2|3:2,0:0:0:0:
471,238,86844,2,0,L|418:225,1,46.7500014266968,0|8,3:2|0:2,0:0:0:0:
287,201,87000,2,0,L|341:188,1,46.7500014266968,10|8,3:2|3:2,0:0:0:0:
505,135,87156,2,0,L|452:122,1,46.7500014266968,10|0,3:2|3:2,0:0:0:0:
