osu file format v14

[General]
AudioFilename: audio.mp3
AudioLeadIn: 0
PreviewTime: 46561
Countdown: 0
SampleSet: Soft
StackLeniency: 0.5
Mode: 0
LetterboxInBreaks: 0
WidescreenStoryboard: 1

[Editor]
Bookmarks: 8983,11015,61170,72264
DistanceSpacing: 0.6
BeatDivisor: 4
GridSize: 16
TimelineZoom: 1.68

[Metadata]
Title:SAVIOR OF SONG (TV Size)
TitleUnicode:SAVIOR OF SONG (TV Size)
Artist:nano feat. MY FIRST STORY
ArtistUnicode:ナノ feat. MY FIRST STORY
Creator:PikAqours
Version:LIBAN'S EXPERT
Source:蒼き鋼のアルペジオ -アルス・ノヴァ-
Tags:anime japanese rock j-rock opening aoki hagane no arpeggio of blue steel ars - Liban - TheSea Hantrik Kaguya_Sama Kaguya Sama Mnyui Respirte Resp nova
BeatmapID:2180388
BeatmapSetID:1040690

[Difficulty]
HPDrainRate:6
CircleSize:3.8
OverallDifficulty:8.5
ApproachRate:9
SliderMultiplier:1.7
SliderTickRate:1

[Events]
//Background and Video events
0,0,"bg.png",0,0
//Break Periods
2,9231,10463
2,21888,23275
//Storyboard Layer 0 (Background)
//Storyboard Layer 1 (Fail)
//Storyboard Layer 2 (Pass)
//Storyboard Layer 3 (Foreground)
//Storyboard Layer 4 (Overlay)
//Storyboard Sound Samples

[TimingPoints]
1688,312.5,4,2,1,40,1,0
1688,-153.846153846154,4,2,1,40,0,0
9031,-181.818181818182,4,2,1,40,0,0
11063,-100,4,2,1,70,0,0
21688,-133.333333333333,4,2,1,40,0,0
23875,-250,4,2,1,40,0,0
24188,-133.333333333333,4,2,1,50,0,0
24656,-133.333333333333,4,2,1,50,0,0
26375,-250,4,2,1,50,0,0
26688,-133.333333333333,4,2,1,50,0,0
29500,-250,4,2,1,50,0,0
29813,-133.333333333333,4,2,1,50,0,0
31375,-250,4,2,1,50,0,0
31688,-133.333333333333,4,2,1,50,0,0
33406,-133.333333333333,4,2,1,50,0,0
33563,-133.333333333333,4,2,1,60,0,0
34188,-117.647058823529,4,2,1,65,0,0
36688,-111.111111111111,4,2,1,65,0,0
39188,-105.263157894737,4,2,1,65,0,0
41688,-100,4,2,1,70,0,0
43563,-100,4,2,1,50,0,0
44188,-100,4,2,1,40,0,0
46688,-200,4,2,1,40,0,0
46844,-333.333333333333,4,2,1,40,0,0
47078,-200,4,2,1,5,0,0
47156,-83.3333333333333,4,2,1,85,0,1
47312,-83.3333333333333,4,2,1,85,0,1
47313,312.5,4,2,1,85,1,1
47469,-83.3333333333333,4,2,1,85,0,1
51999,-71.4285714285714,4,2,1,85,0,1
52233,-83.3333333333333,4,2,1,5,0,1
52312,-83.3333333333333,4,2,1,85,0,1
52468,-83.3333333333333,4,2,1,85,0,1
52624,-83.3333333333333,4,2,1,85,0,1
55046,-83.3333333333333,4,2,1,5,0,1
55124,-83.3333333333333,4,2,1,85,0,1
56140,-83.3333333333333,4,2,1,5,0,1
56218,-83.3333333333333,4,2,1,85,0,1
57078,-83.3333333333333,4,2,1,85,0,0
57156,-83.3333333333333,4,2,1,85,0,1
59890,-83.3333333333333,4,2,1,5,0,1
59968,-83.3333333333333,4,2,1,85,0,1
61765,-83.3333333333333,4,2,1,5,0,1
61843,-83.3333333333333,4,2,1,85,0,1
61999,-71.4285714285714,4,2,1,85,0,1
62233,-83.3333333333333,4,2,1,5,0,1
62312,-83.3333333333333,4,2,1,85,0,1
63171,-83.3333333333333,4,2,1,5,0,1
63249,-83.3333333333333,4,2,1,85,0,1
63640,-83.3333333333333,4,2,1,5,0,1
63718,-83.3333333333333,4,2,1,85,0,1
65046,-83.3333333333333,4,2,1,5,0,1
65124,-83.3333333333333,4,2,1,85,0,1
66140,-83.3333333333333,4,2,1,5,0,1
66218,-83.3333333333333,4,2,1,85,0,1
67234,-83.3333333333333,4,2,1,85,0,0
67313,-83.3333333333333,4,2,1,85,0,1
77155,-83.3333333333333,4,2,1,85,0,1
77156,-100,4,2,1,70,0,0

[Colours]
Combo1 : 253,165,142
Combo2 : 151,28,71
Combo3 : 65,164,213
Combo4 : 19,56,108
SliderBorder : 252,227,245
SliderTrackOverride : 23,9,34

[HitObjects]
22,126,1688,5,2,0:2:0:0:
22,126,1844,2,0,P|56:120|99:106,1,55.2499974708558,2|2,0:2|0:2,0:0:0:0:
195,73,2156,1,2,0:2:0:0:
141,9,2313,2,0,P|191:30|245:43,1,110.499994941712,2|2,0:2|0:2,0:0:0:0:
332,16,2781,6,0,P|327:43|320:69,1,55.2499974708558,2|0,0:2|0:2,0:0:0:0:
375,120,3094,2,0,P|379:147|386:173,1,55.2499974708558,2|0,0:2|0:2,0:0:0:0:
512,314,3406,2,0,P|509:259|453:232,1,110.499994941712,2|2,0:2|0:2,0:0:0:0:
465,231,4031,6,0,L|358:255,1,110.499994941712,2|2,0:2|0:2,0:0:0:0:
289,285,4500,1,2,0:2:0:0:
257,352,4656,1,2,0:2:0:0:
291,211,4813,2,0,P|277:157|256:106,1,110.499994941712,2|2,0:2|0:2,0:0:0:0:
146,73,5281,6,0,P|150:100|157:126,1,55.2499974708558,2|0,0:2|0:2,0:0:0:0:
103,177,5594,2,0,P|98:204|91:230,1,55.2499974708558,2|0,0:2|0:2,0:0:0:0:
235,115,5906,2,0,P|211:82|127:83,1,110.499994941712,2|0,0:2|0:2,0:0:0:0:
145,72,6531,6,0,P|208:66|258:61,1,110.499994941712,2|2,0:2|0:2,0:0:0:0:
359,57,7000,1,2,0:2:0:0:
309,116,7156,1,2,0:2:0:0:
450,130,7313,2,0,P|463:76|484:25,1,110.499994941712,2|2,0:2|0:2,0:0:0:0:
379,157,7781,5,2,0:2:0:0:
379,157,7938,1,2,0:2:0:0:
285,182,8094,2,0,L|215:197,1,55.2499974708558,2|0,0:2|0:2,0:0:0:0:
230,193,8406,2,0,L|345:219,1,110.499994941712,2|2,0:2|0:2,0:0:0:0:
230,193,9031,1,2,0:2:0:0:
0,311,11063,6,0,P|28:295|41:292,1,42.5,8|8,0:2|0:2,0:0:0:0:
150,278,11219,2,0,P|121:262|109:259,1,42.5,8|8,0:2|0:2,0:0:0:0:
11,182,11375,2,0,P|30:189|49:200,1,42.5,8|8,0:2|0:2,0:0:0:0:
166,307,11531,6,0,B|273:309|218:246|336:247,1,170,6|2,3:2|3:2,0:0:0:0:
446,162,12000,1,8,0:2:0:0:
335,270,12156,1,2,0:2:0:0:
474,323,12313,1,0,3:2:0:0:
352,138,12469,2,0,P|302:142|261:172,1,85,2|8,3:2|0:2,0:0:0:0:
412,314,12781,6,0,P|462:310|503:280,1,85,2|0,3:2|0:2,0:0:0:0:
239,265,13094,2,0,P|247:304|253:351,1,85,2|8,3:2|0:2,0:0:0:0:
444,153,13406,2,0,P|436:192|430:239,1,85,2|0,0:2|3:2,0:0:0:0:
249,136,13719,1,2,3:2:0:0:
345,238,13875,1,8,0:2:0:0:
512,97,14031,6,0,P|491:51|358:40,1,170,6|2,3:2|3:2,0:0:0:0:
355,160,14500,1,10,0:2:0:0:
266,33,14656,2,0,L|239:132,1,85,2|0,0:2|3:2,0:0:0:0:
111,213,14969,1,2,3:2:0:0:
70,76,15125,1,8,0:2:0:0:
230,226,15281,6,0,P|222:265|216:312,1,85,2|0,3:2|0:2,0:0:0:0:
138,131,15594,1,2,3:2:0:0:
44,261,15750,2,0,P|52:300|58:347,1,85,10|2,0:2|0:2,0:0:0:0:
166,128,16063,2,0,P|134:104|90:105,1,85,2|2,3:2|3:2,0:0:0:0:
270,283,16375,2,0,P|276:259|291:231,1,42.5,10|0,0:2|0:2,0:0:0:0:
346,193,16531,6,0,P|314:271|294:356,1,170,6|2,3:2|3:2,0:0:0:0:
213,214,17000,1,10,0:2:0:0:
409,161,17156,1,2,0:2:0:0:
350,301,17313,1,0,3:2:0:0:
217,143,17469,2,0,P|254:118|302:121,1,85,2|8,3:2|0:2,0:0:0:0:
92,243,17781,6,0,P|82:201|74:159,1,85,2|0,3:2|0:2,0:0:0:0:
284,237,18094,2,0,P|275:278|266:320,1,85,2|8,3:2|0:2,0:0:0:0:
195,226,18406,1,2,0:2:0:0:
379,224,18563,1,0,3:2:0:0:
259,360,18719,2,0,P|217:356|183:330,1,85,2|8,3:2|0:2,0:0:0:0:
74,130,19031,6,0,P|93:214|94:316,1,170,6|2,3:2|3:2,0:0:0:0:
0,174,19500,1,10,0:2:0:0:
165,56,19656,2,0,P|198:30|240:26,1,85,2|0,0:2|3:2,0:0:0:0:
107,165,19969,1,2,3:2:0:0:
72,20,20125,1,8,0:2:0:0:
228,121,20281,6,0,P|216:168|207:217,1,85,2|0,3:2|0:2,0:0:0:0:
278,316,20594,1,0,3:2:0:0:
367,122,20750,2,0,P|378:169|388:218,1,85,8|0,0:2|0:2,0:0:0:0:
416,323,21063,5,0,3:2:0:0:
416,323,21141,1,0,3:2:0:0:
416,323,21219,2,0,P|396:316|376:311,1,42.5,0|0,3:2|3:2,0:0:0:0:
235,257,21375,5,8,0:2:0:0:
209,259,21453,1,8,0:2:0:0:
191,277,21531,1,8,0:2:0:0:
194,302,21609,1,8,0:2:0:0:
207,315,21688,1,2,0:2:0:0:
206,344,23875,6,0,L|256:327,1,51,2|0,0:2|0:0,0:0:0:0:
255,328,24188,6,0,P|172:309|116:306,1,127.500004863739,6|0,3:2|0:2,0:0:0:0:
33,240,24656,2,0,P|43:303|51:367,1,127.500004863739,2|0,0:2|0:2,0:0:0:0:
136,186,25125,2,0,P|115:147|20:154,1,127.500004863739,2|0,0:2|0:2,0:0:0:0:
181,276,25594,2,0,B|250:273|235:227|294:228,1,127.500004863739,2|0,0:2|0:2,0:0:0:0:
379,83,26375,6,0,L|438:97,1,51,2|0,0:2|0:0,0:0:0:0:
428,94,26688,6,0,B|401:152|401:152|411:228,1,127.500004863739,2|0,0:2|0:2,0:0:0:0:
499,343,27156,2,0,P|436:298|373:294,1,127.500004863739,2|0,0:2|0:2,0:0:0:0:
255,338,27625,2,0,B|167:338|210:385|123:385,1,127.500004863739,2|0,0:2|0:2,0:0:0:0:
250,247,28094,2,0,B|180:248|223:200|135:200,1,127.500004863739,2|0,0:2|0:2,0:0:0:0:
38,118,28563,1,2,0:2:0:0:
112,110,28719,1,2,0:2:0:0:
114,185,28875,1,2,0:2:0:0:
114,185,29500,6,0,L|97:233,1,51,2|0,0:2|0:0,0:0:0:0:
96,233,29813,2,0,L|107:301,1,63.7500024318696,2|0,0:2|0:2,0:0:0:0:
198,362,30125,1,2,0:2:0:0:
198,362,30281,1,2,0:2:0:0:
315,258,30438,2,0,P|284:265|252:267,1,63.7500024318696,2|0,0:2|0:2,0:0:0:0:
388,149,30750,2,0,P|409:191|402:276,1,127.500004863739,2|0,0:2|0:2,0:0:0:0:
234,107,31375,6,0,P|206:116|181:122,1,51,2|0,0:2|0:0,0:0:0:0:
185,121,31688,6,0,P|249:122|311:90,1,127.500004863739,2|0,0:2|0:2,0:0:0:0:
394,27,32156,2,0,L|421:165,1,127.500004863739,2|0,0:2|0:2,0:0:0:0:
307,231,32625,2,0,P|293:293|281:356,1,127.500004863739,2|0,0:2|0:2,0:0:0:0:
94,241,33094,2,0,P|121:215|217:235,1,127.500004863739,2|0,0:2|0:2,0:0:0:0:
353,104,33563,5,10,0:2:0:0:
361,253,33719,1,2,3:2:0:0:
233,146,33875,5,2,3:2:0:0:
190,291,34031,1,0,3:2:0:0:
166,125,34188,6,0,L|182:213,1,72.2500013780594,4|0,3:2|0:2,0:0:0:0:
319,296,34500,2,0,L|326:220,1,72.2500013780594,2|0,3:2|0:2,0:0:0:0:
276,361,34813,2,0,P|307:381|345:384,1,72.2500013780594,2|0,3:2|0:2,0:0:0:0:
185,229,35125,2,0,P|149:232|119:252,1,72.2500013780594,2|0,3:2|0:2,0:0:0:0:
356,362,35438,6,0,P|363:281|371:212,1,144.500002756119,2|0,3:2|3:2,0:0:0:0:
279,76,35906,2,0,B|182:77|227:127|128:128,1,144.500002756119,2|0,0:2|0:2,0:0:0:0:
350,0,36375,2,0,P|357:24|362:71,1,72.2500013780594,2|0,3:2|0:2,0:0:0:0:
181,14,36688,6,0,P|139:17|103:47,1,76.4999976654053,0|0,3:2|0:2,0:0:0:0:
272,190,37000,2,0,P|309:188|341:168,1,76.4999976654053,2|0,3:2|0:2,0:0:0:0:
302,15,37313,2,0,P|282:55|275:97,1,76.4999976654053,2|0,3:2|0:2,0:0:0:0:
164,232,37625,1,2,3:2:0:0:
103,119,37781,1,2,0:2:0:0:
282,252,37938,6,0,P|322:233|371:231,1,76.4999976654053,2|0,3:2|0:2,0:0:0:0:
217,364,38250,2,0,P|179:358|145:341,1,76.4999976654053,2|0,3:2|0:2,0:0:0:0:
337,308,38563,2,0,L|330:395,1,76.4999976654053,2|0,3:2|0:2,0:0:0:0:
160,200,38875,6,0,B|247:208|227:162|311:169,1,152.999995330811,2|0,3:2|3:2,0:0:0:0:
476,99,39344,1,0,0:2:0:0:
343,203,39500,2,0,L|357:112,1,80.7499978437424,2|0,3:2|0:2,0:0:0:0:
464,20,39813,2,0,L|476:99,1,80.7499978437424,2|0,3:2|0:2,0:0:0:0:
295,20,40125,2,0,P|336:5|383:22,1,80.7499978437424,2|0,3:2|0:2,0:0:0:0:
512,215,40438,6,0,P|503:170|396:161,1,161.499995687485,2|0,3:2|3:2,0:0:0:0:
333,302,40906,2,0,P|194:323|158:335,1,161.499995687485,2|0,0:2|0:2,0:0:0:0:
303,164,41375,2,0,P|241:154|207:147,1,80.7499978437424,2|0,3:2|0:2,0:0:0:0:
27,276,41688,5,10,0:2:0:0:
93,147,41844,1,10,0:2:0:0:
221,211,42000,1,10,0:2:0:0:
169,345,42156,1,10,0:2:0:0:
444,159,42625,5,10,0:2:0:0:
321,235,42781,1,10,0:2:0:0:
234,121,42938,1,10,0:2:0:0:
350,34,43094,1,10,0:2:0:0:
227,219,43563,6,0,B|117:231|183:161|72:169,1,170,2|2,0:0|0:0,0:0:0:0:
22,61,44031,1,2,0:0:0:0:
256,192,44188,12,0,46531,0:0:0:0:
372,367,46688,5,2,0:2:0:0:
372,367,46844,2,0,P|375:339|382:322,1,38.2499988327027,2|0,0:2|0:2,0:0:0:0:
478,292,47156,6,0,B|356:269|404:376|264:328,1,203.999993774414,6|0,3:2|3:2,0:0:0:0:
242,167,47625,2,0,P|285:178|301:253,1,101.999996887207,10|0,0:2|0:2,0:0:0:0:
149,374,47938,2,0,P|138:320|130:262,1,101.999996887207,2|0,3:2|3:2,0:0:0:0:
252,295,48250,1,10,0:2:0:0:
13,275,48406,6,0,P|24:221|32:163,1,101.999996887207,2|0,3:2|0:2,0:0:0:0:
185,9,48719,2,0,P|234:31|207:170,1,203.999993774414,2|0,3:2|0:2,0:0:0:0:
146,112,49188,1,0,3:2:0:0:
337,157,49344,1,2,3:2:0:0:
182,280,49500,1,8,0:2:0:0:
32,114,49656,6,0,P|52:226|58:337,1,203.999993774414,6|2,3:2|3:2,0:0:0:0:
313,195,50125,1,10,0:2:0:0:
163,154,50281,1,2,0:2:0:0:
214,352,50438,2,0,P|262:378|321:367,1,101.999996887207,2|0,3:2|3:2,0:0:0:0:
308,166,50750,1,10,0:2:0:0:
128,241,50906,6,0,P|81:223|52:181,1,101.999996887207,2|0,3:2|0:2,0:0:0:0:
234,78,51219,1,2,3:2:0:0:
236,256,51375,1,8,0:2:0:0:
50,104,51531,2,0,P|42:54|63:8,1,101.999996887207,2|0,0:2|3:0,0:0:0:0:
247,43,51844,1,2,3:2:0:0:
144,166,52000,6,0,B|245:158|191:65|327:75,1,178.499994552612,10|0,0:2|0:2,0:0:0:0:
375,63,52313,2,0,P|363:120|352:178,1,101.999996887207,4|0,3:2|0:2,0:0:0:0:
506,310,52625,2,0,P|496:259|485:210,1,101.999996887207,10|0,0:2|0:2,0:0:0:0:
284,268,52938,2,0,P|344:297|387:269,1,101.999996887207,2|0,3:2|3:2,0:0:0:0:
462,131,53250,1,8,0:2:0:0:
238,366,53406,6,0,P|137:341|26:333,1,203.999993774414,2|2,0:2|0:2,0:0:0:0:
154,155,53875,2,0,P|197:166|213:241,1,101.999996887207,10|0,0:2|0:2,0:0:0:0:
23,307,54188,2,0,P|14:252|6:203,1,101.999996887207,2|0,3:2|0:2,0:0:0:0:
220,101,54500,2,0,P|211:151|203:201,1,101.999996887207,10|0,0:2|0:2,0:0:0:0:
4,51,54813,6,0,P|62:26|120:47,1,101.999996887207,2|0,3:2|0:0,0:0:0:0:
108,245,55125,1,10,0:2:0:0:
62,105,55281,1,2,0:2:0:0:
211,72,55438,1,0,3:2:0:0:
211,72,55594,2,0,L|186:174,1,101.999996887207,2|8,0:2|0:2,0:0:0:0:
0,268,55906,6,0,P|44:244|95:258,1,101.999996887207,2|0,0:2|3:0,0:0:0:0:
254,364,56219,1,2,0:2:0:0:
254,364,56375,2,0,L|274:264,1,101.999996887207,10|0,0:2|0:2,0:0:0:0:
403,130,56688,5,10,0:2:0:0:
411,115,56766,1,8,0:2:0:0:
398,95,56844,5,8,0:2:0:0:
369,75,56922,1,8,0:2:0:0:
328,80,57000,1,8,0:2:0:0:
302,111,57078,1,8,0:2:0:0:
277,149,57156,6,0,B|152:143|227:69|79:70,1,203.999993774414,4|0,3:2|3:2,0:0:0:0:
398,95,57625,2,0,P|438:133|442:185,1,101.999996887207,10|0,0:2|0:2,0:0:0:0:
162,368,57938,2,0,L|152:250,1,101.999996887207,2|0,3:2|3:2,0:0:0:0:
360,158,58250,1,10,0:2:0:0:
360,158,58406,6,0,L|345:260,1,101.999996887207,2|0,3:2|0:2,0:0:0:0:
455,383,58719,2,0,B|319:393|382:311|244:332,1,203.999993774414,2|0,3:2|0:0,0:0:0:0:
61,384,59188,1,0,3:2:0:0:
237,309,59344,1,2,3:2:0:0:
39,227,59500,1,8,0:2:0:0:
158,383,59656,6,0,P|141:213|130:165,1,203.999993774414,6|2,3:2|3:2,0:0:0:0:
358,43,60125,1,8,0:2:0:0:
289,185,60281,1,2,0:2:0:0:
159,1,60438,2,0,L|181:121,1,101.999996887207,2|0,3:2|3:2,0:0:0:0:
305,217,60750,5,10,0:2:0:0:
75,182,60906,2,0,L|58:282,1,101.999996887207,2|0,3:2|0:2,0:0:0:0:
267,109,61219,2,0,P|317:107|363:138,1,101.999996887207,2|8,3:2|0:2,0:0:0:0:
167,363,61531,2,0,P|145:312|274:266,1,203.999993774414,2|2,0:2|3:2,0:0:0:0:
394,383,62000,2,0,B|377:283|435:333|440:189,1,178.499994552612,10|0,0:2|0:2,0:0:0:0:
458,149,62313,6,0,P|396:156|352:130,1,101.999996887207,4|0,3:2|0:2,0:0:0:0:
113,80,62625,2,0,P|161:64|212:64,1,101.999996887207,10|0,0:2|0:2,0:0:0:0:
29,329,62938,2,0,P|-15:290|63:194,1,203.999993774414,2|10,3:2|0:2,0:0:0:0:
241,325,63406,6,0,B|371:307|335:393|449:368,1,203.999993774414,2|2,0:2|0:2,0:0:0:0:
336,138,63875,2,0,P|292:149|277:224,1,101.999996887207,10|0,0:2|0:2,0:0:0:0:
467,290,64188,2,0,P|476:235|484:186,1,101.999996887207,2|0,3:2|0:2,0:0:0:0:
270,84,64500,2,0,P|279:134|287:184,1,101.999996887207,10|2,0:2|0:2,0:0:0:0:
486,34,64813,6,0,P|428:9|370:30,1,101.999996887207,2|0,3:2|0:0,0:0:0:0:
354,227,65125,1,10,0:2:0:0:
451,108,65281,1,2,0:2:0:0:
279,55,65438,1,0,3:2:0:0:
279,55,65594,2,0,L|299:163,1,101.999996887207,2|8,0:2|0:2,0:0:0:0:
487,251,65906,6,0,P|443:227|392:241,1,101.999996887207,2|0,0:2|3:0,0:0:0:0:
226,328,66219,1,2,0:2:0:0:
226,328,66375,2,0,L|206:228,1,101.999996887207,10|0,0:2|0:2,0:0:0:0:
400,233,66688,5,10,0:2:0:0:
428,262,66766,1,8,0:2:0:0:
429,298,66844,1,8,0:2:0:0:
411,323,66922,1,8,0:2:0:0:
373,338,67000,2,0,L|319:323,3,50.9999984436036,8|8|8|8,0:2|0:2|0:2|0:2,0:0:0:0:
200,370,67313,6,0,P|191:243|176:162,1,203.999993774414,6|10,3:2|0:2,0:0:0:0:
230,0,67781,2,0,P|280:3|318:36,1,101.999996887207,2|0,0:2|3:2,0:0:0:0:
304,237,68094,1,2,3:2:0:0:
454,156,68250,1,8,0:2:0:0:
234,107,68406,6,0,L|216:223,1,101.999996887207,2|0,0:2|3:2,0:0:0:0:
430,337,68719,2,0,L|414:236,1,101.999996887207,2|8,0:2|0:2,0:0:0:0:
270,25,69031,2,0,P|227:12|153:146,1,203.999993774414,2|0,0:2|3:2,0:0:0:0:
365,171,69500,2,0,L|387:67,1,101.999996887207,8|0,0:2|0:2,0:0:0:0:
255,160,69813,5,6,3:2:0:0:
376,290,69969,1,2,0:2:0:0:
214,319,70125,1,10,0:2:0:0:
454,172,70281,2,0,P|442:240|427:392,1,203.999993774414,2|2,0:2|3:2,0:0:0:0:
242,146,70750,1,8,0:2:0:0:
242,146,70906,2,0,L|258:271,1,101.999996887207,2|0,0:2|3:2,0:0:0:0:
116,210,71219,5,2,0:2:0:0:
243,295,71375,1,10,0:2:0:0:
52,362,71531,2,0,P|37:250|18:160,1,203.999993774414,2|0,0:2|3:2,0:0:0:0:
245,61,72000,2,0,P|225:116|211:183,1,101.999996887207,8|2,0:2|0:2,0:0:0:0:
443,185,72313,5,14,0:2:0:0:
231,316,72469,1,2,3:2:0:0:
452,226,72625,5,10,0:2:0:0:
214,158,72781,1,2,3:2:0:0:
351,368,72938,5,8,0:2:0:0:
402,132,73094,1,2,3:2:0:0:
240,233,73250,5,8,0:2:0:0:
468,363,73406,1,2,3:2:0:0:
383,145,73563,6,0,L|360:268,1,101.999996887207,8|2,0:2|3:2,0:0:0:0:
176,378,73875,2,0,L|154:278,1,101.999996887207,8|2,0:2|3:2,0:0:0:0:
357,136,74188,6,0,L|334:259,1,101.999996887207,8|2,0:2|3:2,0:0:0:0:
159,371,74500,2,0,L|137:271,1,101.999996887207,8|2,0:2|3:2,0:0:0:0:
63,114,74813,5,8,0:2:0:0:
276,178,74969,1,2,3:2:0:0:
42,295,75125,5,10,0:2:0:0:
293,214,75281,1,0,3:2:0:0:
51,104,75438,6,0,L|37:218,1,101.999996887207,10|0,0:2|3:2,0:0:0:0:
255,364,75750,5,10,0:2:0:0:
330,150,75906,1,2,3:2:0:0:
158,306,76063,5,8,0:2:0:0:
140,101,76219,1,2,3:2:0:0:
341,283,76375,6,0,L|327:388,1,101.999996887207,10|0,0:2|3:2,0:0:0:0:
449,248,76688,1,10,0:2:0:0:
461,213,76766,1,8,0:2:0:0:
454,179,76844,1,8,0:2:0:0:
431,149,76922,1,8,0:2:0:0:
421,114,77000,1,8,0:2:0:0:
429,77,77078,1,8,0:2:0:0:
452,56,77156,6,0,P|357:42|272:37,1,170,4|2,3:2|3:2,0:0:0:0:
309,273,77625,1,10,0:2:0:0:
179,196,77781,1,2,0:2:0:0:
305,125,77938,1,0,3:2:0:0:
249,351,78094,6,0,L|261:266,1,85,2|8,3:2|0:2,0:0:0:0:
153,36,78406,2,0,P|161:77|167:119,1,85,2|0,3:2|0:2,0:0:0:0:
69,351,78719,2,0,L|81:266,1,85,2|8,3:2|0:2,0:0:0:0:
265,68,79031,2,0,P|256:109|250:151,1,85,2|0,0:2|3:2,0:0:0:0:
61,115,79344,1,2,3:2:0:0:
169,228,79500,1,8,0:2:0:0:
43,87,79656,6,0,P|69:49|195:45,1,170,4|2,3:2|3:2,0:0:0:0:
244,266,80125,1,10,0:2:0:0:
138,138,80281,1,2,0:2:0:0:
278,95,80438,1,0,3:2:0:0:
169,228,80594,2,0,L|147:318,1,85,2|8,3:2|0:2,0:0:0:0:
365,257,80906,2,0,L|361:173,1,85,2|0,3:2|0:2,0:0:0:0:
247,221,81219,5,2,3:2:0:0:
348,371,81375,2,0,P|300:352|255:365,1,85,10|2,0:2|0:2,0:0:0:0:
108,202,81688,1,2,3:2:0:0:
247,221,81844,1,2,3:2:0:0:
111,338,82000,1,10,0:2:0:0:
280,315,82156,6,0,P|302:187|310:138,1,170,6|2,3:2|3:2,0:0:0:0:
92,167,82625,1,10,0:2:0:0:
198,98,82781,1,2,0:2:0:0:
205,239,82938,1,0,3:2:0:0:
18,95,83094,2,0,P|59:88|102:82,1,85,2|8,3:2|0:2,0:0:0:0:
316,185,83406,2,0,P|266:179|222:171,1,85,2|0,3:2|0:2,0:0:0:0:
32,282,83719,6,0,P|18:326|9:366,1,85,2|8,3:2|0:2,0:0:0:0:
186,232,84031,2,0,P|199:276|209:316,1,85,2|0,0:2|3:2,0:0:0:0:
80,92,84344,2,0,P|66:136|57:176,1,85,2|8,3:2|0:2,0:0:0:0:
341,20,84656,6,0,P|421:73|428:170,1,170,4|2,3:2|3:2,0:0:0:0:
248,314,85125,1,10,0:2:0:0:
343,167,85281,1,2,0:2:0:0:
436,294,85438,1,0,3:2:0:0:
213,211,85594,2,0,L|202:114,1,85,2|8,3:2|0:2,0:0:0:0:
427,135,85906,6,0,L|412:219,1,85,2|0,0:2|3:2,0:0:0:0:
318,94,86219,1,0,3:2:0:0:
318,94,86375,2,0,L|329:9,1,85,8|0,0:2|0:2,0:0:0:0:
219,166,86688,6,0,L|177:175,1,42.5,0|0,3:2|3:2,0:0:0:0:
350,211,86844,2,0,L|398:221,1,42.5,0|8,3:2|0:2,0:0:0:0:
239,188,87000,6,0,L|192:197,1,42.5,10|8,3:2|3:2,0:0:0:0:
340,234,87156,2,0,L|388:244,1,42.5,10|0,3:2|3:2,0:0:0:0:
