osu file format v14

[General]
AudioFilename: audio.mp3
AudioLeadIn: 0
PreviewTime: 46561
Countdown: 0
SampleSet: Soft
StackLeniency: 0.4
Mode: 0
LetterboxInBreaks: 0
WidescreenStoryboard: 1

[Editor]
DistanceSpacing: 1
BeatDivisor: 4
GridSize: 4
TimelineZoom: 1.38

[Metadata]
Title:SAVIOR OF SONG (TV Size)
TitleUnicode:SAVIOR OF SONG (TV Size)
Artist:nano feat. MY FIRST STORY
ArtistUnicode:ナノ feat. MY FIRST STORY
Creator:PikAqours
Version:HANTRIK'S NORMAL
Source:蒼き鋼のアルペジオ -アルス・ノヴァ-
Tags:anime japanese rock j-rock opening aoki hagane no arpeggio of blue steel ars - Liban - TheSea Hantrik Kaguya_Sama Kaguya Sama Mnyui Respirte Resp nova
BeatmapID:2180738
BeatmapSetID:1040690

[Difficulty]
HPDrainRate:3
CircleSize:3.2
OverallDifficulty:4
ApproachRate:5
SliderMultiplier:1
SliderTickRate:1

[Events]
//Background and Video events
0,0,"bg.png",0,0
//Break Periods
2,9231,10331
2,21888,22988
2,44231,45956
//Storyboard Layer 0 (Background)
//Storyboard Layer 1 (Fail)
//Storyboard Layer 2 (Pass)
//Storyboard Layer 3 (Foreground)
//Storyboard Layer 4 (Overlay)
//Storyboard Sound Samples

[TimingPoints]
1688,312.5,4,2,1,40,1,0
1688,-100,4,2,1,40,0,0
2938,-100,4,2,1,40,0,0
3094,-100,4,2,1,40,0,0
3250,-100,4,2,1,40,0,0
3406,-100,4,2,1,40,0,0
3641,-100,4,2,1,40,0,0
3719,-100,4,2,1,40,0,0
5438,-100,4,2,1,40,0,0
5594,-100,4,2,1,40,0,0
5750,-100,4,2,1,40,0,0
5906,-100,4,2,1,40,0,0
6219,-100,4,2,1,40,0,0
6531,-100,4,2,1,40,0,0
8250,-100,4,2,1,40,0,0
8406,-100,4,2,1,40,0,0
8563,-100,4,2,1,40,0,0
8719,-100,4,2,1,40,0,0
8875,-100,4,2,1,40,0,0
11063,-100,4,2,1,70,0,0
11531,-100,4,2,1,70,0,0
21688,-100,4,2,1,40,0,0
23875,-100,4,2,1,40,0,0
24109,-100,4,2,1,40,0,0
24188,-100,4,2,1,50,0,0
24656,-100,4,2,1,50,0,0
26375,-100,4,2,1,50,0,0
26609,-100,4,2,1,50,0,0
26688,-100,4,2,1,50,0,0
29188,-100,4,2,1,50,0,0
29422,-100,4,2,1,50,0,0
29500,-100,4,2,1,50,0,0
33406,-100,4,2,1,50,0,0
33563,-100,4,2,1,60,0,0
34188,-100,4,2,1,65,0,0
36688,-100,4,2,1,65,0,0
39188,-100,4,2,1,65,0,0
41688,-100,4,2,1,70,0,0
43563,-100,4,2,1,50,0,0
44188,-100,4,2,1,40,0,0
46688,-100,4,2,1,40,0,0
47078,-100,4,2,1,5,0,0
47156,-100,4,2,1,85,0,1
47313,312.5,4,2,1,85,1,1
47624,-100,4,2,1,85,0,1
51765,-100,4,2,1,85,0,1
51843,-100,4,2,1,85,0,1
52233,-100,4,2,1,5,0,1
52312,-100,4,2,1,85,0,1
53171,-100,4,2,1,85,0,1
53249,-100,4,2,1,85,0,1
55046,-100,4,2,1,5,0,1
55124,-100,4,2,1,85,0,1
56140,-100,4,2,1,5,0,1
56218,-100,4,2,1,85,0,1
57078,-100,4,2,1,85,0,0
57156,-100,4,2,1,85,0,1
59890,-100,4,2,1,5,0,1
59968,-100,4,2,1,85,0,1
61765,-100,4,2,1,5,0,1
61843,-100,4,2,1,85,0,1
62233,-100,4,2,1,5,0,1
62312,-100,4,2,1,85,0,1
63171,-100,4,2,1,5,0,1
63249,-100,4,2,1,85,0,1
63640,-100,4,2,1,5,0,1
63718,-100,4,2,1,85,0,1
65046,-100,4,2,1,5,0,1
65124,-100,4,2,1,85,0,1
66140,-100,4,2,1,5,0,1
66218,-100,4,2,1,85,0,1
67234,-100,4,2,1,85,0,0
67313,-100,4,2,1,85,0,1
77155,-100,4,2,1,85,0,1
77156,-100,4,2,1,70,0,0

[Colours]
Combo1 : 253,165,142
Combo2 : 151,28,71
Combo3 : 65,164,213
Combo4 : 19,56,108

[HitObjects]
68,22,1688,6,0,L|59:124,1,100,2|2,0:2|0:2,0:0:0:0:
97,214,2313,2,0,P|141:235|211:217,1,100,2|2,0:2|0:2,0:0:0:0:
225,193,2781,2,0,P|269:172|339:190,1,100,2|2,0:2|0:2,0:0:0:0:
408,222,3406,1,2,0:2:0:0:
462,138,3719,1,2,0:2:0:0:
402,58,4031,6,0,P|356:69|305:123,1,100,2|2,0:2|0:2,0:0:0:0:
286,142,4500,1,2,0:2:0:0:
191,108,4813,2,0,L|80:136,1,100,2|2,0:2|0:2,0:0:0:0:
61,170,5281,1,2,0:2:0:0:
1,250,5594,1,2,0:2:0:0:
65,325,5906,1,2,0:2:0:0:
206,183,6531,6,0,B|256:161|256:161|307:179,1,100,2|2,0:2|0:2,0:0:0:0:
330,215,7000,1,2,0:2:0:0:
428,198,7313,2,0,L|441:82,1,100,2|2,0:2|0:2,0:0:0:0:
413,62,7781,1,2,0:2:0:0:
413,62,7938,2,0,P|375:46|345:46,1,50,2|2,0:2|0:2,0:0:0:0:
272,77,8406,1,2,0:2:0:0:
177,44,8719,1,2,0:2:0:0:
98,106,9031,1,2,0:2:0:0:
241,328,11531,6,0,P|271:300|348:302,1,100,6|2,3:2|3:2,0:0:0:0:
377,302,12000,1,8,0:2:0:0:
467,258,12313,2,0,L|474:307,2,50,0|2|8,3:2|3:2|0:2,0:0:0:0:
489,213,12781,2,0,L|496:104,1,100,2|2,3:2|3:2,0:0:0:0:
425,41,13406,2,0,P|363:11|314:24,1,100,2|2,0:2|3:2,0:0:0:0:
239,46,14031,6,0,P|214:106|208:161,1,100,6|2,3:2|3:2,0:0:0:0:
218,189,14500,1,10,0:2:0:0:
207,288,14813,2,0,P|238:295|262:297,2,50,0|2|8,3:2|3:2|0:2,0:0:0:0:
166,258,15281,2,0,P|122:244|61:257,1,100,2|2,3:2|3:2,0:0:0:0:
40,293,15750,1,10,0:2:0:0:
121,351,16063,2,0,P|161:358|188:354,1,50,2|2,3:2|3:2,0:0:0:0:
218,346,16375,1,10,0:2:0:0:
218,346,16531,6,0,L|338:361,1,100,6|2,3:2|3:2,0:0:0:0:
365,344,17000,1,10,0:2:0:0:
450,291,17313,2,0,L|459:340,2,50,0|2|8,3:2|3:2|0:2,0:0:0:0:
427,246,17781,2,0,P|394:212|331:210,1,100,2|2,3:2|3:2,0:0:0:0:
245,225,18406,2,0,L|222:105,1,100,2|2,0:2|3:2,0:0:0:0:
167,45,19031,6,0,P|106:32|54:59,1,100,6|2,3:2|3:2,0:0:0:0:
37,80,19500,1,10,0:2:0:0:
87,166,19813,2,0,P|50:185|24:183,2,50,0|2|8,3:2|3:2|0:2,0:0:0:0:
129,139,20281,2,0,L|241:162,1,100,2|0,3:2|3:2,0:0:0:0:
267,189,20750,1,8,0:2:0:0:
337,118,21063,2,0,L|402:105,1,50,0|0,3:2|3:2,0:0:0:0:
434,120,21375,2,0,L|458:187,1,50,8|8,0:2|0:2,0:0:0:0:
459,216,21688,5,2,0:2:0:0:
61,27,24188,6,0,B|92:114|41:93|74:189,1,150,6|2,3:2|0:2,0:0:0:0:
185,268,25125,2,0,P|221:257|251:257,1,50,2|0,0:2|0:0,0:0:0:0:
283,259,25438,2,0,P|274:182|271:99,1,150,0|0,0:2|0:2,0:0:0:0:
387,14,26375,1,2,0:2:0:0:
466,74,26688,6,0,P|447:116|345:136,1,150,2|2,0:2|0:2,0:0:0:0:
235,46,27625,1,2,0:2:0:0:
135,55,27938,2,0,B|102:105|102:105|144:193,1,150,0|0,0:2|0:2,0:0:0:0:
281,239,28875,1,2,0:2:0:0:
245,332,29188,6,0,B|194:351|116:356|97:288|175:262,1,200,0|2,0:2|0:2,0:0:0:0:
260,214,30125,1,2,0:2:0:0:
281,116,30438,2,0,P|229:80|175:84,1,100,2|2,0:2|0:2,0:0:0:0:
157,112,30906,1,0,0:0:0:0:
8,88,31375,1,2,0:2:0:0:
25,186,31688,6,0,P|16:229|12:293,1,100,2|0,0:2|0:2,0:0:0:0:
25,332,32156,1,2,0:2:0:0:
149,247,32625,1,2,0:2:0:0:
229,306,32938,2,0,P|272:325|368:284,1,150,0|0,0:2|0:2,0:0:0:0:
383,244,33563,2,0,L|376:183,1,50,10|2,0:2|3:2,0:0:0:0:
406,154,33875,2,0,L|413:93,1,50,2|0,3:2|3:2,0:0:0:0:
394,57,34188,5,4,3:2:0:0:
299,89,34500,2,0,P|259:106|197:83,1,100,2|2,3:2|3:2,0:0:0:0:
108,70,35125,2,0,P|95:103|91:122,1,50,2|0,3:2|0:2,0:0:0:0:
104,165,35438,2,0,P|115:213|120:285,1,100,2|0,3:2|3:2,0:0:0:0:
151,301,35906,1,2,0:2:0:0:
151,301,36063,2,0,P|182:283|257:281,1,100,0|2,3:0|3:2,0:0:0:0:
339,310,36688,5,0,3:2:0:0:
412,242,37000,2,0,L|424:119,1,100,2|2,3:2|3:2,0:0:0:0:
356,66,37625,2,0,L|293:55,1,50,2|2,3:2|0:2,0:0:0:0:
260,38,37938,2,0,L|159:52,1,100,2|2,3:2|3:2,0:0:0:0:
130,147,38563,2,0,L|236:158,1,100,2|2,3:2|3:2,0:0:0:0:
315,208,39188,5,0,3:2:0:0:
296,306,39500,2,0,P|348:308|385:277,1,100,2|2,3:2|3:2,0:0:0:0:
435,193,40125,1,2,3:2:0:0:
388,104,40438,2,0,L|284:78,1,100,2|0,3:2|3:2,0:0:0:0:
202,126,41063,1,0,3:0:0:0:
134,52,41375,2,0,L|82:56,1,50,2|0,3:2|0:2,0:0:0:0:
33,53,41688,6,0,P|28:28|20:4,2,50,10|10|10,0:2|0:2|0:2,0:0:0:0:
20,101,42156,1,10,0:2:0:0:
143,186,42625,2,0,P|147:161|155:137,2,50,10|10|10,0:2|0:2|0:2,0:0:0:0:
156,234,43094,1,10,0:2:0:0:
57,347,43563,6,0,P|117:370|168:358,1,100,2|2,0:0|0:0,0:0:0:0:
192,339,44031,1,2,0:0:0:0:
58,164,47156,6,0,P|46:220|45:270,1,100,6|0,3:2|3:2,0:0:0:0:
67,307,47625,1,10,0:2:0:0:
167,310,47938,2,0,P|203:321|228:324,1,50,2|0,3:2|3:2,0:0:0:0:
262,301,48250,1,10,0:2:0:0:
262,301,48406,2,0,B|254:234|278:255|273:186,1,100,2|2,3:2|3:2,0:0:0:0:
257,155,48875,1,8,0:0:0:0:
330,85,49188,2,0,P|370:101|379:113,1,50,0|2,3:2|3:2,0:0:0:0:
400,147,49500,1,8,0:2:0:0:
400,147,49656,6,0,L|411:252,1,100,6|2,3:2|3:2,0:0:0:0:
384,289,50125,2,0,L|325:303,1,50,10|2,0:2|0:2,0:0:0:0:
288,282,50438,2,0,B|261:263|261:263|185:282,1,100,2|10,3:2|0:2,0:0:0:0:
152,304,50906,2,0,L|53:285,1,100,2|2,3:2|3:2,0:0:0:0:
56,185,51531,2,0,L|154:163,1,100,2|2,0:2|3:2,0:0:0:0:
203,169,52000,1,10,0:2:0:0:
168,75,52313,5,4,3:2:0:0:
240,6,52625,1,10,0:2:0:0:
338,26,52938,2,0,L|361:142,1,100,2|8,3:2|0:2,0:0:0:0:
351,173,53406,2,0,P|324:159|245:177,1,100,2|2,0:2|0:2,0:0:0:0:
225,206,53875,1,10,0:2:0:0:
184,297,54188,1,2,3:2:0:0:
84,292,54500,1,10,0:2:0:0:
38,202,54813,6,0,L|22:91,1,100,2|10,3:2|0:2,0:0:0:0:
45,58,55281,2,0,P|74:46|95:44,1,50,2|0,0:2|3:2,0:0:0:0:
142,50,55594,2,0,P|171:62|192:64,1,50,2|8,0:2|0:2,0:0:0:0:
238,56,55906,2,0,B|265:79|265:79|252:150,1,100,2|2,0:2|0:2,0:0:0:0:
237,190,56375,1,10,0:2:0:0:
292,273,56688,2,0,P|327:259|355:254,1,50,10|8,0:2|0:2,0:0:0:0:
388,244,57000,1,8,0:2:0:0:
388,244,57156,6,0,L|402:127,1,100,4|0,3:2|3:2,0:0:0:0:
427,102,57625,1,10,0:2:0:0:
347,40,57938,2,0,P|307:29|248:50,1,100,2|10,3:2|0:2,0:0:0:0:
216,81,58406,2,0,L|202:192,1,100,2|2,3:2|3:2,0:0:0:0:
223,226,58875,1,8,0:0:0:0:
174,313,59188,2,0,P|221:325|239:320,1,50,0|2,3:2|3:2,0:0:0:0:
267,305,59500,1,8,0:2:0:0:
267,305,59656,6,0,P|308:285|378:296,1,100,6|2,3:2|3:2,0:0:0:0:
406,310,60125,2,0,P|440:328|461:328,1,50,8|2,0:2|0:2,0:0:0:0:
498,311,60438,2,0,L|513:209,1,100,2|10,3:2|0:2,0:0:0:0:
487,168,60906,2,0,B|436:155|456:139|392:127,1,100,2|2,3:2|3:2,0:0:0:0:
296,136,61531,2,0,P|260:158|188:157,1,100,2|2,0:2|3:2,0:0:0:0:
158,138,62000,1,10,0:2:0:0:
64,174,62313,5,4,3:2:0:0:
30,268,62625,1,10,0:2:0:0:
97,342,62938,1,2,3:2:0:0:
199,332,63250,1,10,0:2:0:0:
199,332,63406,2,0,P|244:311|293:328,1,100,2|2,0:2|0:2,0:0:0:0:
331,353,63875,1,10,0:2:0:0:
431,356,64188,1,2,3:2:0:0:
488,274,64500,2,0,L|477:218,1,50,10|2,0:2|0:2,0:0:0:0:
492,176,64813,6,0,L|500:72,1,100,2|10,3:2|0:2,0:0:0:0:
461,44,65281,2,0,P|419:55|398:53,1,50,2|0,0:2|3:2,0:0:0:0:
368,30,65594,1,2,0:2:0:0:
268,19,65906,2,0,P|251:74|246:131,1,100,2|2,0:2|0:2,0:0:0:0:
252,165,66375,1,10,0:2:0:0:
165,114,66688,1,10,0:2:0:0:
85,175,67000,1,8,0:2:0:0:
103,273,67313,6,0,P|137:278|196:317,1,100,6|10,3:2|0:2,0:0:0:0:
222,351,67781,1,2,0:2:0:0:
299,287,68094,2,0,P|339:283|358:288,1,50,2|8,3:2|0:2,0:0:0:0:
395,300,68406,2,0,L|383:187,1,100,2|2,0:2|0:2,0:0:0:0:
294,157,69031,2,0,L|283:256,1,100,2|0,0:2|3:2,0:0:0:0:
245,289,69500,1,8,0:2:0:0:
157,240,69813,6,0,P|124:230|106:232,1,50,6|2,3:2|0:2,0:0:0:0:
63,243,70125,1,10,0:2:0:0:
63,243,70281,2,0,L|48:127,1,100,2|2,0:2|3:2,0:0:0:0:
108,62,70906,2,0,P|159:44|219:59,1,100,2|2,0:2|0:2,0:0:0:0:
241,84,71375,2,0,P|266:103|290:108,1,50,10|2,0:2|0:2,0:0:0:0:
329,86,71688,1,0,3:2:0:0:
423,54,72000,1,8,0:2:0:0:
496,121,72313,6,0,P|481:169|472:227,1,100,14|10,0:2|0:2,0:0:0:0:
473,318,72938,1,8,0:2:0:0:
382,274,73250,1,8,0:2:0:0:
289,311,73563,6,0,P|252:321|184:297,1,100,8|8,0:2|0:2,0:0:0:0:
133,225,74188,1,8,0:2:0:0:
142,125,74500,1,8,0:2:0:0:
235,88,74813,6,0,B|299:98|268:118|340:137,1,100,8|10,0:2|0:2,0:0:0:0:
422,120,75438,1,10,0:2:0:0:
460,28,75750,1,10,0:2:0:0:
360,20,76063,6,0,L|247:65,1,100,8|10,0:2|0:2,0:0:0:0:
180,106,76688,2,0,L|196:174,1,50,10|8,0:2|0:2,0:0:0:0:
229,187,77000,1,8,0:2:0:0:
229,187,77156,6,0,L|217:292,1,100,4|2,3:2|3:2,0:0:0:0:
243,329,77625,1,10,0:2:0:0:
337,296,77938,2,0,P|349:335|353:359,2,50,0|2|8,3:2|3:2|0:2,0:0:0:0:
360,251,78406,2,0,P|360:207|365:142,1,100,2|2,3:2|3:2,0:0:0:0:
318,62,79031,2,0,P|276:41|211:42,1,100,2|2,0:2|3:2,0:0:0:0:
134,85,79656,6,0,P|102:151|93:196,1,100,4|2,3:2|3:2,0:0:0:0:
98,226,80125,1,10,0:2:0:0:
103,326,80438,2,0,P|63:329|44:322,2,50,0|2|8,3:2|3:2|0:2,0:0:0:0:
146,301,80906,2,0,P|191:286|252:305,1,100,2|2,3:2|3:2,0:0:0:0:
274,334,81375,1,10,0:2:0:0:
349,268,81688,2,0,P|378:260|407:261,1,50,2|2,3:2|3:2,0:0:0:0:
444,271,82000,1,10,0:2:0:0:
444,271,82156,6,0,L|452:157,1,100,6|2,3:2|3:2,0:0:0:0:
478,129,82625,1,10,0:2:0:0:
417,48,82938,2,0,P|455:38|481:38,2,50,0|2|8,3:2|3:2|0:2,0:0:0:0:
374,74,83406,2,0,P|337:90|272:88,1,100,2|2,3:2|3:2,0:0:0:0:
189,136,84031,2,0,P|210:180|226:244,1,100,2|2,0:2|3:2,0:0:0:0:
208,277,84500,1,8,0:2:0:0:
208,277,84656,6,0,B|171:312|171:312|108:297,1,100,4|2,3:2|3:2,0:0:0:0:
84,268,85125,1,10,0:2:0:0:
111,171,85438,2,0,P|80:166|52:172,2,50,0|2|8,3:2|3:2|0:2,0:0:0:0:
158,199,85906,1,2,0:2:0:0:
158,199,86063,2,0,P|196:210|219:209,1,50,0|0,3:2|3:2,0:0:0:0:
245,178,86375,2,0,P|283:167|306:168,1,50,8|0,0:2|0:2,0:0:0:0:
336,191,86688,2,0,B|303:88|366:120|333:12,1,175,0|0,3:2|3:2,0:0:0:0:
