osu file format v14

[General]
AudioFilename: audio.mp3
AudioLeadIn: 0
PreviewTime: 46561
Countdown: 0
SampleSet: Soft
StackLeniency: 0.7
Mode: 0
LetterboxInBreaks: 0
WidescreenStoryboard: 1

[Editor]
DistanceSpacing: 1.3
BeatDivisor: 4
GridSize: 4
TimelineZoom: 3.211999

[Metadata]
Title:SAVIOR OF SONG (TV Size)
TitleUnicode:SAVIOR OF SONG (TV Size)
Artist:nano feat. MY FIRST STORY
ArtistUnicode:ナノ feat. MY FIRST STORY
Creator:PikAqours
Version:BITTER END
Source:蒼き鋼のアルペジオ -アルス・ノヴァ-
Tags:anime japanese rock j-rock opening aoki hagane no arpeggio of blue steel ars - Liban - TheSea Hantrik Kaguya_Sama Kaguya Sama Mnyui Respirte Resp nova
BeatmapID:2176825
BeatmapSetID:1040690

[Difficulty]
HPDrainRate:6
CircleSize:4
OverallDifficulty:9.2
ApproachRate:9.3
SliderMultiplier:1.85
SliderTickRate:1

[Events]
//Background and Video events
0,0,"bg.png",0,0
//Break Periods
//Storyboard Layer 0 (Background)
//Storyboard Layer 1 (Fail)
//Storyboard Layer 2 (Pass)
//Storyboard Layer 3 (Foreground)
//Storyboard Layer 4 (Overlay)
//Storyboard Sound Samples

[TimingPoints]
1688,312.5,4,2,1,40,1,0
1688,-153.846153846154,4,2,1,40,0,0
9031,-181.818181818182,4,2,1,40,0,0
11063,-100,4,2,1,70,0,0
21688,-181.818181818182,4,2,1,40,0,0
24188,-133.333333333333,4,2,1,50,0,0
24656,-133.333333333333,4,2,1,50,0,0
33406,-133.333333333333,4,2,1,50,0,0
33563,-133.333333333333,4,2,1,60,0,0
34188,-117.647058823529,4,2,1,65,0,0
36688,-111.111111111111,4,2,1,65,0,0
39188,-105.263157894737,4,2,1,65,0,0
41688,-100,4,2,1,70,0,0
43563,-125,4,2,1,50,0,0
44188,-100,4,2,1,40,0,0
46688,-200,4,2,1,40,0,0
47078,-200,4,2,1,5,0,0
47156,-83.3333333333333,4,2,1,85,0,1
47312,-83.3333333333333,4,2,1,85,0,1
47313,312.5,4,2,1,85,1,1
47313,-83.3333333333333,4,2,1,85,0,1
51765,-83.3333333333333,4,2,1,5,0,1
51843,-83.3333333333333,4,2,1,85,0,1
52233,-83.3333333333333,4,2,1,5,0,1
52312,-83.3333333333333,4,2,1,85,0,1
55046,-83.3333333333333,4,2,1,5,0,1
55124,-83.3333333333333,4,2,1,85,0,1
56140,-83.3333333333333,4,2,1,5,0,1
56218,-83.3333333333333,4,2,1,85,0,1
57078,-83.3333333333333,4,2,1,85,0,0
57156,-83.3333333333333,4,2,1,85,0,1
59890,-83.3333333333333,4,2,1,5,0,1
59968,-83.3333333333333,4,2,1,85,0,1
61765,-83.3333333333333,4,2,1,5,0,1
61843,-83.3333333333333,4,2,1,85,0,1
62233,-83.3333333333333,4,2,1,5,0,1
62312,-83.3333333333333,4,2,1,85,0,1
63171,-83.3333333333333,4,2,1,5,0,1
63249,-83.3333333333333,4,2,1,85,0,1
63640,-83.3333333333333,4,2,1,5,0,1
63718,-83.3333333333333,4,2,1,85,0,1
65046,-83.3333333333333,4,2,1,5,0,1
65124,-83.3333333333333,4,2,1,85,0,1
66140,-83.3333333333333,4,2,1,5,0,1
66218,-83.3333333333333,4,2,1,85,0,1
67234,-83.3333333333333,4,2,1,85,0,0
67313,-83.3333333333333,4,2,1,85,0,1
77156,-100,4,2,1,70,0,0

[Colours]
Combo1 : 253,165,142
Combo2 : 151,28,71
Combo3 : 65,164,213
Combo4 : 19,56,108
SliderBorder : 252,227,245
SliderTrackOverride : 23,9,34

[HitObjects]
9,356,1688,5,2,0:2:0:0:
52,277,1844,2,0,L|44:207,2,60.1249972476961,2|2|2,0:2|0:2|0:2,0:0:0:0:
127,331,2313,2,0,L|250:321,1,120.249994495392,2|2,0:2|0:2,0:0:0:0:
314,274,2781,2,0,P|285:248|244:244,1,60.1249972476961,2|0,0:2|0:2,0:0:0:0:
328,181,3094,2,0,P|293:163|252:170,1,60.1249972476961,2|0,0:2|0:2,0:0:0:0:
327,86,3406,2,0,P|262:71|203:98,1,120.249994495392,2|2,0:2|0:2,0:0:0:0:
1,200,4031,6,0,P|54:196|121:212,1,120.249994495392,2|2,0:2|0:2,0:0:0:0:
145,297,4500,2,0,P|118:301|81:293,1,60.1249972476961,2|2,0:2|0:2,0:0:0:0:
212,235,4813,2,0,P|240:286|223:342,1,120.249994495392,2|2,0:2|0:2,0:0:0:0:
118,211,5281,2,0,P|138:177|161:162,1,60.1249972476961,2|0,0:2|0:2,0:0:0:0:
228,112,5594,2,0,L|303:123,1,60.1249972476961,2|0,0:2|0:2,0:0:0:0:
348,42,5906,2,0,L|480:28,1,120.249994495392,2|0,0:2|0:2,0:0:0:0:
370,203,6531,6,0,B|288:216|288:216|237:199,1,120.249994495392,2|2,0:2|0:2,0:0:0:0:
192,134,7000,1,2,0:2:0:0:
134,202,7156,1,2,0:2:0:0:
94,120,7313,2,0,L|86:261,1,120.249994495392,2|2,0:2|0:2,0:0:0:0:
133,317,7781,1,2,0:2:0:0:
210,273,7938,5,2,0:2:0:0:
258,348,8094,2,0,L|336:338,1,60.1249972476961,2|0,0:2|0:2,0:0:0:0:
323,204,8406,2,0,L|292:276,1,60.1249972476961,2|0,0:2|0:2,0:0:0:0:
415,332,8719,2,0,L|367:269,1,60.1249972476961,2|0,0:2|0:2,0:0:0:0:
398,202,9031,6,0,P|361:135|326:129,1,101.750003105164,2|0,0:2|0:2,0:0:0:0:
284,80,9500,2,0,L|225:71,1,50.8750015525818,2|0,0:2|0:2,0:0:0:0:
166,109,9813,2,0,L|115:116,1,50.8750015525818,2|0,0:2|0:2,0:0:0:0:
45,86,10125,1,2,0:2:0:0:
31,161,10281,1,2,0:2:0:0:
100,193,10438,2,0,L|94:259,2,50.8750015525818,2|2|2,0:2|0:2|0:2,0:0:0:0:
115,116,10906,1,2,0:2:0:0:
222,309,11063,5,8,0:2:0:0:
186,309,11141,1,8,0:2:0:0:
152,323,11219,1,8,0:2:0:0:
119,336,11297,1,8,0:2:0:0:
83,336,11375,1,8,0:2:0:0:
50,323,11453,1,8,0:2:0:0:
18,296,11531,6,0,L|30:102,1,185,6|2,3:2|3:2,0:0:0:0:
115,116,11922,1,2,0:2:0:0:
115,116,12000,2,0,L|107:217,1,92.5,8|2,0:2|0:2,0:0:0:0:
197,384,12313,1,0,3:2:0:0:
254,148,12469,1,2,3:2:0:0:
104,302,12625,1,8,0:2:0:0:
316,201,12781,6,0,P|333:166|311:89,1,92.5,2|0,3:2|0:2,0:0:0:0:
133,145,13094,2,0,P|126:190|144:232,1,92.5,2|8,3:2|0:2,0:0:0:0:
269,58,13406,2,0,P|225:36|173:47,1,92.5,2|0,0:2|3:2,0:0:0:0:
286,281,13719,2,0,P|331:285|371:264,1,92.5,2|8,3:2|0:2,0:0:0:0:
447,56,14031,6,0,B|360:12|360:91|264:56,1,185,6|2,3:2|3:2,0:0:0:0:
183,41,14422,1,2,0:2:0:0:
183,41,14500,2,0,P|185:92|220:122,1,92.5,10|2,0:2|0:2,0:0:0:0:
310,201,14813,1,0,3:2:0:0:
127,304,14969,1,2,3:2:0:0:
221,120,15125,1,8,0:2:0:0:
280,296,15281,6,0,P|321:305|370:279,1,92.5,2|0,3:2|0:2,0:0:0:0:
334,88,15594,1,2,3:2:0:0:
334,88,15672,1,2,0:0:0:0:
334,88,15750,2,0,L|324:186,1,92.5,10|2,0:2|0:2,0:0:0:0:
274,250,15984,1,2,0:2:0:0:
274,250,16063,2,0,L|284:348,1,92.5,2|2,3:2|3:2,0:0:0:0:
213,384,16297,1,2,0:2:0:0:
213,384,16375,2,0,L|166:373,1,46.25,10|0,0:2|0:2,0:0:0:0:
22,260,16531,6,0,P|68:187|176:200,1,185,6|2,3:2|3:2,0:0:0:0:
204,280,16922,1,2,0:2:0:0:
204,280,17000,2,0,L|105:266,1,92.5,10|2,0:2|0:2,0:0:0:0:
179,103,17313,1,0,3:2:0:0:
108,274,17469,1,2,3:2:0:0:
6,140,17625,1,8,0:2:0:0:
159,30,17781,6,0,P|203:29|246:67,1,92.5,2|0,3:2|0:2,0:0:0:0:
310,220,18094,2,0,P|287:181|298:126,1,92.5,2|8,3:2|0:2,0:0:0:0:
400,0,18406,2,0,P|377:38|324:56,1,92.5,2|0,0:2|3:2,0:0:0:0:
200,122,18719,1,2,3:2:0:0:
388,162,18875,1,8,0:2:0:0:
157,50,19031,6,0,P|110:128|180:207,1,185,6|2,3:2|3:2,0:0:0:0:
291,133,19422,1,2,0:2:0:0:
291,133,19500,2,0,L|193:121,1,92.5,10|2,0:2|0:2,0:0:0:0:
33,287,19813,1,0,3:2:0:0:
257,306,19969,1,2,3:2:0:0:
155,199,20125,1,8,0:2:0:0:
312,364,20281,6,0,P|334:324|330:278,1,92.5,2|0,3:2|0:2,0:0:0:0:
243,129,20594,1,0,3:2:0:0:
104,263,20750,2,0,P|151:281|200:266,1,92.5,8|0,0:2|0:2,0:0:0:0:
304,60,21063,1,0,3:2:0:0:
273,43,21141,1,0,3:2:0:0:
237,39,21219,1,0,3:2:0:0:
203,48,21297,1,0,3:2:0:0:
175,70,21375,1,8,0:2:0:0:
146,91,21453,1,8,0:2:0:0:
112,101,21531,1,8,0:2:0:0:
76,97,21609,1,8,0:2:0:0:
45,80,21688,5,2,0:2:0:0:
22,153,21844,2,0,L|35:222,1,50.8750015525818,2|0,0:2|0:2,0:0:0:0:
86,256,22156,2,0,L|65:362,1,101.750003105164,2|0,0:2|0:2,0:0:0:0:
142,342,22625,1,2,0:2:0:0:
208,378,22781,6,0,L|271:367,1,50.8750015525818,2|0,0:2|0:2,0:0:0:0:
313,312,23094,2,0,B|280:293|280:293|211:303,1,101.750003105164,2|0,0:2|0:2,0:0:0:0:
142,342,23563,1,2,0:2:0:0:
134,261,23719,1,2,0:2:0:0:
229,252,23875,2,2,L|214:311,1,50.8750015525818,2|0,0:2|0:2,0:0:0:0:
392,72,24188,6,0,L|417:235,1,138.750005292893,6|0,3:2|0:2,0:0:0:0:
499,233,24656,2,0,L|475:90,1,138.750005292893,2|0,0:2|0:2,0:0:0:0:
453,8,25125,2,0,B|403:-10|403:-10|316:4,1,138.750005292893,2|0,0:2|0:2,0:0:0:0:
257,67,25594,2,0,B|307:85|307:85|394:71,1,138.750005292893,2|0,0:2|0:2,0:0:0:0:
195,10,26375,2,0,P|180:42|180:82,1,69.3750026464463,2|0,0:2|0:2,0:0:0:0:
110,134,26688,6,0,P|139:196|139:273,1,138.750005292893,2|0,0:2|0:2,0:0:0:0:
79,330,27156,2,0,P|142:299|226:327,1,138.750005292893,2|0,0:2|0:2,0:0:0:0:
284,358,27625,2,0,B|431:341,1,138.750005292893,2|0,0:2|0:2,0:0:0:0:
490,278,28094,2,0,B|443:257|443:257|355:268,1,138.750005292893,2|0,0:2|0:2,0:0:0:0:
272,302,28563,1,2,0:2:0:0:
210,236,28719,1,2,0:2:0:0:
267,167,28875,2,0,B|314:188|314:188|402:177,1,138.750005292893,2|0,0:2|0:2,0:0:0:0:
481,136,29344,1,0,0:2:0:0:
399,90,29500,6,0,L|325:98,1,69.3750026464463,2|0,0:2|0:2,0:0:0:0:
251,38,29813,2,0,L|182:30,1,69.3750026464463,2|0,0:2|0:2,0:0:0:0:
114,110,30125,1,2,0:2:0:0:
44,43,30281,1,2,0:2:0:0:
89,203,30438,2,0,L|158:192,1,69.3750026464463,2|0,0:2|0:2,0:0:0:0:
240,230,30750,2,0,B|214:259|214:259|103:280,1,138.750005292893,2|0,0:2|0:2,0:0:0:0:
3,364,31375,6,0,P|42:380|84:372,1,69.3750026464463,2|0,0:2|0:2,0:0:0:0:
116,278,31688,2,0,P|67:246|78:307,1,138.750005292893,2|0,0:2|0:2,0:0:0:0:
151,352,32156,2,0,B|293:333,1,138.750005292893,2|0,0:2|0:2,0:0:0:0:
370,371,32625,6,0,P|405:306|362:236,1,138.750005292893,2|0,0:2|0:2,0:0:0:0:
343,168,33094,2,0,L|329:329,1,138.750005292893,2|0,0:2|0:2,0:0:0:0:
184,129,33563,5,10,0:2:0:0:
258,342,33719,1,2,3:2:0:0:
259,189,33875,1,2,3:2:0:0:
199,267,34031,1,0,3:2:0:0:
87,134,34188,6,0,L|102:47,1,78.6250014996529,4|0,3:2|0:2,0:0:0:0:
269,102,34500,2,0,L|282:179,1,78.6250014996529,2|0,3:2|0:2,0:0:0:0:
135,220,34813,2,0,P|160:196|203:188,1,78.6250014996529,2|0,3:2|0:2,0:0:0:0:
356,296,35125,2,0,P|317:289|288:263,1,78.6250014996529,2|0,3:2|0:2,0:0:0:0:
330,54,35438,6,0,B|356:235,1,157.250002999306,2|0,3:2|3:2,0:0:0:0:
472,344,35906,2,0,P|408:278|335:325,1,157.250002999306,2|0,0:2|0:2,0:0:0:0:
259,368,36375,2,0,P|225:373|184:357,1,78.6250014996529,2|0,3:2|0:2,0:0:0:0:
83,223,36688,6,0,L|96:307,1,83.2499974594117,0|0,3:2|0:2,0:0:0:0:
232,282,37000,2,0,L|244:199,1,83.2499974594117,2|0,3:2|0:2,0:0:0:0:
93,157,37313,2,0,L|110:255,1,83.2499974594117,2|0,3:2|0:2,0:0:0:0:
198,132,37625,1,2,3:2:0:0:
127,79,37781,1,2,0:2:0:0:
244,201,37938,6,0,P|274:168|279:125,1,83.2499974594117,2|0,3:2|0:2,0:0:0:0:
366,9,38250,2,0,L|377:96,1,83.2499974594117,2|0,3:2|0:2,0:0:0:0:
490,284,38563,2,0,P|463:249|456:208,1,83.2499974594117,2|0,3:2|0:2,0:0:0:0:
375,90,38875,2,0,L|362:173,1,83.2499974594117,2|0,3:2|0:2,0:0:0:0:
289,337,39188,5,0,3:2:0:0:
168,286,39344,1,0,0:2:0:0:
233,177,39500,2,0,L|247:265,1,87.8749976534844,2|0,3:2|0:2,0:0:0:0:
108,347,39813,2,0,P|85:274|107:236,1,87.8749976534844,2|0,3:2|0:2,0:0:0:0:
293,117,40125,2,0,P|316:190|294:228,1,87.8749976534844,2|0,3:2|0:2,0:0:0:0:
168,286,40438,5,2,3:2:0:0:
232,65,40594,2,0,P|293:37|335:60,1,87.8749976534844,2|0,0:2|3:2,0:0:0:0:
477,183,40906,2,0,B|431:216|431:216|297:194,1,175.749995306969,2|0,0:2|0:2,0:0:0:0:
145,51,41375,2,0,L|232:65,1,87.8749976534844,2|0,3:2|0:2,0:0:0:0:
399,367,41688,5,10,0:2:0:0:
114,336,41844,1,10,0:2:0:0:
430,82,42000,1,10,0:2:0:0:
145,51,42156,1,10,0:2:0:0:
133,40,42625,5,10,0:2:0:0:
101,349,42781,1,10,0:2:0:0:
444,74,42938,1,10,0:2:0:0:
410,383,43094,1,10,0:2:0:0:
410,383,43563,6,0,P|353:337|286:366,1,148,2|2,0:0|0:0,0:0:0:0:
289,361,44031,1,2,0:0:0:0:
256,192,44188,12,0,46531,0:0:0:0:
408,105,46688,5,2,0:2:0:0:
427,100,46844,6,0,B|457:105|457:105|485:144,1,69.375,2|0,0:2|0:2,0:0:0:0:
496,142,47156,6,0,B|460:93|460:93|291:72,1,221.999993225098,6|0,3:2|3:2,0:0:0:0:
198,252,47625,2,0,P|247:279|308:265,1,110.999996612549,10|0,0:2|0:2,0:0:0:0:
421,162,47938,1,2,3:2:0:0:
328,373,48094,1,0,3:2:0:0:
259,192,48250,1,10,0:2:0:0:
491,384,48406,2,0,B|477:273,1,110.999996612549,2|0,3:2|0:2,0:0:0:0:
203,120,48719,6,0,B|172:172|172:172|193:347,1,221.999993225098,2|0,3:2|0:2,0:0:0:0:
259,192,49188,1,0,3:2:0:0:
65,128,49344,2,0,L|80:268,1,110.999996612549,2|8,3:2|0:2,0:0:0:0:
305,99,49656,6,0,P|248:24|117:59,1,221.999993225098,6|2,3:2|3:2,0:0:0:0:
30,150,50125,1,10,0:2:0:0:
231,209,50281,1,2,0:2:0:0:
52,344,50438,2,0,L|38:216,1,110.999996612549,2|0,3:2|3:2,0:0:0:0:
203,120,50750,1,10,0:2:0:0:
322,378,50906,6,0,L|336:250,1,110.999996612549,2|0,3:2|0:2,0:0:0:0:
147,55,51219,2,0,P|115:114|137:181,1,110.999996612549,2|8,3:2|0:2,0:0:0:0:
404,342,51531,2,0,P|429:250|384:184,1,166.499994918823,2|0,0:2|0:0,0:0:0:0:
379,175,51844,1,2,3:2:0:0:
188,368,52000,2,0,P|108:370|61:306,1,166.499994918823,10|0,0:2|0:2,0:0:0:0:
114,189,52313,6,0,L|147:294,1,110.999996612549,4|0,3:2|0:2,0:0:0:0:
40,160,52625,2,0,P|98:111|139:117,1,110.999996612549,10|0,0:2|0:2,0:0:0:0:
307,125,52938,2,0,P|272:166|218:171,1,110.999996612549,2|0,3:2|3:2,0:0:0:0:
63,80,53250,1,8,0:2:0:0:
203,243,53406,2,0,P|284:243|377:143,1,221.999993225098,2|2,0:2|0:2,0:0:0:0:
490,15,53875,2,0,L|470:135,1,110.999996612549,10|0,0:2|0:2,0:0:0:0:
380,333,54188,2,0,L|360:223,1,110.999996612549,2|0,3:2|0:2,0:0:0:0:
282,71,54500,1,10,0:2:0:0:
453,201,54656,1,0,0:2:0:0:
140,150,54813,6,0,B|233:115|227:191|310:157,1,166.499994918823,2|0,3:2|0:2,0:0:0:0:
317,155,55125,1,10,0:2:0:0:
169,302,55281,2,0,L|58:289,1,110.999996612549,2|0,0:2|3:2,0:0:0:0:
16,99,55594,1,2,0:2:0:0:
181,221,55750,1,8,0:2:0:0:
2,355,55906,6,0,P|-16:252|44:209,1,166.499994918823,2|0,0:2|0:0,0:0:0:0:
46,203,56219,1,2,0:2:0:0:
269,369,56375,2,0,L|258:259,1,110.999996612549,10|0,0:2|0:2,0:0:0:0:
419,51,56688,1,10,0:2:0:0:
448,77,56766,1,8,0:2:0:0:
466,112,56844,1,8,0:2:0:0:
470,153,56922,1,8,0:2:0:0:
459,191,57000,1,8,0:2:0:0:
447,229,57078,1,8,0:2:0:0:
451,269,57156,6,0,B|404:238|404:238|199:266,1,221.999993225098,4|0,3:2|3:2,0:0:0:0:
94,93,57625,2,0,P|140:132|151:199,1,110.999996612549,10|0,0:2|0:2,0:0:0:0:
104,313,57938,1,2,3:2:0:0:
236,154,58094,1,0,3:2:0:0:
232,372,58250,1,10,0:2:0:0:
19,310,58406,2,0,P|40:261|89:234,1,110.999996612549,2|0,3:2|0:2,0:0:0:0:
398,289,58719,6,0,B|317:307|317:307|256:282|256:282|175:302,1,221.999993225098,2|0,3:2|0:0,0:0:0:0:
54,375,59188,1,0,3:2:0:0:
22,177,59344,2,0,L|39:57,1,110.999996612549,2|8,3:2|0:2,0:0:0:0:
185,298,59656,6,0,L|211:90,1,166.499994918823,6|0,3:2|0:2,0:0:0:0:
211,106,59969,1,2,3:2:0:0:
303,346,60125,1,8,0:2:0:0:
411,107,60281,1,2,0:2:0:0:
371,277,60438,2,0,L|480:257,1,110.999996612549,2|0,3:2|3:2,0:0:0:0:
310,147,60750,1,10,0:2:0:0:
303,346,60906,6,0,B|333:370|333:370|410:380,1,110.999996612549,2|0,3:2|0:2,0:0:0:0:
338,143,61219,2,0,B|308:119|308:119|236:109,1,110.999996612549,2|8,3:2|0:2,0:0:0:0:
8,316,61531,2,0,B|40:355|40:355|196:376,1,166.499994918823,2|0,0:2|0:0,0:0:0:0:
174,377,61844,1,2,3:2:0:0:
142,129,62000,2,0,B|101:160|101:160|83:301,1,166.499994918823,10|0,0:2|0:2,0:0:0:0:
174,377,62313,6,0,L|187:250,1,110.999996612549,4|0,3:2|0:2,0:0:0:0:
365,105,62625,2,0,L|376:215,1,110.999996612549,10|0,0:2|0:2,0:0:0:0:
86,274,62938,2,0,L|111:79,1,166.499994918823,2|0,3:2|0:0,0:0:0:0:
114,83,63250,1,10,0:2:0:0:
376,215,63406,6,0,P|309:250|206:198,1,166.499994918823,2|0,0:2|0:0,0:0:0:0:
203,200,63719,1,2,0:2:0:0:
351,0,63875,2,0,L|365:110,1,110.999996612549,10|0,0:2|0:2,0:0:0:0:
167,297,64188,2,0,L|181:187,1,110.999996612549,2|0,3:2|0:2,0:0:0:0:
119,25,64500,1,10,0:2:0:0:
277,144,64656,1,2,0:2:0:0:
49,260,64813,6,0,B|14:227|14:227|7:87,1,166.499994918823,2|0,3:2|0:2,0:0:0:0:
7,80,65125,1,10,0:2:0:0:
260,173,65281,2,0,L|381:153,1,110.999996612549,2|0,0:2|3:2,0:0:0:0:
117,24,65594,2,0,L|7:42,1,110.999996612549,2|8,0:2|0:2,0:0:0:0:
205,238,65906,6,0,B|245:262|245:262|409:230,1,166.499994918823,2|0,0:2|0:0,0:0:0:0:
387,231,66219,1,2,0:2:0:0:
335,58,66375,2,0,L|225:76,1,110.999996612549,10|0,0:2|0:2,0:0:0:0:
3,250,66688,1,10,0:2:0:0:
34,233,66766,1,8,0:2:0:0:
70,229,66844,1,8,0:2:0:0:
104,238,66922,1,8,0:2:0:0:
132,260,67000,1,8,0:2:0:0:
161,281,67078,1,8,0:2:0:0:
195,291,67156,1,8,0:2:0:0:
231,287,67234,1,8,0:2:0:0:
262,270,67313,6,0,P|236:217|181:213,1,110.999996612549,6|2,3:2|0:2,0:0:0:0:
54,324,67625,1,10,0:2:0:0:
198,99,67781,2,0,L|188:210,1,110.999996612549,2|0,0:2|3:2,0:0:0:0:
44,132,68094,1,2,3:2:0:0:
252,33,68250,1,8,0:2:0:0:
62,157,68406,6,0,L|72:46,1,110.999996612549,2|0,0:2|3:2,0:0:0:0:
280,48,68719,2,0,L|294:188,1,110.999996612549,2|8,0:2|0:2,0:0:0:0:
198,289,69031,1,2,0:2:0:0:
366,174,69188,1,0,3:2:0:0:
177,103,69344,1,0,3:2:0:0:
315,257,69500,2,0,P|358:279|418:259,1,110.999996612549,8|0,0:2|0:2,0:0:0:0:
419,98,69813,6,0,P|376:76|316:96,1,110.999996612549,6|2,3:2|0:2,0:0:0:0:
231,276,70125,1,10,0:2:0:0:
476,184,70281,2,0,L|365:173,1,110.999996612549,2|2,0:2|3:2,0:0:0:0:
237,54,70594,1,2,3:2:0:0:
454,23,70750,1,8,0:2:0:0:
173,105,70906,6,0,P|155:53|178:4,1,110.999996612549,2|0,0:2|3:2,0:0:0:0:
294,217,71219,1,2,0:2:0:0:
237,54,71375,1,10,0:2:0:0:
120,287,71531,2,0,L|233:275,1,110.999996612549,2|0,0:2|3:2,0:0:0:0:
372,349,71844,1,0,3:2:0:0:
54,340,72000,2,0,P|37:279|68:223,1,110.999996612549,8|2,0:2|0:2,0:0:0:0:
91,69,72313,5,14,0:2:0:0:
223,350,72469,1,2,3:2:0:0:
242,47,72625,5,10,0:2:0:0:
138,319,72781,1,2,3:2:0:0:
164,8,72938,5,8,0:2:0:0:
285,301,73094,1,2,3:2:0:0:
322,11,73250,5,8,0:2:0:0:
200,270,73406,1,2,3:2:0:0:
73,46,73563,5,8,0:2:0:0:
390,135,73719,1,2,3:2:0:0:
131,123,73875,5,8,0:2:0:0:
447,35,74031,1,2,3:2:0:0:
56,179,74188,6,0,P|37:145|62:66,1,110.999996612549,8|2,0:2|3:2,0:0:0:0:
457,216,74500,2,0,P|473:267|452:317,1,110.999996612549,8|2,0:2|3:2,0:0:0:0:
329,33,74813,5,8,0:2:0:0:
299,357,74969,1,2,3:2:0:0:
233,20,75125,5,10,0:2:0:0:
203,346,75281,1,0,3:2:0:0:
34,60,75438,6,0,L|145:54,1,110.999996612549,10|0,0:2|3:2,0:0:0:0:
388,268,75750,2,0,L|277:261,1,110.999996612549,10|2,0:2|3:2,0:0:0:0:
137,7,76063,5,8,0:2:0:0:
203,346,76219,1,2,3:2:0:0:
233,20,76375,5,10,0:2:0:0:
107,335,76531,1,0,3:2:0:0:
457,104,76688,5,10,0:2:0:0:
424,117,76766,1,8,0:2:0:0:
388,117,76844,1,8,0:2:0:0:
355,104,76922,1,8,0:2:0:0:
321,90,77000,1,8,0:2:0:0:
285,90,77078,1,8,0:2:0:0:
252,104,77156,6,0,P|214:170|283:252,1,185,4|2,3:2|3:2,0:0:0:0:
390,188,77547,1,2,0:2:0:0:
390,188,77625,2,0,L|287:170,1,92.5,10|2,0:2|0:2,0:0:0:0:
146,83,77938,1,0,3:2:0:0:
108,243,78094,1,2,3:2:0:0:
251,51,78250,1,8,0:2:0:0:
315,292,78406,6,0,L|213:275,1,92.5,2|0,3:2|0:2,0:0:0:0:
47,190,78719,2,0,P|85:165|145:176,1,92.5,2|8,3:2|0:2,0:0:0:0:
327,315,79031,2,0,L|209:296,1,92.5,2|0,0:2|3:2,0:0:0:0:
77,346,79344,1,2,3:2:0:0:
292,230,79500,1,8,0:2:0:0:
20,186,79656,6,0,P|70:131|183:142,1,185,4|2,3:2|3:2,0:0:0:0:
284,145,80047,1,2,0:2:0:0:
284,145,80125,2,0,L|180:149,1,92.5,10|2,0:2|0:2,0:0:0:0:
233,13,80438,1,0,3:2:0:0:
292,230,80594,1,2,3:2:0:0:
151,57,80750,1,8,0:2:0:0:
92,252,80906,6,0,P|141:277|203:253,1,92.5,2|0,3:2|0:2,0:0:0:0:
159,64,81219,1,2,3:2:0:0:
159,64,81297,1,2,0:0:0:0:
159,64,81375,2,0,L|149:165,1,92.5,10|2,0:2|0:2,0:0:0:0:
208,223,81609,1,2,0:2:0:0:
208,223,81688,2,0,P|167:254|118:246,1,92.5,2|2,3:2|3:2,0:0:0:0:
30,178,81922,1,2,0:2:0:0:
30,178,82000,2,0,L|75:184,1,46.25,10|0,0:2|0:2,0:0:0:0:
268,273,82156,6,0,P|199:323|101:325,1,185,6|2,3:2|3:2,0:0:0:0:
32,375,82547,1,2,0:2:0:0:
32,375,82625,2,0,P|18:332|30:287,1,92.5,10|2,0:2|0:2,0:0:0:0:
152,165,82938,1,0,3:2:0:0:
102,325,83094,1,2,3:2:0:0:
35,114,83250,1,8,0:2:0:0:
304,194,83406,6,0,P|255:226|192:200,1,92.5,2|0,3:2|0:2,0:0:0:0:
345,70,83719,2,0,P|397:96|406:163,1,92.5,2|8,3:2|0:2,0:0:0:0:
218,97,84031,2,0,P|214:38|268:-2,1,92.5,2|0,0:2|3:2,0:0:0:0:
428,73,84344,1,2,3:2:0:0:
304,194,84500,1,8,0:2:0:0:
447,354,84656,6,0,B|480:323|480:323|497:150,1,185,4|2,3:2|3:2,0:0:0:0:
409,186,85047,1,2,0:2:0:0:
409,186,85125,2,0,L|397:292,1,92.5,10|2,0:2|0:2,0:0:0:0:
226,295,85438,1,0,3:2:0:0:
447,354,85594,1,2,3:2:0:0:
284,204,85750,1,8,0:2:0:0:
205,368,85906,6,0,P|244:372|289:339,1,92.5,2|0,0:2|3:2,0:0:0:0:
231,123,86219,1,0,3:2:0:0:
135,326,86375,1,8,0:2:0:0:
324,281,86531,1,0,0:2:0:0:
202,41,86688,5,0,3:2:0:0:
169,62,86766,1,0,3:2:0:0:
148,96,86844,1,0,3:2:0:0:
144,136,86922,1,8,0:2:0:0:
156,173,87000,2,0,L|162:234,1,46.25,10|8,3:2|3:2,0:0:0:0:
308,150,87156,2,0,P|314:130|312:103,1,46.25,10|0,3:2|3:2,0:0:0:0:
