osu file format v14

[General]
AudioFilename: neophobia.mp3
AudioLeadIn: 0
PreviewTime: 117180
Countdown: 0
SampleSet: Normal
StackLeniency: 0.7
Mode: 0
LetterboxInBreaks: 0
WidescreenStoryboard: 1

[Editor]
Bookmarks: 11388,32721,48721,70055,80721,102055,112721,139388,144721,160721,183388,194055,205555,215388
DistanceSpacing: 0.8
BeatDivisor: 4
GridSize: 4
TimelineZoom: 1

[Metadata]
Title:neophobia
TitleUnicode:neophobia
Artist:nano
ArtistUnicode:ナノ
Creator:Kyouren
Version:RLQuillab Extra
Source:
Tags:n best album i jrock j-rock rock japanese english gokugohan12468 kittyadventure rlc Nyquill collab collaboration mocaotic eiri- ayyri annabel ryxliee renumi 伊藤直樹 Naoki Ito 伊藤 直樹 SKYNOK
BeatmapID:3992615
BeatmapSetID:1928493

[Difficulty]
HPDrainRate:6
CircleSize:4
OverallDifficulty:8
ApproachRate:9
SliderMultiplier:1.8
SliderTickRate:1

[Events]
//Background and Video events
Video,-16000,"video.mp4"
0,0,"asgr on twitter.jpg",0,0
//Break Periods
2,102255,112121
2,139388,144121
2,183388,192621
//Storyboard Layer 0 (Background)
//Storyboard Layer 1 (Fail)
//Storyboard Layer 2 (Pass)
//Storyboard Layer 3 (Foreground)
//Storyboard Layer 4 (Overlay)
//Storyboard Sound Samples

[TimingPoints]
722,333.333333333333,4,1,1,50,1,0
11388,-100,4,2,1,50,0,0
21388,-100,4,1,1,60,0,0
32721,-200,4,2,1,50,0,0
37888,-100,4,1,1,50,0,0
38221,-100,4,2,1,50,0,0
39221,-100,4,1,1,50,0,0
39555,-100,4,2,1,50,0,0
40555,-100,4,1,1,50,0,0
40888,-100,4,2,1,50,0,0
41888,-100,4,1,1,50,0,0
42221,-100,4,2,1,50,0,0
44721,-200,4,2,1,50,0,0
48221,-100,4,2,1,50,0,0
48555,-100,4,1,1,60,0,1
54388,-100,4,1,1,60,0,0
57888,-100,4,1,1,60,0,1
59055,-100,4,1,1,60,0,0
59221,-100,4,1,1,60,0,1
65055,-100,4,1,1,60,0,0
68555,-100,4,1,1,60,0,1
69388,-100,4,1,1,60,0,0
70055,-100,4,1,1,50,0,0
79721,-100,4,1,1,50,0,0
79805,-100,4,1,1,20,0,0
79888,-100,4,1,1,25,0,0
80055,-100,4,1,1,30,0,0
80221,-100,4,1,1,35,0,0
80388,-100,4,1,1,40,0,0
80555,-100,4,1,1,45,0,0
80721,-100,4,1,1,40,0,0
91388,-100,4,1,1,50,0,0
112721,-133.333333333333,4,2,1,50,0,0
117055,-100,4,1,1,50,0,0
117888,-100,4,1,1,60,0,1
123638,-100,4,1,1,30,0,1
123721,-100,4,1,1,60,0,0
127221,-100,4,1,1,60,0,1
128388,-100,4,1,1,60,0,0
128555,-100,4,1,1,60,0,1
134305,-100,4,1,1,30,0,1
134388,-100,4,1,1,60,0,0
135638,-100,4,1,1,30,0,0
135721,-100,4,1,1,60,0,0
136971,-100,4,1,1,30,0,0
137055,-100,4,1,1,60,0,0
137888,-100,4,1,1,60,0,1
138721,-100,4,1,1,60,0,0
144721,-133.333333333333,4,2,0,50,0,0
147388,-133.333333333333,4,1,1,50,0,0
147721,-117.647058823529,4,1,1,50,0,0
148388,-100,4,1,1,50,0,0
149055,-90.9090909090909,4,1,1,50,0,0
160721,-90.9090909090909,4,3,1,50,0,0
171221,-90.9090909090909,4,1,1,50,0,0
179388,-90.9090909090909,4,1,1,60,0,0
193221,-90.9090909090909,4,1,1,50,0,0
193888,-86.9565217391304,4,1,1,60,0,1
199721,-100,4,1,1,60,0,0
203221,-100,4,1,1,60,0,1
204388,-100,4,1,1,60,0,0
204721,-100,4,1,1,50,0,1
214721,-100,4,1,1,50,0,0
215388,-83.3333333333333,4,1,1,50,0,1
226055,-100,4,1,1,50,0,0
226388,-100,4,2,1,50,0,0
227888,-100,4,1,1,50,0,0
229055,-100,4,2,1,50,0,0
230555,-100,4,1,1,50,0,0
231888,-100,4,1,1,5,0,0

[Colours]
Combo1 : 255,94,55
Combo2 : 173,255,95
Combo3 : 255,88,100
Combo4 : 17,254,176

[HitObjects]
160,136,11388,5,8,1:0:0:0:
340,100,11555,1,8,1:0:0:0:
192,48,11721,2,0,L|96:40,1,90
280,28,12055,2,0,P|312:104|296:220,1,180
268,292,12555,2,0,P|368:256|456:280,1,180
216,212,13055,2,0,L|88:196,1,90
16,184,13388,1,0,0:0:0:0:
88,336,13555,1,8,1:0:0:0:
8,288,13721,1,0,0:0:0:0:
172,284,13888,1,8,1:0:0:0:
16,184,14055,5,8,1:0:0:0:
164,96,14221,1,8,1:0:0:0:
361,154,14388,2,0,L|272:164,1,90
456,116,14721,2,0,P|416:216|456:292,1,180
352,332,15221,2,0,P|256:272|180:284,1,180
96,332,15721,1,0,0:0:0:0:
312,200,15888,2,0,L|352:112,1,90,8|0,1:0|0:0,0:0:0:0:
120,96,16221,2,0,L|152:196,1,90,8|0,1:0|0:0,0:0:0:0:
188,24,16555,1,8,1:0:0:0:
32,160,16721,5,8,1:0:0:0:
232,232,16888,1,8,1:0:0:0:
393,130,17055,2,0,L|304:144,1,90
464,208,17388,2,0,P|508:124|492:12,1,180
372,220,17888,2,0,B|276:252|276:196|172:240,1,180
96,272,18388,2,0,P|120:228|128:180,1,90
180,328,18721,1,0,0:0:0:0:
200,36,18888,2,0,P|200:92|208:144,1,90,8|0,1:0|0:0,0:0:0:0:
236,224,19221,1,8,1:0:0:0:
308,132,19388,5,8,1:0:0:0:
128,192,19555,2,0,L|36:168,1,90,8|0,1:0|0:0,0:0:0:0:
112,368,19888,2,0,B|140:320|124:268|124:268|20:240,1,180
216,336,20388,2,0,L|316:320,1,90,0|2,0:0|0:0,0:0:0:0:
392,304,20721,1,0,0:0:0:0:
464,356,20888,1,0,1:0:0:0:
368,208,21055,2,0,L|284:156,1,90,4|0,1:2|0:0,0:0:0:0:
196,36,21388,5,0,0:0:0:0:
200,64,21471,1,0,0:0:0:0:
200,92,21555,1,0,0:0:0:0:
196,120,21638,1,0,0:0:0:0:
188,144,21721,1,0,0:0:0:0:
184,172,21805,1,0,0:0:0:0:
184,200,21888,1,0,0:0:0:0:
188,228,21971,1,0,0:0:0:0:
192,256,22055,6,0,P|192:304|180:360,1,90,4|0,0:0|0:0,0:0:0:0:
104,192,22388,2,0,P|100:240|116:300,1,90,8|0,0:0|0:0,0:0:0:0:
208,132,22721,2,0,P|136:84|40:96,1,180,0|8,0:0|0:0,0:0:0:0:
264,200,23221,2,0,P|336:128|336:40,1,180
416,176,23721,2,0,L|432:296,1,90,8|0,0:0|0:0,0:0:0:0:
440,360,24055,1,0,0:0:0:0:
328,300,24221,1,0,0:0:0:0:
204,328,24388,2,0,L|72:316,1,90,8|0,0:0|0:0,0:0:0:0:
144,48,24721,6,0,P|152:120|144:160,1,90
8,224,25055,2,0,P|0:184|4:124,1,90,8|0,0:0|0:0,0:0:0:0:
112,288,25388,2,0,P|168:300|256:216,1,180,0|8,0:0|0:0,0:0:0:0:
284,72,25888,1,0,0:0:0:0:
228,148,26055,1,0,0:0:0:0:
320,164,26221,1,0,0:0:0:0:
196,64,26388,1,8,0:0:0:0:
168,232,26555,2,0,P|60:276|4:228,1,180
228,148,27055,2,0,P|296:160|340:168,1,90,8|0,0:0|0:0,0:0:0:0:
196,64,27388,6,0,L|392:100,1,180,4|8,0:0|0:0,0:0:0:0:
464,112,27888,1,0,0:0:0:0:
396,184,28055,2,0,P|368:272|388:380,1,180,0|8,0:0|0:0,0:0:0:0:
288,152,28555,2,0,P|276:224|272:268,1,90
160,356,28888,2,0,P|180:296|188:260,1,90,0|8,0:0|0:0,0:0:0:0:
96,68,29221,2,0,P|56:164|64:256,1,180
216,96,29721,2,0,L|312:84,1,90,8|0,0:0|0:0,0:0:0:0:
432,48,30055,6,0,P|516:112|528:212,1,180,0|8,0:0|0:0,0:0:0:0:
372,188,30555,1,0,0:0:0:0:
272,140,30721,2,0,L|148:136,1,90
144,272,31055,2,0,L|268:260,1,90,8|0,0:0|0:0,0:0:0:0:
88,128,31388,1,0,0:0:0:0:
20,256,31555,1,0,0:0:0:0:
12,100,31721,2,0,P|20:44|24:4,1,90,8|0,0:0|0:0,0:0:0:0:
104,268,32055,2,0,P|96:324|92:364,1,90,8|0,0:0|0:0,0:0:0:0:
336,248,32388,2,0,P|396:244|444:240,1,90
184,200,32721,5,6,0:0:0:0:
174,219,33388,1,2,0:0:0:0:
162,241,34055,6,0,P|202:244|262:223,1,90,2|2,0:0|0:0,0:0:0:0:
249,230,34555,2,0,P|290:215|345:218,1,90,2|0,0:2|0:0,0:0:0:0:
336,215,35055,1,2,0:0:0:0:
309,296,35221,1,2,0:0:0:0:
192,156,35388,6,0,P|224:142|282:131,1,90,4|2,0:0|0:0,0:0:0:0:
277,131,35888,2,0,L|292:222,1,90,2|0,0:0|0:0,0:0:0:0:
291,220,36388,1,2,0:0:0:0:
210,247,36555,1,2,0:0:0:0:
118,215,36721,6,0,L|19:234,1,90,2|2,0:0|0:0,0:0:0:0:
29,231,37221,2,0,P|18:284|25:328,1,90,2|0,0:0|0:0,0:0:0:0:
22,319,37721,1,8,1:0:0:0:
51,127,37888,6,2,L|230:97,1,180,12|8,2:2|0:2,0:0:0:0:
384,172,38388,2,0,P|332:188|293:210,1,90,2|0,1:0|0:0,0:0:0:0:
116,266,38721,2,0,P|171:258|215:233,1,90,8|10,0:2|0:2,0:0:0:0:
290,115,39055,1,2,1:2:0:0:
201,242,39221,6,2,L|184:54,1,180,8|8,2:2|0:2,0:0:0:0:
290,115,39721,2,0,L|301:218,1,90,2|0,1:0|0:0,0:0:0:0:
404,275,40055,2,0,P|459:267|503:242,1,90,10|10,0:2|0:2,0:0:0:0:
418,179,40388,1,2,1:2:0:0:
344,345,40555,6,2,P|305:309|166:286,1,180,8|8,2:2|0:2,0:0:0:0:
0,287,41055,2,0,P|53:293|105:277,1,90,2|0,1:0|0:0,0:0:0:0:
228,110,41388,2,0,L|206:210,1,90,8|10,0:2|0:2,0:0:0:0:
177,363,41721,1,2,1:2:0:0:
88,284,41888,6,2,L|121:101,1,180,8|8,2:2|0:2,0:0:0:0:
228,110,42388,2,0,P|280:120|343:108,1,90,2|0,1:0|0:0,0:0:0:0:
119,107,42721,2,0,P|67:101|16:113,1,90,10|10,0:2|0:2,0:0:0:0:
192,191,43055,1,2,1:2:0:0:
165,28,43221,1,2,1:2:0:0:
192,191,43388,5,6,0:0:0:0:
202,201,44055,1,2,0:0:0:0:
213,215,44721,6,0,P|173:221|125:192,1,90,2|2,0:0|0:0,0:0:0:0:
130,198,45221,2,0,P|80:216|42:233,1,90,2|0,0:0|0:0,0:0:0:0:
46,230,45721,1,2,0:0:0:0:
30,319,45888,1,0,0:0:0:0:
120,296,46055,6,0,P|174:289|224:307,1,90,4|2,0:0|0:0,0:0:0:0:
207,298,46555,2,0,P|261:313|308:298,1,90,2|0,0:0|0:0,0:0:0:0:
258,231,47055,1,2,0:0:0:0:
367,356,47221,6,0,P|394:330|418:228,1,135,2|0,0:0|0:0,0:0:0:0:
394,151,47888,1,2,0:0:0:0:
362,66,48055,1,2,0:0:0:0:
439,8,48221,2,0,P|456:59|452:99,1,90,2|0,0:0|0:0,0:0:0:0:
348,152,48555,6,0,P|424:108|540:136,1,180,4|0,0:0|0:0,0:0:0:0:
288,108,49055,2,0,P|320:76|376:44,1,90,8|0,0:0|0:0,0:0:0:0:
228,164,49388,2,0,P|168:168|124:160,1,90
292,216,49721,1,8,0:0:0:0:
176,88,49888,6,0,P|84:72|8:124,1,180,4|0,0:0|0:0,0:0:0:0:
272,40,50388,2,0,L|368:0,1,90,8|0,0:0|0:0,0:0:0:0:
384,164,50721,2,0,L|301:199,1,90
416,72,51055,1,8,0:0:0:0:
220,128,51221,6,0,P|184:220|216:300,1,180,4|0,0:0|0:0,0:0:0:0:
232,40,51721,1,8,0:0:0:0:
304,92,51888,2,0,P|308:144|304:196,1,90
104,304,52221,2,0,P|100:252|104:200,1,90,0|8,0:0|0:0,0:0:0:0:
276,340,52555,6,0,P|380:340|428:276,1,180,4|0,0:0|0:0,0:0:0:0:
184,268,53055,2,0,P|180:332|188:380,1,90,8|0,0:0|0:0,0:0:0:0:
320,224,53388,2,0,P|324:172|320:124,1,90
321,134,53638,1,0,0:0:0:0:
321,134,53721,2,0,L|411:87,1,90
176,40,54055,6,0,B|256:76|256:76|360:28,1,180,4|8,0:0|0:0,0:0:0:0:
52,80,54555,1,0,0:0:0:0:
128,116,54721,2,0,L|244:168,1,90,8|0,0:0|2:0,0:0:0:0:
380,120,55055,2,0,L|296:172,1,90,8|0,0:0|2:0,0:0:0:0:
136,152,55388,6,0,P|176:176|228:216,1,90,8|0,0:0|2:0,0:0:0:0:
372,160,55721,2,0,P|332:212|316:240,1,90,8|0,0:0|2:0,0:0:0:0:
144,196,56055,2,0,P|176:240|196:288,1,90,8|0,0:0|2:0,0:0:0:0:
360,192,56388,2,0,P|348:260|344:296,1,90,8|0,0:0|2:0,0:0:0:0:
164,272,56721,6,0,P|184:336|188:380,1,90,8|0,0:0|2:0,0:0:0:0:
304,144,57055,2,0,P|292:204|292:248,1,90,8|0,0:0|2:0,0:0:0:0:
268,40,57388,1,8,0:0:0:0:
200,120,57555,1,0,0:0:0:0:
304,144,57721,1,0,0:0:0:0:
152,32,57888,6,0,P|36:56|0:136,1,180,4|0,0:0|0:0,0:0:0:0:
88,216,58388,2,0,P|92:160|88:124,1,90,8|0,0:0|0:0,0:0:0:0:
60,300,58721,1,0,0:0:0:0:
184,328,58888,1,8,0:0:0:0:
208,336,58971,1,8,0:0:0:0:
236,336,59055,1,0,0:0:0:0:
352,260,59221,6,0,P|444:196|516:208,1,180,4|0,0:0|0:0,0:0:0:0:
232,276,59721,2,0,P|228:220|240:168,1,90,8|0,0:0|0:0,0:0:0:0:
112,292,60055,2,0,B|104:224|116:172|116:172|92:188|44:200,1,180,0|8,0:0|0:0,0:0:0:0:
204,92,60555,6,0,P|156:64|28:100,1,180,0|0,0:0|0:0,0:0:0:0:
296,80,61055,2,0,P|320:83|384:75,1,90,8|0,0:0|0:0,0:0:0:0:
264,168,61388,1,0,0:0:0:0:
256,260,61555,1,0,0:0:0:0:
340,220,61721,1,8,0:0:0:0:
184,204,61888,6,0,B|96:184|88:236|-8:192,1,180
208,120,62388,1,8,0:0:0:0:
256,260,62555,2,0,B|344:288|352:240|448:272,1,180
268,348,63055,1,8,0:0:0:0:
176,320,63221,6,0,P|136:220|164:140,1,180
344,44,63721,2,0,L|356:140,1,90,12|0,0:0|0:0,0:0:0:0:
224,256,64055,2,0,L|236:156,1,90
400,248,64388,2,0,L|416:356,1,90
372,168,64721,6,0,B|320:192|316:240|316:240|332:344,1,180,12|8,0:0|0:0,0:0:0:0:
456,180,65221,1,0,0:0:0:0:
368,88,65388,2,0,L|304:88|248:88,1,90,8|0,0:0|0:0,0:0:0:0:
96,256,65721,2,0,L|176:200,1,90,8|0,0:0|0:0,0:0:0:0:
216,8,66055,6,0,L|176:96,1,90,8|0,0:0|0:0,0:0:0:0:
244,332,66388,2,0,L|252:228,1,90,8|0,0:0|0:0,0:0:0:0:
96,48,66721,2,0,L|104:156,1,90,8|0,0:0|0:0,0:0:0:0:
336,224,67055,2,0,L|300:120,1,90,8|0,0:0|0:0,0:0:0:0:
56,224,67388,6,0,L|136:288,1,90,8|0,0:0|0:0,0:0:0:0:
392,68,67721,2,0,L|296:48,1,90,8|4,0:0|0:2,0:0:0:0:
216,96,68055,1,0,0:0:0:0:
300,196,68221,1,8,0:0:0:0:
308,220,68305,1,8,0:0:0:0:
304,248,68388,1,0,0:0:0:0:
188,192,68555,6,0,P|88:172|24:212,1,180,12|8,0:0|0:0,0:0:0:0:
180,280,69055,1,8,0:0:0:0:
64,292,69221,1,8,0:0:0:0:
252,352,69388,1,8,0:0:0:0:
252,352,70055,6,0,P|336:310|423:326,2,180,12|8|8,0:2|0:0|0:2,0:0:0:0:
180,283,70888,2,0,L|84:294,1,90,8|8,0:2|0:0,0:0:0:0:
27,144,71221,6,0,P|59:82|167:33,1,180,8|8,0:2|0:2,0:0:0:0:
293,144,71721,2,0,L|193:137,1,90,8|0,0:0|0:0,0:0:0:0:
333,57,72055,2,0,L|419:28,1,90,8|8,0:2|0:2,0:0:0:0:
486,105,72388,1,8,0:0:0:0:
131,306,72721,6,0,L|20:320,2,90,8|8|8,0:2|0:2|0:0,0:0:0:0:
193,163,73221,2,0,P|210:218|220:277,1,90,8|8,0:2|0:2,0:0:0:0:
275,329,73555,1,8,0:2:0:0:
420,256,73721,5,8,0:0:0:0:
410,157,73888,2,0,P|420:103|438:65,1,90,8|8,0:2|0:2,0:0:0:0:
510,7,74221,1,8,0:2:0:0:
420,256,74388,6,0,P|359:277|260:277,1,135,8|0,0:0|0:0,0:0:0:0:
289,281,74721,2,0,P|276:236|272:182,1,90,8|8,0:2|0:0,0:0:0:0:
178,58,75055,2,0,P|177:110|166:167,1,90,8|0,0:0|0:0,0:0:0:0:
170,147,75305,1,0,0:0:0:0:
170,147,75388,5,12,0:2:0:0:
86,200,75555,1,8,0:2:0:0:
23,124,75721,1,8,0:0:0:0:
342,49,76055,2,0,P|403:55|490:161,1,180,8|8,0:2|0:0,0:0:0:0:
425,249,76555,6,0,P|364:255|277:361,1,180,8|8,0:2|0:2,0:0:0:0:
486,378,77055,2,0,L|504:286,1,90,8|0,0:0|0:0,0:0:0:0:
463,83,77388,1,8,0:2:0:0:
364,98,77555,1,8,0:2:0:0:
330,190,77721,1,8,0:0:0:0:
39,105,78055,6,0,L|137:93,1,90,8|8,0:2|0:2,0:0:0:0:
302,165,78388,2,0,L|213:140,1,90,12|8,0:0|0:2,0:0:0:0:
30,228,78721,1,8,0:2:0:0:
147,208,78888,2,0,P|176:252|197:307,1,90,8|8,0:0|0:2,0:0:0:0:
238,373,79221,1,8,0:2:0:0:
354,286,79388,6,0,P|368:215|385:173,1,90,12|0,0:0|0:0,0:0:0:0:
476,77,79721,1,4,0:2:0:0:
458,81,79805,1,0,0:2:0:0:
440,78,79888,1,0,0:2:0:0:
422,79,79971,1,0,0:2:0:0:
404,76,80055,1,12,0:2:0:0:
386,79,80138,1,8,0:2:0:0:
368,75,80221,1,8,0:2:0:0:
350,78,80305,1,8,0:2:0:0:
332,75,80388,1,4,0:2:0:0:
314,79,80471,1,8,0:1:0:0:
296,75,80555,1,8,0:1:0:0:
278,79,80638,1,8,0:1:0:0:
260,76,80721,1,4,0:2:0:0:
44,272,81055,6,0,P|92:264|144:260,1,90,8|0,0:0|0:0,0:0:0:0:
216,284,81388,1,8,0:2:0:0:
288,228,81555,1,8,0:2:0:0:
212,196,81721,1,8,0:0:0:0:
304,316,81888,2,0,P|388:316|448:232,1,180
372,0,82388,2,0,P|356:52|364:120,1,90,8|0,0:0|0:0,0:0:0:0:
512,196,82721,2,0,P|452:168|404:172,1,90
320,184,83055,2,0,P|228:180|184:104,1,180,8|0,0:0|0:0,0:0:0:0:
236,36,83555,5,0,0:0:0:0:
124,184,83721,2,0,P|132:232|132:284,1,90,8|0,0:0|0:0,0:0:0:0:
232,312,84055,2,0,P|312:332|408:284,1,180,0|8,0:0|0:0,0:0:0:0:
240,220,84555,2,0,P|188:160|200:36,1,180
292,140,85055,1,8,0:0:0:0:
352,208,85221,2,0,P|436:200|504:112,1,180
268,240,85721,2,0,L|168:228,1,90,8|0,0:0|0:0,0:0:0:0:
304,328,86055,6,0,L|108:304,1,180,0|8,0:0|0:0,0:0:0:0:
40,292,86555,1,0,0:0:0:0:
80,376,86721,2,0,P|120:324|108:208,1,180,0|8,0:0|0:0,0:0:0:0:
280,212,87221,2,0,P|384:160|412:64,1,180
456,236,87721,2,0,L|472:368,1,90,8|0,0:0|0:0,0:0:0:0:
280,212,88055,2,0,L|268:320,1,90
96,236,88388,2,0,L|108:356,1,90,8|0,0:0|0:0,0:0:0:0:
272,112,88721,6,0,P|356:80|452:120,1,180,0|8,0:0|0:0,0:0:0:0:
204,192,89221,2,0,P|140:132|128:28,1,180
312,216,89721,2,0,P|332:348|292:408,1,180,8|0,0:0|0:0,0:0:0:0:
168,308,90221,1,0,0:0:0:0:
92,264,90388,2,0,P|20:256|-20:256,1,90,8|0,0:0|0:0,0:0:0:0:
140,184,90721,1,0,0:0:0:0:
140,184,90805,1,0,0:0:0:0:
140,184,90888,1,0,0:0:0:0:
224,232,91055,2,0,P|312:216|356:176,1,135,8|0,0:0|0:0,0:0:0:0:
345,188,91388,6,0,P|356:240|348:288,1,90,4|0,0:0|0:0,0:0:0:0:
292,116,91721,2,0,P|268:164|260:212,1,90,8|0,0:0|0:0,0:0:0:0:
412,32,92055,2,0,P|444:136|428:204,1,180,0|8,0:0|0:0,0:0:0:0:
292,116,92555,2,0,P|208:100|120:152,1,180
100,64,93055,2,0,P|36:64|0:56,1,90,8|0,0:0|0:0,0:0:0:0:
156,212,93388,2,0,P|160:276|148:316,1,90
340,192,93721,2,0,P|420:164|528:196,1,180,8|0,0:0|0:0,0:0:0:0:
288,116,94221,5,0,0:0:0:0:
288,116,94305,1,0,0:0:0:0:
288,116,94388,2,0,L|412:124,1,90,8|0,0:0|0:0,0:0:0:0:
220,64,94721,2,0,B|244:28|280:20|280:20|394:30,1,180,0|8,0:0|0:0,0:0:0:0:
148,116,95221,2,0,P|140:60|152:8,1,90
220,180,95555,2,0,P|224:240|212:280,1,90,0|8,0:0|0:0,0:0:0:0:
184,352,95888,2,0,P|280:312|360:356,1,180
396,264,96388,2,0,P|448:256|496:252,1,90,8|0,0:0|0:0,0:0:0:0:
312,108,96721,6,0,P|324:176|324:224,1,90,4|0,0:0|0:0,0:0:0:0:
136,288,97055,2,0,P|124:220|124:172,1,90,8|0,0:0|0:0,0:0:0:0:
216,124,97388,2,0,B|228:192|228:192|224:236|224:236|236:308,1,180,0|8,0:0|0:0,0:0:0:0:
128,92,97888,2,0,P|204:40|300:76,1,180
288,160,98388,1,8,0:0:0:0:
372,216,98555,2,0,P|472:204|516:120,1,180
252,216,99055,2,0,P|248:264|256:308,1,90,8|0,0:0|0:0,0:0:0:0:
296,28,99388,2,0,P|336:50|376:90,1,90,0|0,0:0|0:0,0:0:0:0:
192,160,99721,6,0,B|219:118|256:99|256:99|307:123|334:169,1,180,12|0,0:0|0:0,0:0:0:0:
144,232,100221,2,0,P|92:240|36:228,1,90,0|0,0:0|0:0,0:0:0:0:
228,236,100555,2,0,P|248:292|252:352,1,90,8|0,0:0|0:0,0:0:0:0:
144,232,100888,1,0,0:0:0:0:
316,232,101055,2,0,B|388:208|412:256|508:224,1,180,8|0,0:0|0:0,0:0:0:0:
264,160,101555,2,0,P|204:152|160:152,2,90
360,136,102055,1,4,0:0:0:0:
66,123,112721,6,0,L|150:115,1,67.5000025749208,4|0,0:0|0:0,0:0:0:0:
214,107,113055,1,8,0:2:0:0:
109,230,113388,1,0,0:0:0:0:
214,107,113721,2,0,L|301:99,1,67.5000025749208,8|0,0:2|0:0,0:0:0:0:
352,60,114055,6,0,P|378:122|360:202,1,135.000005149842,0|8,0:0|0:2,0:0:0:0:
367,187,114555,2,0,L|231:202,1,135.000005149842
153,212,115055,1,8,0:2:0:0:
30,106,115388,5,0,0:0:0:0:
174,33,115721,1,8,0:2:0:0:
86,169,116055,1,0,0:0:0:0:
174,33,116388,2,0,L|246:37,1,67.5000025749208,8|0,0:2|0:0,0:0:0:0:
331,92,116721,6,0,L|417:97,1,67.5000025749208,0|0,1:0|0:0,0:0:0:0:
437,202,117055,1,0,0:0:0:0:
324,181,117221,2,2,P|291:220|285:284,1,90,0|2,0:0|0:0,0:0:0:0:
353,348,117555,1,8,0:0:0:0:
375,320,117638,1,0,0:0:0:0:
376,284,117721,1,8,0:0:0:0:
231,162,117888,6,2,P|174:158|51:207,1,180,12|10,0:2|0:2,0:0:0:0:
207,348,118388,1,10,0:0:0:0:
114,300,118555,1,2,0:2:0:0:
261,263,118721,2,0,P|314:267|373:284,1,90,12|10,0:2|0:2,0:0:0:0:
455,356,119055,1,8,0:0:0:0:
355,185,119221,6,2,P|313:269|303:363,1,180,12|10,0:2|0:2,0:0:0:0:
142,104,119721,2,0,P|128:57|117:-15,1,90,10|2,0:0|0:2,0:0:0:0:
130,211,120055,2,0,P|81:203|21:195,1,90,12|8,0:2|0:0,0:0:0:0:
227,159,120388,1,8,0:0:0:0:
228,272,120555,6,2,B|161:301|161:301|146:328|146:328|69:366,1,180,12|10,0:2|0:2,0:0:0:0:
227,159,121055,1,10,0:0:0:0:
326,191,121221,2,0,P|357:230|384:383,1,180,6|14,0:2|0:2,0:0:0:0:
227,159,121721,1,0,0:0:0:0:
310,85,121888,6,2,P|375:96|436:100,1,90,12|0,0:2|0:2,0:0:0:0:
202,299,122221,2,2,P|137:288|76:284,1,90,10|10,0:2|0:0,0:0:0:0:
272,221,122555,1,6,0:2:0:0:
317,355,122721,1,14,0:2:0:0:
425,243,122888,1,10,0:0:0:0:
425,243,122971,1,8,0:0:0:0:
425,243,123055,1,8,0:0:0:0:
272,179,123221,1,10,0:0:0:0:
195,326,123388,6,0,P|133:336|60:290,1,135,0|0,0:0|1:2,0:0:0:0:
70,303,123721,2,0,L|79:200,1,90,8|0,0:0|2:0,0:0:0:0:
191,177,124055,2,0,L|200:74,1,90,8|0,0:0|2:0,0:0:0:0:
307,257,124388,2,0,L|316:154,1,90,8|0,0:0|2:0,0:0:0:0:
428,131,124721,2,0,L|437:28,1,90,8|0,0:0|2:0,0:0:0:0:
249,24,125055,5,8,0:0:0:0:
134,156,125221,1,0,1:0:0:0:
134,156,125305,1,0,1:0:0:0:
134,156,125388,2,0,P|184:140|224:143,1,90,8|0,0:0|2:0,0:0:0:0:
380,200,125721,2,0,P|330:216|290:213,1,90,8|0,0:0|0:0,0:0:0:0:
294,213,125971,1,0,0:0:0:0:
294,213,126055,5,8,0:0:0:0:
196,228,126221,1,0,0:0:0:0:
334,306,126388,2,0,P|387:320|436:328,1,90,8|0,0:0|2:0,0:0:0:0:
175,108,126721,2,0,P|122:94|73:86,1,90,8|0,0:0|0:0,0:0:0:0:
196,228,127055,1,8,0:0:0:0:
315,65,127221,6,0,P|381:90|443:201,1,180,4|8,0:0|0:0,0:0:0:0:
122,211,127721,2,0,L|139:104,1,90,8|0,0:0|0:0,0:0:0:0:
308,239,128055,1,4,0:0:0:0:
303,256,128138,1,0,0:2:0:0:
299,273,128221,1,0,0:2:0:0:
295,290,128305,1,0,0:2:0:0:
291,307,128388,1,4,0:0:0:0:
422,200,128555,6,0,P|422:128|384:-1,1,180,12|10,0:2|0:2,0:0:0:0:
157,152,129055,2,0,P|207:174|256:202,1,90,8|2,0:0|0:2,0:0:0:0:
422,200,129388,2,0,P|379:217|328:243,1,90,12|10,0:2|0:2,0:0:0:0:
171,250,129721,1,8,0:0:0:0:
243,96,129888,6,0,B|257:167|257:167|248:193|248:193|265:276,1,180,12|10,0:2|0:2,0:0:0:0:
300,356,130388,1,8,0:0:0:0:
374,193,130555,1,2,0:2:0:0:
374,193,130638,1,0,0:0:0:0:
374,193,130721,2,0,P|370:246|368:296,1,90,12|8,0:2|0:0,0:0:0:0:
322,64,131055,1,8,0:0:0:0:
208,132,131221,6,0,P|142:172|21:172,1,180,12|10,0:2|0:2,0:0:0:0:
122,73,131721,1,8,0:0:0:0:
271,198,131888,2,0,P|316:255|327:388,1,180,6|14,0:2|0:2,0:0:0:0:
348,130,132388,1,8,0:0:0:0:
203,93,132555,6,0,P|159:104|115:113,1,90,12|0,0:2|0:2,0:2:0:0:
316,276,132888,2,0,L|403:255,1,90,10|8,0:2|0:0,0:2:0:0:
240,213,133221,1,6,0:2:0:0:
214,362,133388,1,12,0:2:0:0:
155,176,133555,1,8,0:0:0:0:
155,176,133638,1,0,0:0:0:0:
155,176,133721,1,8,0:0:0:0:
357,139,133888,1,8,0:0:0:0:
357,139,133971,1,0,0:0:0:0:
357,139,134055,6,0,P|336:80|249:41,1,135,4|2,0:0|1:2,0:0:0:0:
276,42,134388,2,0,P|223:49|165:51,1,90,8|10,0:0|0:2,0:0:0:0:
16,112,134721,2,0,P|64:116|117:134,1,90,8|10,0:0|0:2,0:0:0:0:
262,232,135055,2,0,P|212:219|165:181,1,90,12|10,0:0|0:2,0:0:0:0:
347,57,135388,6,0,P|363:107|341:194,1,135,12|2,0:0|1:2,0:0:0:0:
346,185,135721,2,0,P|341:238|354:290,1,90,8|10,0:0|0:2,0:0:0:0:
512,246,136055,2,0,P|463:223|399:220,1,90,8|10,0:0|0:2,0:0:0:0:
276,337,136388,1,12,0:0:0:0:
276,337,136555,1,10,0:2:0:0:
125,279,136721,6,0,P|116:232|102:131,1,135,12|2,0:0|0:2,0:0:0:0:
103,145,137055,2,0,P|158:141|201:133,1,90,8|10,0:0|0:2,0:0:0:0:
379,252,137388,1,0,0:0:0:0:
382,229,137471,1,0,0:0:0:0:
385,206,137555,1,0,0:0:0:0:
389,183,137638,1,0,0:0:0:0:
393,161,137721,1,0,0:0:0:0:
397,139,137805,1,0,0:0:0:0:
401,116,137888,6,2,P|354:63|238:69,1,180,0|2,0:0|0:0,0:0:0:0:
124,192,138388,1,2,0:0:0:0:
254,302,138555,1,0,0:2:0:0:
182,118,138721,1,4,0:2:0:0:
108,32,144721,6,0,L|96:120,1,67.5000025749208,2|0,0:0|0:0,0:0:0:0:
44,168,145055,1,0,0:0:0:0:
320,172,145221,6,0,L|308:260,1,67.5000025749208,2|0,0:0|0:0,0:0:0:0:
256,308,145555,1,0,0:0:0:0:
216,100,145721,6,0,L|204:188,1,67.5000025749208,2|0,0:0|0:0,0:0:0:0:
152,236,146055,1,0,0:0:0:0:
432,224,146221,6,0,L|420:312,1,67.5000025749208,2|0,0:0|0:0,0:0:0:0:
368,360,146555,1,0,0:0:0:0:
180,256,146721,6,0,P|120:240|92:236,1,67.5000025749208,2|0,0:0|0:0,0:0:0:0:
324,148,147055,2,0,P|368:144|408:132,1,67.5000025749208,2|0,0:0|0:0,0:0:0:0:
256,200,147388,5,0,1:0:0:0:
256,200,147555,1,0,1:0:0:0:
196,128,147721,2,0,L|104:116,1,76.5000014591217
328,260,148055,2,0,L|408:272,1,76.5000014591217
156,216,148388,2,0,L|56:212,1,90,8|0,0:0|0:0,0:0:0:0:
372,172,148721,6,0,L|468:168,1,90,8|0,0:0|0:0,0:0:0:0:
200,296,149055,2,0,L|88:312,1,99.0000030212403,12|0,0:0|0:0,0:0:0:0:
328,320,149388,1,0,0:0:0:0:
356,320,149471,1,0,0:0:0:0:
384,320,149555,1,0,0:0:0:0:
412,308,149638,1,0,0:0:0:0:
440,308,149721,1,8,0:0:0:0:
452,280,149805,1,8,0:0:0:0:
464,252,149888,1,8,0:0:0:0:
476,224,149971,1,8,0:0:0:0:
488,196,150055,6,0,P|500:132|496:92,1,99.0000030212403,4|0,0:0|0:0,0:0:0:0:
388,64,150388,1,8,0:0:0:0:
248,168,150555,2,0,P|320:204|424:144,1,198.000006042481
264,76,151055,1,8,0:0:0:0:
164,116,151221,6,0,P|146:229|162:309,1,198.000006042481,4|0,0:0|0:0,0:0:0:0:
264,76,151721,2,0,P|272:144|268:204,1,99.0000030212403,8|0,0:0|0:0,0:0:0:0:
364,196,152055,2,0,P|392:144|416:108,1,99.0000030212403
512,260,152388,2,0,P|448:268|412:268,1,99.0000030212403,8|0,0:0|0:0,0:0:0:0:
192,200,152721,6,0,P|272:204|320:220,1,99.0000030212403
180,344,153055,2,0,P|96:332|32:232,1,198.000006042481,8|0,0:0|0:0,0:0:0:0:
260,324,153555,1,0,0:0:0:0:
336,360,153721,2,0,L|456:372,1,99.0000030212403,8|0,0:0|0:0,0:0:0:0:
320,208,154055,6,0,L|280:300,1,99.0000030212403
212,60,154388,2,0,B|256:148|256:148|208:260,1,198.000006042481,8|0,0:0|0:0,0:0:0:0:
276,8,154888,2,0,L|332:116,1,99.0000030212403,0|8,0:0|0:0,0:0:0:0:
140,20,155221,1,0,0:0:0:0:
140,20,155305,1,0,0:0:0:0:
140,20,155388,6,0,P|68:80|48:188,1,198.000006042481,4|8,0:0|0:0,0:0:0:0:
324,308,155888,2,0,L|327:209,1,99.0000030212403
172,128,156221,2,0,L|168:226,1,99.0000030212403
432,300,156555,6,12,P|492:212|488:112,1,198.000006042481,12|0,0:0|0:0,0:0:0:0:
196,296,157055,2,0,P|100:300|76:296,1,99.0000030212403,8|0,0:0|0:0,0:0:0:0:
316,168,157388,2,0,P|380:208|404:232,1,99.0000030212403
176,192,157721,2,0,P|112:152|72:32,1,198.000006042481,8|0,0:0|0:0,0:0:0:0:
248,136,158221,5,0,0:0:0:0:
320,220,158388,2,0,P|332:272|336:328,1,99.0000030212403,8|0,0:0|0:0,0:0:0:0:
408,148,158721,2,0,P|400:92|400:36,1,99.0000030212403,8|0,0:0|0:0,0:0:0:0:
428,244,159055,1,0,0:0:0:0:
312,124,159221,6,0,P|188:104|108:144,1,198.000006042481,8|0,0:0|0:0,0:0:0:0:
348,240,159721,2,0,P|424:220|460:192,1,99.0000030212403,8|0,0:0|0:0,0:0:0:0:
260,204,160055,1,8,0:0:0:0:
236,220,160138,1,8,0:0:0:0:
212,236,160221,1,8,0:0:0:0:
188,252,160305,1,8,0:0:0:0:
164,268,160388,1,0,0:0:0:0:
140,284,160471,1,0,0:0:0:0:
116,300,160555,1,0,0:0:0:0:
26,163,160721,6,0,P|84:159|139:181,1,99.0000030212403,4|4,1:1|0:0,0:0:0:0:
342,70,161055,2,0,P|294:102|247:105,1,99.0000030212403,8|4,0:0|0:0,0:0:0:0:
24,70,161388,1,4,0:0:0:0:
97,122,161555,2,0,P|123:155|134:210,1,99.0000030212403,4|8,0:0|0:0,0:0:0:0:
400,130,161888,6,0,P|322:182|203:181,1,198.000006042481,4|4,1:1|0:0,0:0:0:0:
25,287,162388,2,0,P|86:266|181:266,1,148.50000453186,8|4,0:0|0:0,0:0:0:0:
169,263,162721,2,0,P|185:320|187:362,1,99.0000030212403,4|8,0:0|0:0,0:0:0:0:
75,183,163055,2,0,P|76:134|88:74,1,99.0000030212403,8|4,0:0|0:0,0:0:0:0:
281,142,163388,6,0,P|226:146|175:171,1,99.0000030212403,4|4,0:0|0:0,0:0:0:0:
336,70,163721,2,0,P|386:88|491:76,1,148.50000453186,8|4,0:0|0:0,0:0:0:0:
479,80,164055,2,0,P|500:132|507:178,1,99.0000030212403,4|4,0:0|0:0,0:0:0:0:
421,255,164388,1,8,0:0:0:0:
265,320,164555,6,0,B|367:290|355:377|465:344,1,198.000006042481,4|4,1:2|0:0,0:0:0:0:
296,207,165055,2,0,P|234:203|158:268,1,148.50000453186,8|4,0:0|0:0,0:0:0:0:
166,251,165388,2,0,P|113:268|58:267,1,99.0000030212403,4|8,0:0|0:0,0:0:0:0:
51,85,165721,2,0,P|95:118|118:166,1,99.0000030212403,8|4,0:0|0:0,0:0:0:0:
115,156,165971,1,4,0:0:0:0:
115,156,166055,5,4,1:1:0:0:
223,164,166221,1,4,0:0:0:0:
439,83,166388,2,0,P|378:60|284:89,1,148.50000453186,8|4,0:0|0:0,0:0:0:0:
298,78,166721,2,0,P|314:131|318:185,1,99.0000030212403,4|4,0:0|0:0,0:0:0:0:
215,346,167055,2,0,P|246:292|278:258,1,99.0000030212403,8|4,0:0|0:0,0:0:0:0:
190,50,167388,6,0,P|170:107|164:162,1,99.0000030212403,4|4,0:0|0:0,0:0:0:0:
132,280,167721,2,0,P|97:232|9:193,1,148.50000453186,8|4,0:0|0:0,0:0:0:0:
18,194,168055,2,0,P|38:136|51:86,1,99.0000030212403,4|8,0:0|0:0,0:0:0:0:
190,50,168388,2,0,P|197:108|213:167,1,99.0000030212403,8|4,0:0|0:0,0:0:0:0:
274,262,168721,5,4,0:0:0:0:
274,262,168888,1,4,0:0:0:0:
366,196,169055,2,0,P|427:185|481:182,1,99.0000030212403,8|4,0:0|0:0,0:0:0:0:
304,113,169388,2,0,P|254:104|202:83,1,99.0000030212403,4|8,0:0|0:0,0:0:0:0:
152,185,169721,1,4,0:0:0:0:
18,324,169888,6,0,L|219:291,1,198.000006042481,4|4,1:2|0:0,0:0:0:0:
467,151,170388,2,0,P|395:166|319:169,1,148.50000453186,8|4,0:0|0:0,0:0:0:0:
319,169,170721,2,0,P|309:226|319:281,1,99.0000030212403,4|8,0:0|0:0,0:0:0:0:
319,286,170971,1,4,0:0:0:0:
327,304,171055,1,8,0:0:0:0:
502,269,171221,5,0,0:0:0:0:
502,269,171305,1,0,0:0:0:0:
502,269,171388,2,0,P|431:248|386:254,1,99.0000030212403,4|6,0:1|0:3,0:0:0:0:
141,337,171721,2,0,P|199:334|245:316,1,99.0000030212403,8|6,0:3|0:3,0:0:0:0:
441,161,172055,2,0,P|379:168|338:194,1,99.0000030212403,4|6,0:3|0:3,0:0:0:0:
253,212,172388,1,8,0:3:0:0:
25,147,172555,6,0,P|88:161|209:111,1,198.000006042481,4|8,0:1|0:2,0:0:0:0:
348,222,173055,2,0,P|305:207|253:212,1,99.0000030212403,8|2,0:0|0:2,0:0:0:0:
88,317,173388,2,0,P|143:304|183:272,1,99.0000030212403,8|10,0:2|0:2,0:0:0:0:
282,124,173721,2,0,L|300:18,1,99.0000030212403,8|2,0:0|0:2,0:0:0:0:
482,138,174055,5,4,0:3:0:0:
442,228,174221,1,6,0:3:0:0:
350,266,174388,2,0,P|342:318|338:376,1,99.0000030212403,8|6,0:3|0:3,0:0:0:0:
134,282,174721,2,0,P|121:232|115:175,1,99.0000030212403,4|6,0:3|0:3,0:0:0:0:
154,93,175055,1,8,0:3:0:0:
288,39,175221,6,0,B|321:80|333:129|333:129|316:175|282:223,1,198.000006042481,4|4,0:1|0:3,0:0:0:0:
233,297,175721,1,8,0:0:0:0:
408,352,175888,2,0,P|405:293|416:246,1,99.0000030212403,0|8,0:0|0:0,0:0:0:0:
418,235,176138,1,8,0:0:0:0:
426,217,176221,1,8,0:0:0:0:
436,200,176305,1,8,0:0:0:0:
448,184,176388,1,8,0:0:0:0:
461,169,176471,1,2,0:2:0:0:
475,155,176555,1,2,0:2:0:0:
349,24,176721,6,0,P|364:79|385:132,1,99.0000030212403,4|0,0:1|0:3,0:0:0:0:
493,290,177055,1,8,0:0:0:0:
493,290,177388,1,8,0:0:0:0:
423,252,177721,1,8,0:0:0:0:
348,278,178055,5,8,0:0:0:0:
296,338,178388,1,8,0:0:0:0:
216,341,178721,1,8,0:0:0:0:
159,285,179055,1,8,0:0:0:0:
35,51,179388,6,0,P|64:97|82:154,1,99.0000030212403
159,285,179721,2,0,P|182:233|196:183,1,99.0000030212403
78,138,180055,2,0,P|35:174|9:214,1,99.0000030212403
303,179,180388,2,0,P|361:169|412:152,1,99.0000030212403
481,96,180721,5,8,0:0:0:0:
481,96,180888,1,8,0:0:0:0:
430,246,181055,5,8,0:0:0:0:
430,246,181221,1,8,0:0:0:0:
334,88,181388,5,8,0:0:0:0:
334,88,181555,1,8,0:0:0:0:
269,282,181721,5,8,0:0:0:0:
269,282,181888,1,8,0:0:0:0:
268,256,193221,5,0,0:0:0:0:
224,148,193388,1,0,0:0:0:0:
376,216,193555,1,0,0:0:0:0:
136,192,193721,1,8,0:0:0:0:
352,120,193888,6,0,P|440:108|512:208,1,207.000003948212,6|0,0:0|0:0,0:0:0:0:
264,168,194388,2,0,P|252:100|248:40,1,103.500001974106,14|0,0:0|0:0,0:0:0:0:
360,228,194721,2,0,P|352:288|336:340,1,103.500001974106,4|0,0:2|0:0,0:0:0:0:
180,248,195055,1,8,0:0:0:0:
136,152,195221,6,0,P|104:76|-8:8,1,207.000003948212,6|0,0:2|0:0,0:0:0:0:
232,116,195721,2,0,P|296:136|352:144,1,103.500001974106,12|0,0:2|0:0,0:0:0:0:
504,72,196055,2,0,P|444:80|384:104,1,103.500001974106,4|0,0:2|0:0,0:0:0:0:
260,240,196388,1,8,0:0:0:0:
180,316,196555,6,0,P|60:312|-8:240,1,207.000003948212,6|0,0:0|0:0,0:0:0:0:
260,240,197055,2,0,P|320:264|356:296,1,103.500001974106,8|0,0:0|0:0,0:0:0:0:
164,224,197388,2,0,P|136:164|120:104,1,103.500001974106,4|0,0:2|0:0,0:0:0:0:
260,240,197721,1,8,0:0:0:0:
396,88,197888,6,0,P|456:125|508:274,1,207.000003948212,4|0,0:0|0:0,0:0:0:0:
280,112,198388,2,0,P|208:108|160:112,1,103.500001974106,8|0,0:0|0:0,0:0:0:0:
308,292,198721,2,0,P|312:232|332:168,1,103.500001974106
368,356,199055,1,0,0:0:0:0:
368,356,199388,6,0,P|260:308|164:336,1,207.000003948212,4|8,0:0|0:0,0:0:0:0:
88,360,199888,1,0,0:0:0:0:
320,236,200055,2,0,P|388:224|432:212,1,90,8|0,0:0|0:0,0:0:0:0:
192,168,200388,2,0,P|144:160|92:144,1,90,8|0,0:0|0:0,0:0:0:0:
360,144,200721,6,0,P|408:116|452:96,1,90,8|0,0:0|0:0,0:0:0:0:
104,240,201055,2,0,P|68:296|44:328,1,90,8|0,0:0|0:0,0:0:0:0:
272,92,201388,2,0,P|272:24|268:-28,1,90,8|0,0:0|0:0,0:0:0:0:
236,236,201721,1,8,0:0:0:0:
372,204,201888,1,0,0:0:0:0:
184,144,202055,6,0,P|136:116|88:96,1,90
312,268,202388,2,0,P|320:332|320:364,1,90,8|8,0:0|0:0,0:0:0:0:
372,112,202721,2,0,P|404:76|432:40,1,90,8|0,0:0|0:0,0:0:0:0:
296,176,203055,1,0,0:0:0:0:
276,84,203221,5,0,0:0:0:0:
276,84,203305,1,0,0:0:0:0:
276,84,203388,1,0,0:0:0:0:
392,208,203555,1,8,0:0:0:0:
216,244,203721,5,0,0:0:0:0:
184,240,203805,1,0,0:0:0:0:
152,240,203888,1,0,0:0:0:0:
120,248,203971,1,0,0:0:0:0:
92,260,204055,1,0,0:0:0:0:
72,284,204138,1,0,0:0:0:0:
52,260,204221,1,0,0:0:0:0:
40,232,204305,1,0,0:0:0:0:
36,200,204388,1,0,0:0:0:0:
40,168,204471,1,0,0:0:0:0:
52,136,204555,1,0,0:0:0:0:
72,112,204638,1,0,0:0:0:0:
100,96,204721,6,0,P|164:108|264:24,1,180,4|8,0:2|0:0,0:0:0:0:
288,164,205221,2,0,P|280:212|280:268,1,90
464,296,205555,2,0,P|472:248|472:192,1,90,0|8,0:0|0:0,0:0:0:0:
376,144,205888,2,0,B|372:196|372:196|384:232|368:272|368:272|364:328,1,180
224,348,206388,2,0,P|148:344|116:328,1,90,8|0,0:0|0:0,0:0:0:0:
148,148,206721,2,0,P|168:212|172:252,1,90
56,140,207055,1,8,0:0:0:0:
80,48,207221,2,2,P|172:8|272:24,1,180,0|0,0:0|0:0,0:0:0:0:
244,112,207721,5,8,0:0:0:0:
336,168,207888,2,2,P|432:168|512:96,1,180,2|0,0:0|0:0,0:0:0:0:
256,204,208388,1,8,0:0:0:0:
176,256,208555,2,2,P|80:256|0:184,1,180,2|0,0:0|0:0,0:0:0:0:
256,204,209055,1,8,0:0:0:0:
320,260,209221,2,0,P|328:312|328:364,1,90,2|0,0:0|0:0,0:0:0:0:
183,349,209555,2,0,P|184:312|192:260,1,90,2|8,0:0|0:0,0:0:0:0:
416,296,209888,1,0,0:0:0:0:
416,296,209971,1,0,0:0:0:0:
416,296,210055,6,0,P|484:224|500:120,1,180,4|8,0:0|0:0,0:0:0:0:
352,200,210555,2,0,P|284:212|232:212,1,90
108,120,210888,2,0,P|176:128|228:144,1,90,0|8,0:0|0:0,0:0:0:0:
60,200,211221,2,0,P|12:272|0:364,1,180
140,232,211721,2,0,P|176:188|200:144,1,90,8|0,0:0|0:0,0:0:0:0:
276,260,212055,2,0,P|288:316|300:356,1,90
416,244,212388,1,8,0:0:0:0:
464,176,212555,6,0,P|504:84|488:-12,1,180
364,88,213055,2,0,P|276:76|244:72,1,90,8|0,0:0|0:0,0:0:0:0:
136,28,213388,1,0,0:0:0:0:
148,56,213471,1,0,0:0:0:0:
156,88,213555,1,0,0:0:0:0:
152,120,213638,1,0,0:0:0:0:
140,148,213721,1,8,0:0:0:0:
168,264,213888,2,0,P|118:227|6:243,1,180,4|0,0:0|0:0,0:0:0:0:
372,332,214388,2,0,P|392:276|400:244,1,90,8|0,0:0|0:0,0:0:0:0:
292,52,214721,5,0,0:0:0:0:
284,84,214805,1,0,0:0:0:0:
284,116,214888,1,0,0:0:0:0:
288,148,214971,1,0,0:0:0:0:
296,180,215055,1,0,0:0:0:0:
300,212,215138,1,0,0:0:0:0:
296,244,215221,1,0,0:0:0:0:
288,276,215305,1,0,0:0:0:0:
266,299,215388,6,2,P|161:328|72:257,1,215.999993408203,12|10,0:2|0:0,0:0:0:0:
421,232,215888,2,0,L|389:353,1,107.999996704102,0|8,0:0|0:2,0:0:0:0:
161,158,216221,2,0,L|193:37,1,107.999996704102,8|8,0:2|0:0,0:0:0:0:
476,97,216555,6,2,B|378:146|366:48|247:105,1,215.999993408203,8|8,0:2|0:2,0:0:0:0:
394,326,217055,2,0,P|409:275|402:212,1,107.999996704102,10|0,0:0|0:0,0:0:0:0:
182,49,217388,2,0,P|167:100|174:163,1,107.999996704102,8|8,0:2|0:2,0:0:0:0:
200,269,217721,1,8,0:0:0:0:
491,368,217888,6,2,P|506:317|499:254,1,107.999996704102,12|8,0:2|0:2,0:0:0:0:
455,153,218221,1,12,0:2:0:0:
306,273,218388,1,10,0:0:0:0:
213,198,218555,2,0,P|153:177|97:183,1,107.999996704102,0|8,0:0|0:2,0:0:0:0:
53,284,218888,1,8,0:2:0:0:
55,114,219055,1,8,0:0:0:0:
147,263,219221,6,2,P|225:268|343:178,1,215.999993408203,12|8,0:2|0:2,0:0:0:0:
366,59,219721,1,10,0:0:0:0:
500,243,219888,2,0,L|480:357,1,107.999996704102,0|8,0:0|0:2,0:0:0:0:
343,348,220221,1,10,0:0:0:0:
318,336,220305,1,0,0:0:0:0:
291,329,220388,1,8,0:0:0:0:
264,326,220471,1,0,0:0:0:0:
236,327,220555,1,10,0:0:0:0:
76,359,220721,6,2,P|54:278|147:164,1,215.999993408203,12|10,0:2|0:0,0:0:0:0:
334,157,221221,2,0,L|357:283,1,107.999996704102,0|8,0:0|0:2,0:0:0:0:
226,144,221555,2,0,L|203:18,1,107.999996704102,8|8,0:2|0:0,0:0:0:0:
441,250,221888,6,2,P|478:199|456:46,1,215.999993408203,8|8,0:2|0:2,0:0:0:0:
261,79,222388,2,0,L|147:97,1,107.999996704102,10|0,0:0|0:0,0:0:0:0:
70,353,222721,2,0,L|184:335,1,107.999996704102,8|8,0:2|0:2,0:0:0:0:
377,182,223055,2,0,L|263:200,1,107.999996704102,8|4,0:0|0:2,0:0:0:0:
41,92,223388,6,2,P|96:82|171:100,1,107.999996704102,6|12,0:0|0:2,0:0:0:0:
250,321,223721,2,2,P|195:331|120:313,1,107.999996704102,10|8,0:0|0:2,0:0:0:0:
221,213,224055,2,2,P|276:203|351:221,1,107.999996704102,14|8,0:0|0:2,0:0:0:0:
439,250,224388,1,10,0:0:0:0:
474,71,224555,1,8,0:2:0:0:
256,50,224721,5,12,0:0:0:0:
248,66,224805,1,8,0:0:0:0:
243,83,224888,1,8,0:0:0:0:
241,100,224971,1,8,0:0:0:0:
244,117,225055,1,8,0:0:0:0:
249,134,225138,1,0,0:0:0:0:
257,149,225221,1,8,0:0:0:0:
264,165,225305,1,0,0:0:0:0:
269,182,225388,1,8,0:2:0:0:
271,199,225471,1,8,0:2:0:0:
269,217,225555,1,8,0:2:0:0:
264,234,225638,1,8,0:2:0:0:
256,250,225721,1,4,0:3:0:0:
247,266,225805,1,4,0:3:0:0:
240,282,225888,1,4,0:3:0:0:
236,299,225971,1,4,0:3:0:0:
234,317,226055,6,2,P|194:367|68:349,2,180,12|8|8,1:0|1:0|1:0,0:0:0:0:
145,290,226888,1,2,0:0:0:0:
83,218,227055,2,0,P|86:145|97:36,1,180,8|8,1:0|1:0,0:0:0:0:
195,39,227555,1,2,0:0:0:0:
223,133,227721,1,8,1:0:0:0:
468,131,227888,6,2,P|463:76|451:24,1,90,8|8,0:2|1:0,0:0:0:0:
146,188,228221,2,2,P|141:245|142:289,1,90,8|8,0:2|1:0,0:0:0:0:
168,373,228555,1,8,0:2:0:0:
406,259,228721,6,2,L|306:250,1,90,12|10,1:0|0:2,0:0:0:0:
142,277,229055,2,0,L|254:292,1,90,8|2,1:0|0:0,0:0:0:0:
107,181,229388,2,0,P|56:225|67:348,2,180,8|8|8,1:0|1:0|1:0,0:0:0:0:
205,192,230221,1,2,0:0:0:0:
271,265,230388,1,8,1:0:0:0:
476,209,230555,6,2,P|486:150|485:106,1,90,8|8,0:2|1:0,0:0:0:0:
436,34,230888,1,8,1:0:0:0:
270,265,231055,2,2,P|271:323|281:369,2,90,8|4|0,1:0|0:1|2:0,0:0:0:0:
