osu file format v14

[General]
AudioFilename: neophobia.mp3
AudioLeadIn: 0
PreviewTime: 117180
Countdown: 0
SampleSet: Normal
StackLeniency: 1
Mode: 0
LetterboxInBreaks: 0
WidescreenStoryboard: 1

[Editor]
Bookmarks: 11388,80721,231388
DistanceSpacing: 0.5
BeatDivisor: 4
GridSize: 32
TimelineZoom: 1.9

[Metadata]
Title:neophobia
TitleUnicode:neophobia
Artist:nano
ArtistUnicode:ナノ
Creator:Kyouren
Version:KittyRen's Insane
Source:
Tags:n best album i jrock j-rock rock japanese english gokugohan12468 kittyadventure rlc Nyquill collab collaboration mocaotic eiri- ayyri annabel ryxliee renumi 伊藤直樹 Naoki Ito 伊藤 直樹 SKYNOK
BeatmapID:4140148
BeatmapSetID:1928493

[Difficulty]
HPDrainRate:5
CircleSize:3.8
OverallDifficulty:7
ApproachRate:8.5
SliderMultiplier:1.4
SliderTickRate:1

[Events]
//Background and Video events
Video,-16000,"video.mp4"
0,0,"LuluSeason.jpg",0,0
//Break Periods
2,32921,37046
2,43588,47213
2,103388,112046
2,139388,144046
2,183388,190713
//Storyboard Layer 0 (Background)
//Storyboard Layer 1 (Fail)
//Storyboard Layer 2 (Pass)
//Storyboard Layer 3 (Foreground)
//Storyboard Layer 4 (Overlay)
//Storyboard Sound Samples

[TimingPoints]
722,333.333333333333,4,1,1,50,1,0
11388,-100,4,2,1,50,0,0
20555,-142.857142857143,4,2,1,50,0,0
21055,-100,4,2,1,50,0,0
21388,-100,4,1,1,60,0,0
22055,-83.3333333333333,4,1,1,60,0,0
22221,-100,4,1,1,60,0,0
32721,-200,4,2,1,50,0,0
37888,-100,4,1,1,50,0,0
38221,-100,4,2,1,50,0,0
39221,-100,4,1,1,50,0,0
39555,-100,4,2,1,50,0,0
40555,-100,4,1,1,50,0,0
40888,-100,4,2,1,50,0,0
41888,-100,4,1,1,50,0,0
42221,-100,4,2,1,50,0,0
43388,-200,4,2,1,50,0,0
48221,-133.333333333333,4,2,1,50,0,0
48555,-83.3333333333333,4,1,1,60,0,0
70055,-90.9090909090909,4,1,1,50,0,0
79805,-100,4,1,1,20,0,0
79888,-100,4,1,1,25,0,0
80055,-100,4,1,1,30,0,0
80221,-100,4,1,1,35,0,0
80388,-100,4,1,1,40,0,0
80555,-100,4,1,1,45,0,0
80721,-100,4,1,1,40,0,0
91388,-100,4,1,1,50,0,0
112721,-133.333333333333,4,2,1,50,0,0
117055,-100,4,1,1,50,0,0
117888,-83.3333333333333,4,1,1,60,0,0
123638,-100,4,1,1,30,0,0
123721,-100,4,1,1,50,0,0
128555,-83.3333333333333,4,1,1,50,0,0
134055,-83.3333333333333,4,1,1,50,0,0
134305,-100,4,1,1,30,0,0
134388,-100,4,1,1,50,0,0
135638,-100,4,1,1,30,0,0
135721,-100,4,1,1,50,0,0
136971,-100,4,1,1,30,0,0
137055,-100,4,1,1,50,0,0
144721,-133.333333333333,4,2,0,50,0,0
147388,-117.647058823529,4,1,1,50,0,0
148721,-100,4,1,1,50,0,0
150055,-90.9090909090909,4,1,1,50,0,0
160721,-90.9090909090909,4,3,1,50,0,0
171221,-90.9090909090909,4,1,1,50,0,0
179388,-90.9090909090909,4,1,1,60,0,0
191388,-90.9090909090909,4,1,1,50,0,0
193888,-80,4,1,1,60,0,0
199388,-86.9565217391304,4,1,1,50,0,0
204721,-95.2380952380952,4,1,1,50,0,0
205888,-105.263157894737,4,1,1,50,0,0
206221,-95.2380952380952,4,1,1,50,0,0
226388,-100,4,2,1,50,0,0
227888,-100,4,1,1,50,0,0
229055,-100,4,2,1,50,0,0
230555,-100,4,1,1,50,0,0
231221,-100,4,1,1,50,0,0
231888,-100,4,1,1,5,0,0

[Colours]
Combo1 : 195,195,195
Combo2 : 255,75,75

[HitObjects]
115,51,11388,5,8,1:0:0:0:
110,217,11555,1,8,1:0:0:0:
115,51,13555,1,8,1:0:0:0:
397,51,13888,5,8,1:0:0:0:
402,217,14055,1,8,1:0:0:0:
397,51,14221,1,8,1:0:0:0:
402,217,15888,1,8,1:0:0:0:
397,51,16221,1,8,1:0:0:0:
195,243,16555,5,8,1:0:0:0:
49,301,16721,1,8,1:0:0:0:
195,243,16888,1,8,1:0:0:0:
49,301,18888,1,8,1:0:0:0:
317,243,19221,5,8,1:0:0:0:
463,301,19388,1,8,1:0:0:0:
317,243,19555,1,8,1:0:0:0:
463,301,20555,2,0,P|446:324|435:348,1,48.9999985046387,2|0,0:0|0:0,0:0:0:0:
417,179,20888,1,0,1:0:0:0:
237,353,21055,6,0,P|280:293|309:232,1,140,4|0,1:2|0:0,0:0:0:0:
304,114,21555,1,0,0:0:0:0:
276,82,21638,1,0,0:0:0:0:
239,64,21721,1,0,0:0:0:0:
197,63,21805,1,0,0:0:0:0:
159,81,21888,1,0,0:0:0:0:
118,85,21971,1,0,0:0:0:0:
79,71,22055,6,0,P|45:109|-1:197,1,125.999996154785,4|0,0:0|0:0,0:0:0:0:
11,224,22388,2,0,P|45:247|91:269,1,70,8|0,0:0|0:0,0:0:0:0:
186,311,22721,1,0,0:0:0:0:
149,176,22888,2,0,P|179:192|208:212,1,70,0|8,0:0|0:0,0:0:0:0:
303,324,23221,5,0,0:0:0:0:
303,324,23555,1,0,0:0:0:0:
344,197,23721,2,0,P|372:177|403:160,1,70,8|0,0:0|0:0,0:0:0:0:
413,269,24055,1,0,0:0:0:0:
314,182,24221,1,0,0:0:0:0:
401,65,24388,2,0,P|431:81|519:156,1,140,8|0,0:0|0:0,0:0:0:0:
512,148,24888,5,0,0:0:0:0:
470,308,25055,2,0,P|451:297|395:250,1,70,8|0,0:0|0:0,0:0:0:0:
326,143,25388,1,0,0:0:0:0:
326,143,25721,1,8,0:0:0:0:
212,78,25888,2,0,P|185:121|150:219,1,140
153,204,26388,1,8,0:0:0:0:
326,143,26555,2,0,P|360:183|382:219,1,70
384,302,26888,1,0,0:0:0:0:
472,220,27055,2,0,P|505:209|552:200,1,70,8|0,0:0|0:0,0:0:0:0:
376,323,27388,6,0,P|312:307|247:276,1,105,4|0,0:0|0:0,0:0:0:0:
238,277,27721,2,0,P|188:310|166:336,1,70,8|0,0:0|0:0,0:0:0:0:
54,333,28055,2,0,P|84:290|114:228,1,105
92,209,28388,1,8,0:0:0:0:
244,147,28555,1,0,0:0:0:0:
244,147,28888,2,0,P|221:115|204:80,1,70,0|8,0:0|0:0,0:0:0:0:
88,24,29221,2,0,P|57:39|29:60,2,70
268,24,29721,1,8,0:0:0:0:
130,123,29888,1,0,0:0:0:0:
344,95,30055,6,0,P|381:136|391:236,1,140,0|8,0:0|0:0,0:0:0:0:
395,217,30555,1,0,0:0:0:0:
464,121,30721,2,0,P|491:87|520:64,1,70
299,182,31055,2,0,P|265:189|209:188,1,70,8|0,0:0|0:0,0:0:0:0:
101,104,31388,2,0,P|80:133|49:182,1,70
52,297,31721,1,8,0:0:0:0:
128,115,31888,1,0,0:0:0:0:
207,295,32055,1,8,0:0:0:0:
207,295,32388,2,0,P|256:283|282:280,1,70
275,280,32721,5,6,0:0:0:0:
405,83,37721,5,8,1:0:0:0:
280,269,37888,2,2,P|275:202|295:119,1,140,12|8,2:2|0:2,0:0:0:0:
418,256,38388,2,0,P|457:275|487:297,1,70,2|0,1:0|0:0,0:0:0:0:
404,225,38721,2,0,P|443:244|473:266,1,70,8|10,0:2|0:2,0:0:0:0:
343,348,39055,5,2,1:2:0:0:
218,368,39221,2,2,P|147:333|93:294,1,140,8|8,2:2|0:2,0:0:0:0:
74,149,39721,2,0,P|42:161|-6:174,1,70,2|0,1:0|0:0,0:0:0:0:
103,168,40055,2,0,P|71:180|23:193,1,70,10|10,0:2|0:2,0:0:0:0:
172,34,40388,5,2,1:2:0:0:
251,122,40555,2,2,P|264:179|267:206,1,70,8|0,2:2|0:0,0:0:0:0:
405,171,40888,1,8,0:2:0:0:
405,171,41055,1,2,1:0:0:0:
279,300,41221,2,0,P|244:294|211:286,1,70,0|8,0:0|0:2,0:0:0:0:
75,181,41555,1,10,0:2:0:0:
266,191,41721,5,2,1:2:0:0:
98,282,41888,2,2,P|142:223|186:187,1,105,8|0,2:2|0:0,0:0:0:0:
184,164,42221,2,0,P|174:131|153:84,1,70,8|2,0:2|1:0,0:0:0:0:
54,62,42555,1,0,0:0:0:0:
254,64,42721,5,10,0:2:0:0:
293,99,42888,1,10,0:2:0:0:
342,114,43055,1,2,1:2:0:0:
396,103,43221,1,2,1:2:0:0:
338,27,43388,5,6,0:0:0:0:
441,188,47888,6,0,L|478:193,2,35,2|2|2,0:0|0:0|0:0,0:0:0:0:
31,192,48555,6,0,B|72:184|121:153|121:153|152:164|205:177,1,167.999994873047,4|0,0:0|0:0,0:0:0:0:
345,53,49055,2,0,P|305:42|242:34,1,83.9999974365235,8|0,0:0|0:0,0:0:0:0:
206,236,49388,2,0,P|238:189|276:156,1,83.9999974365235
394,161,49721,1,8,0:0:0:0:
242,329,49888,6,0,P|152:330|123:249,1,167.999994873047,4|0,0:0|0:0,0:0:0:0:
121,126,50388,1,8,0:0:0:0:
40,210,50555,1,0,0:0:0:0:
206,236,50721,1,0,0:0:0:0:
206,236,50888,2,0,P|246:231|288:219,1,83.9999974365235,0|8,0:0|0:0,0:0:0:0:
498,182,51221,6,0,P|444:165|334:96,1,167.999994873047,4|0,0:0|0:0,0:0:0:0:
188,31,51721,1,8,0:0:0:0:
173,153,51888,2,0,P|232:138|254:128,1,83.9999974365235
64,109,52221,2,0,P|48:147|39:188,1,83.9999974365235,0|8,0:0|0:0,0:0:0:0:
204,288,52555,6,0,P|235:210|252:129,1,167.999994873047,4|0,0:0|0:0,0:0:0:0:
329,5,53055,1,8,0:0:0:0:
371,187,53221,1,0,0:0:0:0:
391,85,53388,2,0,P|429:69|470:60,1,83.9999974365235
492,63,53638,1,0,0:0:0:0:
512,69,53721,1,0,0:0:0:0:
453,185,53888,1,0,0:0:0:0:
240,46,54055,5,4,0:0:0:0:
240,46,54388,2,0,P|180:39|139:36,1,83.9999974365235,8|0,0:0|0:0,0:0:0:0:
220,68,54721,2,0,P|160:61|119:58,1,83.9999974365235,8|0,0:0|2:0,0:0:0:0:
36,112,55055,1,8,0:0:0:0:
46,13,55221,1,0,2:0:0:0:
122,179,55388,5,8,0:0:0:0:
122,179,55721,2,0,P|125:220|130:262,1,83.9999974365235,8|0,0:0|2:0,0:0:0:0:
145,160,56055,2,0,P|148:201|153:243,1,83.9999974365235,8|0,0:0|2:0,0:0:0:0:
106,351,56388,1,8,0:0:0:0:
228,331,56555,1,0,2:0:0:0:
21,246,56721,5,8,0:0:0:0:
21,246,56888,1,0,2:0:0:0:
21,246,57055,2,0,P|48:198|73:169,1,83.9999974365235,8|0,0:0|2:0,0:0:0:0:
16,228,57388,2,0,P|43:180|68:151,1,83.9999974365235,8|0,0:0|0:0,0:0:0:0:
280,139,57721,1,0,0:0:0:0:
81,49,57888,6,0,P|123:83|196:181,1,167.999994873047,4|0,0:0|0:0,0:0:0:0:
390,255,58388,2,0,P|335:230|275:222,1,83.9999974365235,8|0,0:0|0:0,0:0:0:0:
106,342,58721,1,0,0:0:0:0:
183,205,58888,1,8,0:0:0:0:
183,205,58971,1,8,0:0:0:0:
183,205,59055,1,0,0:0:0:0:
271,384,59221,6,0,B|285:338|278:299|278:299|286:265|324:209,1,167.999994873047,4|0,0:0|0:0,0:0:0:0:
460,113,59721,2,0,P|482:149|511:245,1,125.999996154785,8|0,0:0|0:0,0:0:0:0:
496,277,60055,1,0,0:0:0:0:
399,201,60221,1,0,0:0:0:0:
372,311,60388,1,8,0:0:0:0:
399,201,60555,6,0,P|321:198|234:160,1,167.999994873047
171,80,61055,1,8,0:0:0:0:
134,221,61221,1,0,0:0:0:0:
54,69,61388,1,0,0:0:0:0:
54,69,61555,2,0,P|73:32|99:0,1,83.9999974365235,0|8,0:0|0:0,0:0:0:0:
86,181,61888,6,0,P|105:240|161:335,1,167.999994873047
230,219,62388,1,8,0:0:0:0:
88,264,62555,2,0,P|49:302|28:341,1,83.9999974365235
173,148,62888,2,0,P|191:92|193:56,1,83.9999974365235,0|8,0:0|0:0,0:0:0:0:
228,244,63221,6,0,B|283:260|314:263|314:263|351:253|401:259,1,167.999994873047
482,191,63721,1,12,0:0:0:0:
455,353,63888,1,0,0:0:0:0:
334,137,64055,1,0,0:0:0:0:
334,137,64388,2,0,P|281:137|219:142,1,83.9999974365235
6,84,64721,6,0,P|65:84|135:78,1,125.999996154785,12|0,0:0|0:0,0:0:0:0:
163,105,65055,2,0,P|134:148|106:179,1,83.9999974365235,8|0,0:0|0:0,0:0:0:0:
176,129,65388,2,0,P|147:172|119:203,1,83.9999974365235,8|0,0:0|0:0,0:0:0:0:
102,313,65721,1,8,0:0:0:0:
11,256,65888,1,0,0:0:0:0:
208,288,66055,5,8,0:0:0:0:
208,288,66388,2,0,P|237:245|265:214,1,83.9999974365235,8|0,0:0|0:0,0:0:0:0:
195,264,66721,2,0,P|224:221|252:190,1,83.9999974365235,8|0,0:0|0:0,0:0:0:0:
330,146,67055,1,8,0:0:0:0:
431,158,67221,1,0,0:0:0:0:
262,66,67388,5,8,0:0:0:0:
262,66,67555,1,0,0:0:0:0:
262,66,67721,2,0,P|228:42|182:18,1,83.9999974365235,8|4,0:0|0:2,0:0:0:0:
0,155,68055,2,0,P|62:136|92:136,1,83.9999974365235,0|8,0:0|0:0,0:0:0:0:
102,142,68305,1,8,0:0:0:0:
120,155,68388,1,0,0:0:0:0:
313,145,68555,5,12,0:0:0:0:
313,145,68888,1,8,0:0:0:0:
292,50,69055,1,8,0:0:0:0:
405,181,69221,1,8,0:0:0:0:
261,216,69388,1,8,0:0:0:0:
261,216,70055,6,0,P|247:269|243:349,1,115.50000352478,12|0,0:2|0:0,0:0:0:0:
210,356,70388,2,0,P|155:328|127:323,1,77.0000023498536,8|0,0:0|0:0,0:0:0:0:
49,192,70721,1,8,0:2:0:0:
141,215,70888,1,0,0:0:0:0:
0,286,71055,1,8,0:0:0:0:
49,192,71221,2,0,P|74:145|142:71,1,154.000004699707,8|8,0:2|0:2,0:0:0:0:
290,62,71721,2,0,P|317:103|333:135,1,77.0000023498536,8|0,0:0|0:0,0:0:0:0:
440,189,72055,1,8,0:2:0:0:
419,85,72221,1,8,0:2:0:0:
294,225,72388,1,8,0:0:0:0:
294,225,72721,6,0,P|267:184|251:152,1,77.0000023498536,8|8,0:2|0:2,0:0:0:0:
157,228,73055,1,8,0:0:0:0:
271,323,73221,2,0,P|313:321|356:310,2,77.0000023498536,8|8|8,0:2|0:2|0:2,0:0:0:0:
142,267,73721,1,8,0:0:0:0:
294,225,73888,2,0,P|387:204|482:200,1,154.000004699707,8|8,0:2|0:2,0:0:0:0:
459,301,74388,1,8,0:0:0:0:
365,182,74555,1,0,0:0:0:0:
365,182,74638,1,0,0:0:0:0:
365,182,74721,1,8,0:2:0:0:
434,84,74888,1,8,0:0:0:0:
269,97,75055,2,0,P|258:54|254:11,1,77.0000023498536,8|0,0:0|0:0,0:0:0:0:
239,214,75388,6,0,P|161:255|124:271,1,115.50000352478,12|0,0:2|0:0,0:0:0:0:
87,267,75721,2,0,P|44:243|7:219,1,77.0000023498536,8|0,0:0|0:0,0:0:0:0:
215,314,76055,2,0,P|249:367|262:391,1,77.0000023498536,8|0,0:2|0:0,0:0:0:0:
239,214,76388,1,8,0:0:0:0:
239,214,76555,2,0,P|346:157|397:135,1,154.000004699707,8|8,0:2|0:2,0:0:0:0:
512,52,77055,2,0,P|488:46|404:39,1,77.0000023498536,8|0,0:0|0:0,0:0:0:0:
236,53,77388,1,8,0:2:0:0:
347,2,77555,1,8,0:2:0:0:
376,144,77721,2,0,P|337:139|300:131,1,77.0000023498536,8|0,0:0|0:0,0:0:0:0:
105,73,78055,5,8,0:2:0:0:
105,73,78221,1,8,0:2:0:0:
181,232,78388,2,0,P|199:191|214:152,1,77.0000023498536,12|8,0:0|0:2,0:0:0:0:
393,221,78721,1,8,0:2:0:0:
268,276,78888,2,0,P|282:311|297:347,1,77.0000023498536,8|8,0:0|0:2,0:0:0:0:
476,290,79221,1,8,0:2:0:0:
442,130,79388,6,0,P|370:121|346:120,2,77.0000023498536,12|0|4,0:0|0:0|0:2,0:0:0:0:
313,253,79888,2,0,P|281:250|250:245,1,35,0|0,0:2|0:2,0:0:0:0:
248,282,80055,1,12,0:2:0:0:
234,249,80138,1,8,0:2:0:0:
213,221,80221,1,8,0:2:0:0:
187,198,80305,1,8,0:2:0:0:
150,181,80388,2,0,P|132:176|99:171,1,35,4|8,0:2|0:1,0:0:0:0:
44,96,80555,2,0,P|26:97|9:101,1,35,8|8,0:1|0:1,0:0:0:0:
9,100,80721,6,0,P|70:104|93:27,1,140,4|8,0:2|0:0,0:0:0:0:
150,181,81221,2,0,L|218:168,1,70,0|8,0:0|0:2,0:0:0:0:
325,85,81555,2,0,L|256:72,1,70,0|8,0:0|0:0,0:0:0:0:
295,215,81888,6,0,B|378:198|349:221|433:199,1,140
325,85,82388,2,0,P|359:80|393:72,1,70
469,124,82721,1,0,0:0:0:0:
469,124,82888,1,0,0:0:0:0:
295,215,83055,2,0,L|306:284,1,70,8|0,0:0|0:0,0:0:0:0:
255,355,83388,6,0,P|223:340|188:335,1,70
380,380,83721,2,0,L|392:240,1,140,8|0,0:0|0:0,0:0:0:0:
214,174,84221,1,0,0:0:0:0:
214,174,84388,1,8,0:0:0:0:
267,43,84555,6,0,P|270:77|274:112,1,70
120,145,84888,2,0,P|123:179|127:214,1,70
30,115,85221,2,0,P|39:184|43:254,1,140
214,174,85721,2,0,P|217:208|221:243,1,70,8|0,0:0|0:0,0:0:0:0:
149,369,86055,5,0,0:0:0:0:
149,369,86221,1,0,0:0:0:0:
127,215,86388,2,0,P|130:249|134:284,1,70,8|0,0:0|0:0,0:0:0:0:
310,215,86721,2,0,P|306:249|302:284,1,70
214,174,87055,5,8,0:0:0:0:
155,105,87221,2,0,B|237:77|210:106|292:76,1,140
395,0,87721,2,0,P|384:33|375:67,1,70,8|0,0:0|0:0,0:0:0:0:
395,190,88055,2,0,P|371:164|342:143,1,70
226,51,88388,2,0,P|258:65|291:76,1,70,8|0,0:0|0:0,0:0:0:0:
500,15,88721,6,0,P|481:82|475:151,1,140,0|8,0:0|0:0,0:0:0:0:
320,225,89221,2,0,L|329:294,1,70
395,345,89555,1,0,0:0:0:0:
500,245,89721,2,0,P|465:239|432:228,1,70,8|0,0:0|0:0,0:0:0:0:
320,225,90055,1,0,0:0:0:0:
390,90,90221,6,0,L|381:159,1,70,0|8,0:0|0:0,0:0:0:0:
240,275,90555,1,0,0:0:0:0:
74,239,90721,1,0,0:0:0:0:
74,239,90805,1,0,0:0:0:0:
74,239,90888,1,0,0:0:0:0:
74,239,90971,1,0,0:0:0:0:
74,239,91055,2,0,P|124:225|175:210,1,105,8|0,0:0|0:0,0:0:0:0:
174,210,91388,6,0,P|167:175|167:140,1,70,4|0,0:0|0:0,0:0:0:0:
305,65,91721,1,8,0:0:0:0:
230,20,91888,2,0,L|160:8,2,70
300,200,92388,1,8,0:0:0:0:
370,155,92555,6,0,B|458:132|418:158|507:131,1,140
300,200,93055,2,0,L|293:269,1,70,8|0,0:0|0:0,0:0:0:0:
400,360,93388,2,0,L|406:290,1,70
210,210,93721,2,0,L|216:140,1,70,8|0,0:0|0:0,0:0:0:0:
216,140,94055,1,0,0:0:0:0:
17,312,94221,5,0,0:0:0:0:
17,312,94305,1,0,0:0:0:0:
17,312,94388,2,0,B|97:296|70:320|156:300,1,140,8|0,0:0|0:0,0:0:0:0:
99,229,94888,1,0,0:0:0:0:
255,345,95055,1,8,0:0:0:0:
99,229,95221,6,0,L|91:159,1,70
235,260,95555,2,0,L|242:190,1,70,0|8,0:0|0:0,0:0:0:0:
360,320,95888,2,0,L|352:250,1,70
479,369,96221,1,0,0:0:0:0:
479,369,96388,2,0,L|486:299,1,70,8|0,0:0|0:0,0:0:0:0:
444,224,96721,5,4,0:0:0:0:
444,224,96888,1,0,0:0:0:0:
495,90,97055,2,0,P|502:124|502:159,1,70,8|0,0:0|0:0,0:0:0:0:
352,250,97388,2,0,P|353:180|334:113,1,140,0|8,0:0|0:0,0:0:0:0:
420,10,97888,6,0,L|410:79,1,70
259,19,98221,1,0,0:0:0:0:
259,19,98388,2,0,L|328:28,1,70,8|0,0:0|0:0,0:0:0:0:
270,175,98721,1,0,0:0:0:0:
170,215,98888,1,0,0:0:0:0:
85,155,99055,1,8,0:0:0:0:
170,230,99221,1,0,0:0:0:0:
59,329,99388,5,0,0:0:0:0:
59,329,99555,1,0,0:0:0:0:
205,350,99721,2,0,P|170:357|137:368,1,70,12|0,0:0|0:0,0:0:0:0:
290,280,100055,1,0,0:0:0:0:
360,360,100221,2,0,P|394:352|427:341,1,70
280,270,100555,1,8,0:0:0:0:
385,190,100721,6,0,P|377:155|366:122,1,70
355,10,101055,2,0,P|307:58|238:61,1,140,8|0,0:0|0:0,0:0:0:0:
145,20,101555,1,0,0:0:0:0:
65,90,101721,1,0,0:0:0:0:
75,185,101888,1,0,0:0:0:0:
175,220,102055,5,4,0:0:0:0:
255,195,112721,6,0,P|204:181|155:162,2,105.000004005432,4|8|0,0:0|0:2|0:0,0:0:0:0:
32,282,113721,1,8,0:2:0:0:
32,282,113888,1,0,0:0:0:0:
32,282,114055,2,0,P|76:255|127:243,1,105.000004005432,0|8,0:0|0:2,0:0:0:0:
250,375,114555,6,0,P|223:330|211:279,1,105.000004005432
340,185,115055,2,0,L|330:236,1,52.5000020027161,8|0,0:2|0:0,0:0:0:0:
255,125,115388,6,0,B|262:68|241:92|249:21,2,105.000004005432,0|8|0,0:0|0:2|0:0,0:0:0:0:
445,195,116388,1,8,0:2:0:0:
250,260,116721,1,0,1:0:0:0:
440,340,117055,1,0,0:0:0:0:
340,185,117388,5,2,0:0:0:0:
367,282,117555,1,8,0:0:0:0:
367,282,117638,1,0,0:0:0:0:
367,282,117721,1,8,0:0:0:0:
185,195,117888,6,2,B|143:219|89:203|89:203|21:215,1,167.999994873047,12|10,0:2|0:2,0:0:0:0:
136,122,118388,2,0,P|134:80|136:38,1,83.9999974365235,10|2,0:0|0:2,0:0:0:0:
259,139,118721,1,12,0:2:0:0:
259,139,118888,1,10,0:2:0:0:
370,40,119055,1,8,0:0:0:0:
490,135,119221,6,2,P|467:215|456:298,1,167.999994873047,12|10,0:2|0:2,0:0:0:0:
310,360,119721,2,0,P|302:318|302:276,1,83.9999974365235,10|2,0:0|0:2,0:0:0:0:
377,221,120055,1,12,0:2:0:0:
377,221,120221,1,8,0:0:0:0:
215,325,120388,1,8,0:0:0:0:
65,210,120555,6,2,P|148:208|226:237,1,167.999994873047,12|10,0:2|0:2,0:0:0:0:
115,75,121055,1,10,0:0:0:0:
300,70,121221,2,0,P|305:111|310:153,1,83.9999974365235,6|0,0:2|0:0,0:0:0:0:
200,10,121555,2,0,P|205:51|213:92,1,83.9999974365235,14|0,0:2|0:0,0:0:0:0:
425,10,121888,6,2,P|414:93|416:177,1,167.999994873047,12|10,0:2|0:2,0:0:0:0:
505,355,122388,2,0,P|479:321|444:298,1,83.9999974365235,10|6,0:0|0:2,0:0:0:0:
370,255,122721,1,14,0:2:0:0:
272,352,122888,1,10,0:0:0:0:
272,352,122971,1,8,0:0:0:0:
272,352,123055,2,0,L|189:337,1,83.9999974365235,8|10,0:0|0:0,0:0:0:0:
304,204,123388,6,0,P|247:230|184:232,1,125.999996154785,0|0,0:0|1:2,0:0:0:0:
184,232,123721,2,0,L|117:209,1,70,8|0,0:0|2:0,0:0:0:0:
205,75,124055,2,0,L|208:144,1,70,8|0,0:0|0:0,0:0:0:0:
45,255,124388,2,0,P|34:221|36:186,1,70,8|0,0:0|2:0,0:0:0:0:
292,316,124721,6,0,L|189:337,1,105,8|0,0:0|0:0,0:0:0:0:
189,336,125055,2,0,P|157:321|123:311,1,70,8|0,0:0|1:0,0:0:0:0:
250,225,125388,2,0,L|318:210,1,70,8|0,0:0|0:0,0:0:0:0:
124,169,125721,1,8,0:0:0:0:
124,169,125888,1,0,0:0:0:0:
205,15,126055,5,8,0:0:0:0:
280,60,126221,2,0,P|270:93|265:128,2,70,0|8|0,0:0|0:0|0:0,0:0:0:0:
135,65,126721,2,0,L|68:42,1,70,8|0,0:0|0:0,0:0:0:0:
280,60,127055,1,8,0:0:0:0:
64,236,127221,6,0,P|128:210|197:218,1,140,4|8,0:0|0:0,0:0:0:0:
260,355,127721,2,0,P|257:320|263:285,1,70,8|0,0:0|0:0,0:0:0:0:
415,205,128055,1,4,0:0:0:0:
362,282,128221,1,8,0:2:0:0:
362,282,128305,1,8,0:2:0:0:
362,282,128388,1,4,0:0:0:0:
197,218,128555,6,0,L|216:51,1,167.999994873047,12|10,0:2|0:2,0:0:0:0:
105,15,129055,2,0,P|117:55|119:96,1,83.9999974365235,8|2,0:0|0:2,0:0:0:0:
290,150,129388,2,0,L|371:130,1,83.9999974365235,12|10,0:2|0:2,0:0:0:0:
197,218,129721,1,8,0:0:0:0:
420,345,129888,6,0,P|351:297|269:296,1,167.999994873047,12|10,0:2|0:2,0:0:0:0:
110,370,130388,2,0,P|89:333|90:292,1,83.9999974365235,8|2,0:0|0:2,0:0:0:0:
197,218,130721,2,0,L|181:300,1,83.9999974365235,12|8,0:2|0:0,0:0:0:0:
18,232,131055,1,8,0:0:0:0:
125,80,131221,6,0,B|220:90|177:130|277:141,1,167.999994873047,12|10,0:2|0:2,0:0:0:0:
415,50,131721,1,8,0:0:0:0:
480,120,131888,2,0,P|490:161|506:200,1,83.9999974365235,6|0,0:2|0:0,0:0:0:0:
300,265,132221,2,0,P|335:241|374:226,1,83.9999974365235,14|8,0:2|0:0,0:0:0:0:
505,330,132555,6,0,P|421:335|346:371,1,167.999994873047,12|10,0:2|0:2,0:2:0:0:
190,250,133055,2,0,L|197:333,1,83.9999974365235,8|6,0:0|0:2,0:0:0:0:
300,265,133388,2,0,L|292:181,1,83.9999974365235,12|8,0:2|0:0,0:0:0:0:
292,181,133638,1,0,0:0:0:0:
292,181,133721,1,8,0:0:0:0:
123,189,133888,1,8,0:0:0:0:
123,189,133971,1,0,0:0:0:0:
123,189,134055,6,0,P|150:117|133:54,1,125.999996154785,4|2,0:0|1:2,0:0:0:0:
141,70,134388,2,0,L|76:44,1,70,8|10,0:0|0:2,0:0:0:0:
232,168,134721,2,0,P|265:179|298:188,1,70,8|10,0:0|0:2,0:0:0:0:
105,275,135055,2,0,P|70:281|39:296,1,70,12|10,0:0|0:2,0:0:0:0:
259,364,135388,6,0,L|393:340,1,105,12|0,0:0|0:0,0:0:0:0:
362,345,135721,2,0,P|395:352|424:372,1,70,8|0,0:0|0:0,0:0:0:0:
500,215,136055,2,0,P|469:231|435:239,1,70,8|10,0:0|0:2,0:0:0:0:
389,164,136388,1,12,0:0:0:0:
389,164,136555,1,10,0:2:0:0:
255,255,136721,5,12,0:0:0:0:
180,215,136888,2,0,P|146:204|112:198,2,70,0|8|10,0:0|0:0|0:2,0:0:0:0:
315,105,137388,1,8,0:0:0:0:
167,32,137555,1,8,0:0:0:0:
167,32,137638,1,8,0:0:0:0:
167,32,137721,1,8,0:0:0:0:
180,215,137888,6,2,P|248:200|318:198,1,140,0|2,0:0|0:0,0:0:0:0:
390,150,138388,1,2,0:0:0:0:
145,125,138555,1,0,0:2:0:0:
255,255,138721,5,4,0:2:0:0:
255,255,144721,6,0,L|267:191,2,52.5000020027161,2|0|0,0:0|0:0|0:0,0:0:0:0:
300,330,145221,2,0,L|360:355,2,52.5000020027161,2|0|0,0:0|0:0|0:0,0:0:0:0:
215,335,145721,2,0,L|163:374,2,52.5000020027161,2|0|0,0:0|0:0|0:0,0:0:0:0:
255,255,146221,6,0,L|267:191,2,52.5000020027161,2|0|0,0:0|0:0|0:0,0:0:0:0:
300,330,146721,2,0,L|360:355,1,52.5000020027161,2|0,0:0|0:0,0:0:0:0:
215,335,147055,2,0,L|163:374,1,52.5000020027161,2|0,0:0|0:0,0:0:0:0:
14,189,147388,5,0,1:0:0:0:
14,189,147555,1,0,1:0:0:0:
80,130,147721,1,0,0:0:0:0:
100,215,147888,1,0,0:0:0:0:
145,75,148055,1,0,0:0:0:0:
180,240,148221,1,0,0:0:0:0:
225,100,148388,1,8,0:0:0:0:
245,185,148555,1,0,0:0:0:0:
167,161,148721,5,8,0:0:0:0:
167,161,148888,1,0,0:0:0:0:
310,55,149055,1,12,0:0:0:0:
340,240,149221,2,0,L|374:233,2,35,8|8|8,0:0|0:0|0:0,0:0:0:0:
455,190,149555,5,8,0:0:0:0:
465,155,149638,1,8,0:0:0:0:
465,110,149721,1,8,0:0:0:0:
455,75,149805,1,8,0:0:0:0:
430,40,149888,2,0,L|398:25,1,35,8|8,0:0|0:0,0:0:0:0:
310,55,150055,6,0,B|222:30|251:67|157:40,1,154.000004699707,4|8,0:0|0:0,0:0:0:0:
90,200,150721,1,0,0:0:0:0:
8,162,150888,1,0,0:0:0:0:
100,190,151055,1,8,0:0:0:0:
40,330,151221,6,0,P|105:291|180:296,1,154.000004699707,4|0,0:0|0:0,0:0:0:0:
330,365,151721,2,0,L|253:354,1,77.0000023498536,8|0,0:0|0:0,0:0:0:0:
205,205,152055,1,0,0:0:0:0:
300,175,152221,1,0,0:0:0:0:
181,296,152388,2,0,P|143:285|108:271,1,77.0000023498536,8|0,0:0|0:0,0:0:0:0:
60,90,152721,5,0,0:0:0:0:
45,175,152888,1,0,0:0:0:0:
205,100,153055,2,0,P|192:63|185:25,1,77.0000023498536,8|0,0:0|0:0,0:0:0:0:
300,175,153388,2,0,L|285:250,2,77.0000023498536,0|0|8,0:0|0:0|0:0,0:0:0:0:
510,90,153888,6,0,B|425:70|449:95|357:76,1,154.000004699707
466,169,154388,2,0,L|477:266,1,77.0000023498536,8|0,0:0|0:0,0:0:0:0:
300,175,154721,1,0,0:0:0:0:
310,265,154888,1,0,0:0:0:0:
160,120,155055,2,0,P|155:158|149:196,1,77.0000023498536,8|0,0:0|0:0,0:0:0:0:
69,239,155305,1,0,0:0:0:0:
69,239,155388,6,0,B|116:233|116:233|141:246|141:246|172:241|172:241|215:259,1,154.000004699707,4|8,0:0|0:0,0:0:0:0:
357,76,156055,1,0,0:0:0:0:
275,60,156221,1,0,0:0:0:0:
362,88,156388,1,0,0:0:0:0:
450,170,156555,6,12,B|405:162|405:162|379:179|379:179|347:172|347:172|305:189,1,154.000004699707,12|0,0:0|0:0,0:0:0:0:
420,270,157055,1,8,0:0:0:0:
330,360,157221,2,0,B|295:334|295:334|264:338|264:338|236:316|236:316|192:315,1,154.000004699707
114,364,157721,1,8,0:0:0:0:
114,364,157888,1,0,0:0:0:0:
10,200,158055,6,0,P|47:209|85:216,1,77.0000023498536
225,135,158388,1,8,0:0:0:0:
135,120,158555,1,0,0:0:0:0:
192,315,158721,2,0,P|256:276|331:286,1,154.000004699707,8|0,0:0|0:0,0:0:0:0:
490,245,159221,2,0,P|452:239|416:225,1,77.0000023498536,8|0,0:0|0:0,0:0:0:0:
355,55,159555,5,0,0:0:0:0:
345,140,159721,1,8,0:0:0:0:
365,50,159888,1,0,0:0:0:0:
168,202,160055,5,8,0:0:0:0:
197,97,160221,1,8,0:0:0:0:
197,97,160305,1,8,0:0:0:0:
197,97,160388,1,0,0:0:0:0:
85,75,160555,1,0,0:0:0:0:
280,225,160721,6,0,L|269:301,1,77.0000023498536,4|4,1:1|0:0,0:0:0:0:
360,350,161055,2,0,P|364:273|381:198,1,154.000004699707,8|4,0:0|0:0,0:0:0:0:
381,198,161555,1,4,0:0:0:0:
450,285,161721,1,8,0:0:0:0:
280,225,161888,6,0,P|212:259|137:250,1,154.000004699707,4|4,1:1|0:0,0:0:0:0:
210,65,162388,2,0,L|217:141,1,77.0000023498536,8|0,0:0|0:0,0:0:0:0:
217,141,162638,1,4,0:0:0:0:
217,141,162721,1,4,0:0:0:0:
315,140,162888,1,8,0:0:0:0:
380,45,163055,2,0,L|303:52,1,77.0000023498536,8|0,0:0|0:0,0:0:0:0:
474,189,163388,5,4,0:0:0:0:
474,189,163555,1,4,0:0:0:0:
300,270,163721,1,8,0:0:0:0:
417,362,163888,1,0,0:0:0:0:
417,362,163971,1,4,0:0:0:0:
417,362,164055,2,0,P|410:324|408:285,2,77.0000023498536,4|4|8,0:0|0:0|0:0,0:0:0:0:
350,190,164555,6,0,P|287:233|212:228,1,154.000004699707,4|4,1:2|0:0,0:0:0:0:
40,190,165055,2,0,L|116:179,1,77.0000023498536,8|0,0:0|0:0,0:0:0:0:
116,179,165305,1,4,0:0:0:0:
116,179,165388,1,4,0:0:0:0:
135,270,165555,1,8,0:0:0:0:
182,42,165721,2,0,P|188:79|188:118,1,77.0000023498536,8|4,0:0|0:0,0:0:0:0:
188,118,165971,1,4,0:0:0:0:
188,118,166055,6,0,L|264:110,1,77.0000023498536,4|4,1:1|0:0,0:0:0:0:
400,35,166388,2,0,P|361:33|323:38,1,77.0000023498536,8|0,0:0|0:0,0:0:0:0:
323,38,166638,1,4,0:0:0:0:
323,38,166721,1,4,0:0:0:0:
335,170,166888,1,4,0:0:0:0:
345,300,167055,1,8,0:0:0:0:
345,300,167221,1,4,0:0:0:0:
410,240,167388,6,0,P|448:243|483:258,1,77.0000023498536,4|0,0:0|0:0,0:0:0:0:
335,170,167721,2,0,L|259:178,1,77.0000023498536,8|0,0:0|0:0,0:0:0:0:
258,178,167971,1,4,0:0:0:0:
258,178,168055,1,4,0:0:0:0:
150,285,168221,1,8,0:0:0:0:
230,260,168388,2,0,P|247:294|255:331,1,77.0000023498536,8|4,0:0|0:0,0:0:0:0:
75,255,168721,6,0,L|98:102,1,154.000004699707,4|8,0:0|0:0,0:0:0:0:
35,45,169221,1,4,0:0:0:0:
170,10,169388,2,0,P|174:48|178:86,1,77.0000023498536,4|8,0:0|0:0,0:0:0:0:
265,185,169721,1,4,0:0:0:0:
365,55,169888,6,0,P|440:50|502:94,1,154.000004699707,4|4,1:2|0:0,0:0:0:0:
425,235,170388,2,0,L|433:158,1,77.0000023498536,8|0,0:0|0:0,0:0:0:0:
433,158,170638,1,4,0:0:0:0:
433,158,170721,1,4,0:0:0:0:
265,185,170888,5,8,0:0:0:0:
249,173,170971,1,4,0:0:0:0:
232,164,171055,1,8,0:0:0:0:
214,159,171138,1,0,0:0:0:0:
194,157,171221,1,0,0:0:0:0:
175,158,171305,1,0,0:0:0:0:
157,163,171388,6,0,P|119:154|81:148,1,77.0000023498536,4|6,0:1|0:3,0:0:0:0:
195,250,171721,2,0,P|119:263|47:290,1,154.000004699707,8|4,0:3|0:3,0:0:0:0:
280,275,172221,1,6,0:3:0:0:
358,242,172388,1,8,0:3:0:0:
488,362,172555,6,0,P|413:343|336:340,1,154.000004699707,4|8,0:1|0:2,0:0:0:0:
440,265,173055,2,0,P|477:254|515:248,1,77.0000023498536,8|2,0:0|0:2,0:0:0:0:
405,105,173388,2,0,L|420:180,1,77.0000023498536,8|10,0:2|0:2,0:0:0:0:
280,275,173721,2,0,L|264:199,1,77.0000023498536,8|0,0:0|0:0,0:0:0:0:
329,49,174055,5,4,0:3:0:0:
329,49,174221,1,6,0:3:0:0:
485,25,174388,2,0,P|448:12|410:4,1,77.0000023498536,8|6,0:3|0:3,0:0:0:0:
255,100,174721,2,0,P|218:112|180:120,1,77.0000023498536,4|6,0:3|0:3,0:0:0:0:
55,95,175055,1,8,0:3:0:0:
130,50,175221,6,0,P|145:125|139:201,1,154.000004699707,4|4,0:1|0:3,0:0:0:0:
65,335,175721,2,0,P|62:296|67:258,1,77.0000023498536,8|0,0:0|0:0,0:0:0:0:
217,257,176055,1,8,0:1:0:0:
217,257,176138,1,8,0:1:0:0:
217,257,176221,2,0,L|255:262,1,38.5000011749268,8|8,0:1|0:1,0:0:0:0:
302,342,176388,1,8,0:0:0:0:
302,342,176471,1,2,0:2:0:0:
301,341,176555,2,0,L|339:335,1,38.5000011749268,2|0,0:2|0:0,0:0:0:0:
405,280,176721,5,4,0:1:0:0:
435,120,177055,1,8,0:0:0:0:
275,90,177388,1,8,0:0:0:0:
435,120,177721,1,8,0:0:0:0:
405,280,178055,1,8,0:0:0:0:
245,250,178388,1,8,0:0:0:0:
275,90,178721,1,8,0:0:0:0:
115,60,179055,1,8,0:0:0:0:
85,220,179388,6,0,P|82:258|72:295,1,77.0000023498536
115,60,179721,2,0,P|76:57|39:47,1,77.0000023498536
275,90,180055,2,0,L|286:13,1,77.0000023498536
245,250,180388,2,0,L|321:261,1,77.0000023498536
435,120,180721,5,8,0:0:0:0:
435,120,180888,1,8,0:0:0:0:
245,250,181055,5,8,0:0:0:0:
245,250,181221,1,8,0:0:0:0:
115,60,181388,5,8,0:0:0:0:
115,60,181555,1,8,0:0:0:0:
258,170,181721,5,8,0:0:0:0:
258,170,181888,1,8,0:0:0:0:
256,192,191388,12,0,193221,0:0:0:0:
175,135,193388,6,0,P|168:97|159:59,1,77.0000023498536
259,199,193721,1,8,0:0:0:0:
340,55,193888,6,0,P|424:44|489:99,1,175,6|0,0:0|0:0,0:0:0:0:
259,199,194388,2,0,P|301:187|344:183,1,87.5,10|0,0:0|0:0,0:0:0:0:
490,320,194721,1,0,0:2:0:0:
385,295,194888,1,0,0:0:0:0:
480,330,195055,1,8,0:0:0:0:
300,365,195221,6,0,P|215:341|129:347,1,175,6|0,0:2|0:0,0:0:0:0:
259,199,195721,2,0,L|173:216,1,87.5,8|0,0:0|0:0,0:0:0:0:
45,250,196055,1,4,0:2:0:0:
173,215,196221,1,0,0:0:0:0:
20,150,196388,1,8,0:0:0:0:
110,10,196555,6,0,L|96:96,1,87.5,6|0,0:0|0:0,0:0:0:0:
259,199,196888,2,0,P|263:155|271:112,1,87.5,0|8,0:0|0:0,0:0:0:0:
432,32,197221,1,0,0:0:0:0:
432,32,197305,1,0,0:0:0:0:
432,32,197388,2,0,L|418:118,1,87.5,4|0,0:2|0:0,0:0:0:0:
340,60,197721,1,8,0:0:0:0:
508,252,197888,6,0,P|435:206|349:213,1,175,4|0,0:0|0:0,0:0:0:0:
380,380,198388,2,0,P|392:338|391:294,1,87.5,8|0,0:0|0:0,0:0:0:0:
260,150,198721,2,0,L|277:324,1,175
87,372,199305,5,0,0:0:0:0:
87,372,199388,2,0,P|96:312|88:253,1,120.750002303124,4|0,0:0|0:0,0:0:0:0:
88,253,199721,2,0,L|70:164,1,80.5000015354157,8|0,0:0|0:0,0:0:0:0:
175,95,200055,2,0,L|166:175,1,80.5000015354157,8|0,0:0|0:0,0:0:0:0:
260,150,200388,2,0,L|293:76,1,80.5000015354157,8|0,0:0|0:0,0:0:0:0:
439,189,200721,5,8,0:0:0:0:
439,189,201055,2,0,P|439:229|445:268,1,80.5000015354157,8|0,0:0|0:0,0:0:0:0:
320,380,201388,2,0,P|313:340|313:300,1,80.5000015354157,8|0,0:0|0:0,0:0:0:0:
404,359,201721,1,8,0:0:0:0:
404,359,201888,1,0,0:0:0:0:
240,220,202055,5,0,0:0:0:0:
165,265,202221,2,0,L|86:247,2,80.5000015354157,0|8|8,0:0|0:0|0:0,0:0:0:0:
134,106,202721,1,8,0:0:0:0:
134,106,202888,1,0,0:0:0:0:
215,50,203055,1,0,0:0:0:0:
327,132,203221,1,0,0:0:0:0:
327,132,203305,1,0,0:0:0:0:
327,132,203388,6,0,L|366:122,3,40.2500007677078,8|0|8|0,0:0|0:0|0:0|0:0,0:0:0:0:
440,165,203721,2,0,L|449:204,3,40.2500007677078
405,275,204055,5,8,0:0:0:0:
400,276,204138,1,8,0:0:0:0:
395,277,204221,1,4,0:3:0:0:
390,278,204305,1,4,0:3:0:0:
385,279,204388,1,4,0:3:0:0:
380,280,204471,1,4,0:3:0:0:
375,281,204555,1,4,0:3:0:0:
370,282,204638,1,4,0:3:0:0:
365,283,204721,6,0,P|317:256|262:251,1,110.249996635437,4|0,0:2|0:0,0:0:0:0:
250,245,205055,2,0,L|178:263,1,73.4999977569581,8|0,0:0|0:0,0:0:0:0:
64,239,205388,1,0,0:0:0:0:
0,160,205555,1,0,0:0:0:0:
140,185,205721,1,8,0:0:0:0:
64,239,205888,6,0,P|55:304|54:371,1,132.999996448517
175,336,206388,2,0,P|178:299|178:262,1,73.4999977569581,8|0,0:0|0:0,0:0:0:0:
79,121,206721,1,0,0:0:0:0:
190,60,206888,1,0,0:0:0:0:
270,160,207055,1,8,0:0:0:0:
352,122,207221,1,0,0:0:0:0:
352,122,207305,1,0,0:0:0:0:
352,122,207388,1,0,0:0:0:0:
495,345,207721,5,8,0:0:0:0:
430,285,207888,2,2,P|393:291|358:300,2,73.4999977569581,2|0|0,0:0|0:0|0:0,0:0:0:0:
505,195,208388,1,8,0:0:0:0:
440,140,208555,2,2,P|449:67|480:1,1,146.999995513916,2|0,0:0|0:0,0:0:0:0:
348,2,209055,6,0,L|360:74,1,73.4999977569581,8|2,0:0|0:0,0:0:0:0:
258,192,209388,1,0,0:0:0:0:
230,70,209555,1,2,0:0:0:0:
250,200,209721,1,8,0:0:0:0:
132,142,209888,1,0,0:0:0:0:
132,142,209971,1,0,0:0:0:0:
132,142,210055,6,0,P|127:178|119:214,1,73.4999977569581,4|0,0:0|0:0,0:0:0:0:
180,335,210388,2,0,P|132:308|78:312,1,110.249996635437,8|0,0:0|0:0,0:0:0:0:
75,325,210721,2,0,L|1:316,1,73.4999977569581
119,214,211055,1,8,0:0:0:0:
260,205,211221,6,0,P|277:275|271:348,1,146.999995513916
360,320,211721,2,0,P|395:327|430:340,1,73.4999977569581,8|0,0:0|0:0,0:0:0:0:
494,195,212055,2,0,P|458:204|422:208,1,73.4999977569581
365,330,212388,2,0,P|400:337|435:350,1,73.4999977569581,8|0,0:0|0:0,0:0:0:0:
354,159,212721,5,0,0:0:0:0:
354,159,212888,1,0,0:0:0:0:
189,254,213055,2,0,P|154:192|166:120,1,146.999995513916,8|0,0:0|0:0,0:0:0:0:
166,120,213471,1,0,0:0:0:0:
166,120,213555,1,0,0:0:0:0:
166,120,213638,1,0,0:0:0:0:
166,120,213721,1,8,0:0:0:0:
385,65,213888,6,0,P|311:57|239:46,1,146.999995513916,4|0,0:0|0:0,0:0:0:0:
100,5,214388,2,0,P|95:41|85:76,1,73.4999977569581,8|0,0:0|0:0,0:0:0:0:
0,175,214721,2,0,L|4:211,3,36.749998878479
72,258,215055,1,0,0:0:0:0:
71,267,215138,1,0,0:0:0:0:
70,276,215221,1,0,0:0:0:0:
69,285,215305,1,0,0:0:0:0:
68,294,215388,5,12,0:2:0:0:
185,355,215555,1,0,0:0:0:0:
295,295,215721,2,0,P|368:297|436:323,2,146.999995513916,10|8|8,0:0|0:2|0:0,0:0:0:0:
135,195,216555,6,2,P|202:166|275:160,1,146.999995513916,8|8,0:2|0:2,0:0:0:0:
410,120,217055,2,0,P|374:112|339:99,1,73.4999977569581,10|0,0:0|0:0,0:0:0:0:
235,5,217388,2,0,P|248:39|254:75,1,73.4999977569581,8|8,0:2|0:2,0:0:0:0:
358,200,217721,1,8,0:0:0:0:
358,200,217888,1,8,0:2:0:0:
505,75,218055,6,0,L|480:219,1,146.999995513916,12|10,0:2|0:0,0:0:0:0:
425,345,218555,2,0,L|413:272,1,73.4999977569581
279,234,218888,1,8,0:2:0:0:
279,234,219055,1,8,0:0:0:0:
415,135,219221,6,2,P|343:141|281:103,1,146.999995513916,12|8,0:2|0:2,0:0:0:0:
130,145,219721,2,0,P|166:150|200:163,1,73.4999977569581,10|0,0:0|0:0,0:0:0:0:
280,20,220055,2,0,L|244:27,3,36.749998878479,8|0|10|0,0:2|0:0|0:0|0:0,0:0:0:0:
170,65,220388,1,8,0:0:0:0:
161,63,220471,1,0,0:0:0:0:
152,61,220555,1,10,0:0:0:0:
143,59,220638,1,0,0:0:0:0:
134,57,220721,6,2,P|97:54|61:46,1,73.4999977569581,12|0,0:2|0:0,0:0:0:0:
201,163,221055,2,0,L|187:309,1,146.999995513916,10|8,0:0|0:2,0:0:0:0:
35,265,221555,1,0,0:0:0:0:
120,365,221721,1,8,0:0:0:0:
270,300,221888,6,2,P|343:300|411:325,1,146.999995513916,8|8,0:2|0:2,0:0:0:0:
500,210,222388,2,0,L|427:218,1,73.4999977569581,10|0,0:0|0:0,0:0:0:0:
300,130,222721,2,0,P|336:132|371:143,1,73.4999977569581,8|8,0:2|0:2,0:0:0:0:
229,189,223055,1,8,0:0:0:0:
229,189,223221,1,4,0:2:0:0:
245,25,223388,5,6,0:0:0:0:
160,60,223555,1,0,0:0:0:0:
252,18,223721,2,0,L|323:33,1,73.4999977569581,10|8,0:0|0:2,0:0:0:0:
81,19,224055,2,2,P|118:82|136:153,1,146.999995513916,14|10,0:0|0:0,0:0:0:0:
82,218,224555,1,8,0:2:0:0:
229,189,224721,5,12,0:0:0:0:
229,189,224805,1,8,0:0:0:0:
229,189,224888,2,0,L|222:225,1,36.749998878479,8|8,0:0|0:0,0:0:0:0:
300,260,225055,2,0,L|293:296,3,36.749998878479,8|8|8|8,0:0|0:0|0:0|0:0,0:0:0:0:
355,355,225388,5,8,0:2:0:0:
365,346,225471,1,8,0:2:0:0:
377,339,225555,1,8,0:2:0:0:
390,334,225638,1,8,0:2:0:0:
404,331,225721,1,4,0:3:0:0:
417,330,225805,1,4,0:3:0:0:
431,331,225888,1,4,0:3:0:0:
445,333,225971,1,4,0:3:0:0:
458,338,226055,6,2,P|462:301|465:264,1,73.4999977569581,12|0,1:0|0:0,0:0:0:0:
500,185,226388,1,8,1:0:0:0:
229,189,226721,1,8,1:0:0:0:
505,95,227055,1,8,1:0:0:0:
185,100,227388,1,8,1:0:0:0:
329,269,227721,5,8,1:0:0:0:
329,269,227888,1,8,0:2:0:0:
262,326,228055,1,8,1:0:0:0:
262,326,228221,1,8,0:2:0:0:
179,294,228388,1,8,1:0:0:0:
179,294,228555,1,8,0:2:0:0:
95,335,228721,6,0,P|60:328|25:324,1,70,12|10,1:0|0:2,0:0:0:0:
0,245,229055,1,8,1:0:0:0:
190,70,229388,1,8,1:0:0:0:
360,315,229721,1,8,1:0:0:0:
510,30,230055,1,8,1:0:0:0:
345,160,230388,5,8,1:0:0:0:
265,205,230555,2,2,L|254:274,1,70,8|8,0:2|1:0,0:0:0:0:
194,74,230888,5,8,1:0:0:0:
194,74,231055,1,8,1:0:0:0:
105,105,231221,2,0,L|94:174,1,70,4|0,0:1|0:0,0:0:0:0:
