osu file format v14

[General]
AudioFilename: audio.ogg
AudioLeadIn: 0
PreviewTime: 47825
Countdown: 0
SampleSet: Soft
StackLeniency: 0.7
Mode: 0
LetterboxInBreaks: 0
WidescreenStoryboard: 1

[Editor]
DistanceSpacing: 1
BeatDivisor: 4
GridSize: 32
TimelineZoom: 2

[Metadata]
Title:neophobia (Cut Ver.)
TitleUnicode:neophobia (Cut Ver.)
Artist:nano
ArtistUnicode:ナノ
Creator:NYAN_KOT_NYAN
Version:normal
Source:
Tags:jrock j-rock rock English N MajK00 MajKowaTy -karUpA- sinyus20 Take
BeatmapID:4289569
BeatmapSetID:2053305

[Difficulty]
HPDrainRate:3
CircleSize:3.2
OverallDifficulty:4
ApproachRate:5.5
SliderMultiplier:0.999999999999999
SliderTickRate:1

[Events]
//Background and Video events
0,0,"IWBBVuP.png",0,0
//Break Periods
2,32919,36594
2,43586,47428
//Storyboard Layer 0 (Background)
//Storyboard Layer 1 (Fail)
//Storyboard Layer 2 (Pass)
//Storyboard Layer 3 (Foreground)
//Storyboard Layer 4 (Overlay)
//Storyboard Sound Samples

[TimingPoints]
720,333.333333333333,4,2,1,60,1,0
11386,-111.111111111111,4,2,1,60,0,0
22053,-100,4,2,1,75,0,0
32719,-100,4,2,1,40,0,0
37719,-100,4,2,1,75,0,0
43386,-100,4,2,1,40,0,0
47886,-100,4,2,1,65,0,0
47969,-100,4,2,1,5,0,0
48053,-100,4,2,1,65,0,0
48136,-100,4,2,1,5,0,0
48219,-100,4,2,1,65,0,0
48553,-100,4,2,1,90,0,1
70053,-100,4,2,1,80,0,0
91386,-100,4,2,1,70,0,0

[Colours]
Combo1 : 138,138,138
Combo2 : 255,106,106
Combo3 : 176,100,100
Combo4 : 255,128,255

[HitObjects]
64,32,11386,6,0,L|59:85,1,44.999998626709,8|8,0:0|0:0,0:0:0:0:
77,118,11719,2,0,P|126:103|164:116,1,89.999997253418,2|2,0:0|0:0,0:0:0:0:
231,170,12386,2,0,L|220:223,1,44.999998626709,2|2,0:0|0:0,0:0:0:0:
159,279,12886,1,2,0:0:0:0:
159,279,13053,2,0,P|108:265|73:277,1,89.999997253418,2|2,0:0|0:0,0:0:0:0:
56,317,13553,5,8,0:0:0:0:
126,381,13886,1,8,0:0:0:0:
126,381,14053,2,0,L|185:375,1,44.999998626709,8|8,0:0|0:0,0:0:0:0:
213,362,14386,2,0,P|262:374|310:348,1,89.999997253418,2|2,0:0|0:0,0:0:0:0:
377,313,15053,1,2,0:0:0:0:
377,313,15219,2,0,P|433:319|476:328,1,89.999997253418,2|2,0:0|0:0,0:0:0:0:
482,236,15886,6,0,P|431:214|396:229,1,89.999997253418,10|8,0:0|0:0,0:0:0:0:
321,194,16553,1,8,0:0:0:0:
321,194,16719,2,0,L|330:145,1,44.999998626709,8|8,0:0|0:0,0:0:0:0:
304,111,17053,2,0,P|266:90|216:109,1,89.999997253418,2|2,0:0|0:0,0:0:0:0:
179,182,17719,1,2,0:0:0:0:
179,182,17886,2,0,P|186:242|189:275,1,89.999997253418,2|2,0:0|0:0,0:0:0:0:
158,305,18386,2,0,P|115:321|64:289,1,89.999997253418,2|2,0:0|0:0,0:0:0:0:
46,270,18886,5,8,0:0:0:0:
72,184,19219,2,0,L|75:139,1,44.999998626709,8|10,0:0|0:0,0:0:0:0:
51,100,19552,1,8,0:0:0:0:
132,60,19886,2,0,P|166:48|218:66,1,89.999997253418,2|0,0:0|0:0,0:0:0:0:
246,96,20386,1,2,0:0:0:0:
295,170,20719,6,0,L|358:162,1,44.999998626709,2|2,0:0|1:2,0:0:0:0:
375,136,21053,1,8,0:0:0:0:
432,205,21386,2,0,L|428:257,1,44.999998626709,10|8,0:3|0:0,0:0:0:0:
449,289,21719,2,0,L|453:341,1,44.999998626709,10|8,0:0|0:0,0:0:0:0:
403,344,22053,6,0,B|355:361|355:361|323:343|286:345,1,99.9999999999999,4|10,1:2|0:0,0:0:0:0:
220,298,22719,2,0,P|179:314|114:295,1,99.9999999999999,2|10,1:2|0:0,0:0:0:0:
93,264,23219,1,2,1:2:0:0:
157,185,23553,1,2,1:2:0:0:
157,185,23719,2,0,L|220:192,1,50,10|2,0:0|1:2,0:0:0:0:
250,165,24053,1,2,1:2:0:0:
213,72,24386,2,0,P|183:52|115:63,1,99.9999999999999,10|0,0:0|1:2,0:0:0:0:
29,97,25053,6,0,L|45:155,1,50,10|2,0:0|0:0,0:0:0:0:
5,178,25386,2,0,B|25:217|25:217|7:273,1,99.9999999999999,2|10,1:2|0:0,0:0:0:0:
40,308,25886,2,0,P|78:296|139:327,1,99.9999999999999,2|2,1:2|1:2,0:0:0:0:
217,370,26553,2,0,P|269:362|330:349,1,99.9999999999999,2|2,0:0|1:2,0:0:0:0:
358,378,27053,1,10,0:0:0:0:
443,325,27386,6,0,B|461:274|461:274|437:227,1,99.9999999999999,4|10,1:2|0:0,0:0:0:0:
398,217,27886,1,2,0:0:0:0:
398,217,28053,2,0,P|379:185|394:119,1,99.9999999999999,2|10,1:2|0:0,0:0:0:0:
435,106,28553,1,2,1:2:0:0:
372,28,28886,1,2,1:2:0:0:
291,87,29219,2,0,P|237:82|179:75,1,99.9999999999999,2|0,0:0|1:2,0:0:0:0:
161,117,29719,2,0,L|162:177,1,50,10|2,0:0|0:0,0:0:0:0:
118,192,30053,6,0,P|59:173|19:196,1,99.9999999999999,2|8,1:2|0:0,0:0:0:0:
88,266,30719,1,2,1:2:0:0:
22,341,31053,1,10,0:0:0:0:
115,376,31386,2,0,P|156:356|226:366,1,99.9999999999999,2|10,0:0|0:0,0:0:0:0:
301,320,32053,2,0,L|354:332,1,50,10|0,0:0|1:2,0:0:0:0:
396,350,32386,2,0,L|449:338,1,50,2|0,0:0|1:2,0:0:0:0:
492,353,32719,5,6,1:2:0:0:
497,356,37719,5,10,0:0:0:0:
497,356,37886,2,0,P|509:299|499:253,1,99.9999999999999,6|0,1:2|1:2,0:0:0:0:
462,227,38386,1,8,0:0:0:0:
496,133,38719,1,0,1:2:0:0:
412,78,39053,1,8,0:0:0:0:
412,78,39219,2,0,P|366:87|311:100,1,99.9999999999999,0|0,1:2|1:2,0:0:0:0:
280,136,39719,1,8,0:0:0:0:
338,217,40053,1,0,1:2:0:0:
268,288,40386,5,10,0:0:0:0:
268,288,40553,2,0,B|218:306|218:306|158:278,1,99.9999999999999,6|2,1:2|1:2,0:0:0:0:
131,275,41053,1,10,0:0:0:0:
131,275,41219,2,0,P|83:296|26:280,1,99.9999999999999,2|2,0:0|1:2,0:0:0:0:
7,191,41886,2,0,L|32:86,1,99.9999999999999,2|2,1:2|1:2,0:0:0:0:
69,62,42386,5,8,0:0:0:0:
146,125,42719,1,8,0:0:0:0:
230,71,43053,2,0,L|242:15,1,50,2|0,1:2|1:2,0:0:0:0:
290,15,43386,1,2,1:2:0:0:
420,106,48553,6,0,B|389:113|368:129|368:129|314:108,1,99.9999999999999,6|0,1:2|1:2,0:0:0:0:
240,64,49219,1,2,0:0:0:0:
240,64,49386,2,0,L|183:77,1,50,2|0,1:2|1:2,0:0:0:0:
144,57,49719,1,10,0:0:0:0:
144,57,49886,2,0,P|126:87|151:156,1,99.9999999999999,2|0,1:2|1:2,0:0:0:0:
208,221,50553,1,2,0:0:0:0:
208,221,50719,2,0,L|200:274,1,50,2|2,1:2|1:2,0:0:0:0:
166,307,51053,5,8,0:0:0:0:
166,307,51219,1,6,1:2:0:0:
76,351,51553,1,2,1:2:0:0:
12,273,51886,2,0,L|3:216,1,50,2|0,1:2|1:2,0:0:0:0:
24,177,52219,2,0,L|33:120,1,50,2|8,1:2|0:0,0:0:0:0:
8,82,52553,6,0,P|74:97|117:80,1,99.9999999999999,6|2,1:2|1:2,0:0:0:0:
149,107,53053,1,10,0:0:0:0:
224,41,53386,2,0,L|295:44,1,50,2|8,1:2|0:0,0:0:0:0:
312,76,53719,1,10,0:0:0:0:
396,21,54053,6,0,P|447:5|494:20,1,99.9999999999999,4|10,1:2|0:0,0:0:0:0:
452,109,54719,2,0,L|461:181,1,50,10|0,0:0|1:2,0:0:0:0:
442,208,55053,1,10,0:0:0:0:
442,208,55219,2,0,B|460:247|460:247|434:301,1,99.9999999999999,2|0,1:2|1:2,0:0:0:0:
396,330,55719,1,10,0:0:0:0:
307,377,56053,6,0,P|273:371|203:365,1,99.9999999999999,10|10,0:0|0:0,0:0:0:0:
170,331,56553,2,0,P|155:287|176:230,1,99.9999999999999,2|2,1:2|1:2,0:0:0:0:
220,236,57053,2,0,L|280:225,1,50,10|2,0:0|1:2,0:0:0:0:
304,262,57386,1,10,0:0:0:0:
389,207,57719,5,10,0:0:0:0:
389,207,57886,2,0,B|409:154|409:154|387:93,1,99.9999999999999,6|0,1:2|1:2,0:0:0:0:
331,42,58553,2,0,L|281:45,1,50,2|2,1:2|1:2,0:0:0:0:
237,21,58886,1,2,1:2:0:0:
164,89,59219,6,0,B|110:75|110:75|90:87|49:97,1,99.9999999999999,6|0,1:2|1:2,0:0:0:0:
28,185,59886,1,2,0:0:0:0:
28,185,60053,2,0,L|48:239,1,50,2|0,1:2|1:2,0:0:0:0:
90,253,60386,1,10,0:0:0:0:
94,258,60553,2,0,B|119:312|101:362,1,99.9999999999999,2|0,1:2|1:2,0:0:0:0:
206,364,61219,1,2,0:0:0:0:
206,364,61386,2,0,P|257:379|296:341,1,99.9999999999999,2|8,1:2|0:0,0:0:0:0:
329,320,61886,6,0,P|396:307|450:301,1,99.9999999999999,6|2,1:2|1:2,0:0:0:0:
462,267,62386,1,10,0:0:0:0:
462,267,62553,2,0,L|450:206,1,50,2|0,1:2|1:2,0:0:0:0:
476,173,62886,1,2,1:2:0:0:
412,94,63219,6,0,P|368:78|307:100,1,99.9999999999999,2|2,1:2|1:2,0:0:0:0:
268,89,63719,2,0,L|200:80,1,50,10|2,0:0|1:2,0:0:0:0:
179,51,64053,1,10,0:0:0:0:
107,120,64386,1,2,1:2:0:0:
169,198,64719,6,0,B|153:246|153:246|188:304,1,99.9999999999999,4|10,1:2|0:0,0:0:0:0:
276,310,65386,2,0,L|286:369,1,50,10|0,0:0|1:2,0:0:0:0:
335,379,65719,1,10,0:0:0:0:
335,379,65886,2,0,P|375:362|438:393,1,99.9999999999999,2|0,1:2|1:2,0:0:0:0:
474,366,66386,1,10,0:0:0:0:
459,267,66719,2,0,P|467:222|481:159,1,99.9999999999999,10|10,0:0|0:0,0:0:0:0:
512,133,67219,2,0,P|482:104|421:115,1,99.9999999999999,2|2,1:2|1:2,0:0:0:0:
382,134,67719,1,10,0:0:0:0:
311,70,68053,5,10,0:0:0:0:
311,70,68219,2,0,L|251:57,1,50,2|8,1:2|0:0,0:0:0:0:
212,70,68553,2,0,B|165:86|165:86|119:56,1,99.9999999999999,6|10,1:2|0:0,0:0:0:0:
79,83,69053,2,0,L|25:70,1,50,10|10,0:0|0:0,0:0:0:0:
6,26,69386,1,10,0:0:0:0:
51,220,70053,6,0,P|60:274|70:340,1,99.9999999999999,6|10,1:2|0:0,0:0:0:0:
156,361,70719,2,0,L|217:345,1,50,2|0,1:2|1:2,0:0:0:0:
247,320,71053,1,10,0:0:0:0:
247,320,71219,2,0,P|294:304|347:320,1,99.9999999999999,2|0,0:0|1:2,0:0:0:0:
387,336,71719,1,10,0:0:0:0:
457,263,72053,6,0,P|477:217|452:169,1,99.9999999999999,2|10,1:2|0:0,0:0:0:0:
482,77,72719,1,6,1:2:0:0:
391,46,73053,1,10,0:0:0:0:
391,46,73219,2,0,P|354:66|286:38,1,99.9999999999999,2|0,0:0|1:2,0:0:0:0:
256,41,73719,1,10,0:0:0:0:
256,41,73886,2,0,P|267:88|281:142,1,99.9999999999999,2|0,1:2|1:2,0:0:0:0:
330,224,74553,2,0,L|337:279,1,50,2|2,0:0|1:2,0:0:0:0:
378,300,74886,2,0,L|371:355,1,50,2|10,1:2|0:0,0:0:0:0:
326,363,75219,5,2,1:2:0:0:
326,363,75386,2,0,B|272:385|272:385|225:348,1,99.9999999999999,6|10,1:2|0:0,0:0:0:0:
152,309,76053,1,2,0:0:0:0:
197,222,76386,1,10,0:0:0:0:
197,222,76553,2,0,P|213:191|180:126,1,99.9999999999999,2|0,1:2|0:0,0:0:0:0:
146,110,77053,1,10,0:0:0:0:
200,25,77386,6,0,P|253:17|306:9,1,99.9999999999999,2|10,1:2|0:0,0:0:0:0:
344,42,77886,1,2,1:2:0:0:
344,42,78053,2,0,P|319:87|340:151,1,99.9999999999999,6|10,1:2|0:0,0:0:0:0:
382,210,78719,2,0,P|334:222|267:242,1,99.9999999999999,2|14,1:2|1:2,0:0:0:0:
257,278,79219,1,0,1:2:0:0:
257,278,79386,2,0,B|281:324|281:324|261:377,2,99.9999999999999,2|10|2,0:0|0:0|1:2,0:0:0:0:
168,230,80386,1,10,0:0:0:0:
97,300,80719,6,0,P|54:289|-14:280,1,99.9999999999999,6|10,1:2|0:0,0:0:0:0:
14,181,81386,2,0,L|-3:128,1,50,2|0,0:0|1:2,0:0:0:0:
30,95,81719,1,10,0:0:0:0:
30,95,81886,2,0,P|71:101|106:45,1,99.9999999999999,2|0,1:2|1:2,0:0:0:0:
149,35,82386,5,10,0:0:0:0:
227,96,82719,2,0,P|284:90|344:84,1,99.9999999999999,2|10,0:0|0:0,0:0:0:0:
373,104,83219,1,2,1:2:0:0:
373,104,83386,2,0,P|412:126|475:110,1,99.9999999999999,6|10,1:2|0:0,0:0:0:0:
469,217,84053,6,0,P|490:266|465:325,1,99.9999999999999,0|10,1:2|0:0,0:0:0:0:
433,332,84553,2,0,P|378:325|331:316,1,99.9999999999999,6|0,1:2|1:2,0:0:0:0:
300,280,85053,1,8,0:0:0:0:
300,280,85219,2,0,L|314:233,1,50,2|0,0:0|1:2,0:0:0:0:
296,185,85553,1,10,1:2:0:0:
361,110,85886,5,10,0:0:0:0:
361,110,86053,2,0,B|414:96|414:96|450:128,2,99.9999999999999,6|10|2,1:2|0:0|1:2,0:0:0:0:
267,92,87053,1,10,0:0:0:0:
267,92,87219,2,0,P|225:80|165:59,1,99.9999999999999,6|0,1:2|1:2,0:0:0:0:
129,89,87719,1,10,0:0:0:0:
51,152,88053,2,0,P|33:198|57:258,1,99.9999999999999,2|10,1:2|0:0,0:0:0:0:
76,291,88553,1,2,0:0:0:0:
76,291,88719,2,0,P|124:275|172:261,1,99.9999999999999,2|10,1:2|0:0,0:0:0:0:
247,326,89386,5,10,0:0:0:0:
324,262,89719,2,0,L|306:195,1,50,8|2,0:0|1:2,0:0:0:0:
334,168,90053,2,0,P|315:122|333:67,1,99.9999999999999,2|10,1:2|0:0,0:0:0:0:
414,25,90719,1,2,1:2:0:0:
483,96,91053,2,0,L|468:152,1,50,2|0,1:2|1:2,0:0:0:0:
474,194,91386,6,0,B|501:238|501:238|480:298,1,99.9999999999999,6|8,1:2|0:0,0:0:0:0:
403,341,92053,1,8,0:0:0:0:
319,286,92386,2,0,P|274:304|207:283,1,99.9999999999999,10|8,0:0|0:0,0:0:0:0:
179,273,92886,2,0,P|140:279|75:288,1,99.9999999999999,2|0,0:0|1:2,0:0:0:0:
39,316,93386,1,10,0:0:0:0:
6,221,93719,2,0,L|18:165,1,50,10|2,0:0|1:2,0:0:0:0:
47,132,94053,6,0,B|104:146|104:146|154:122,1,99.9999999999999,10|8,1:2|0:0,0:0:0:0:
204,51,94719,1,8,0:0:0:0:
277,118,95053,2,0,P|318:97|368:115,1,99.9999999999999,10|8,0:0|0:0,0:0:0:0:
384,160,95553,2,0,P|399:207|415:276,1,99.9999999999999,2|0,0:0|1:2,0:0:0:0:
457,273,96053,1,2,0:0:0:0:
385,342,96386,5,10,0:0:0:0:
385,342,96553,1,10,0:0:0:0:
