osu file format v14

[General]
AudioFilename: audio.ogg
AudioLeadIn: 0
PreviewTime: 47825
Countdown: 0
SampleSet: Soft
StackLeniency: 0.7
Mode: 0
LetterboxInBreaks: 0
WidescreenStoryboard: 1

[Editor]
DistanceSpacing: 2.3
BeatDivisor: 4
GridSize: 4
TimelineZoom: 2

[Metadata]
Title:neophobia (Cut Ver.)
TitleUnicode:neophobia (Cut Ver.)
Artist:nano
ArtistUnicode:ナノ
Creator:NYAN_KOT_NYAN
Version:-karupa-'s insane
Source:
Tags:jrock j-rock rock English N MajK00 MajKowaTy -karUpA- sinyus20 Take
BeatmapID:4295871
BeatmapSetID:2053305

[Difficulty]
HPDrainRate:5
CircleSize:4
OverallDifficulty:8
ApproachRate:9
SliderMultiplier:1.8
SliderTickRate:1

[Events]
//Background and Video events
0,0,"IWBBVuP.png",0,0
//Break Periods
2,32919,37119
2,43586,47453
//Storyboard Layer 0 (Background)
//Storyboard Layer 1 (Fail)
//Storyboard Layer 2 (Pass)
//Storyboard Layer 3 (Foreground)
//Storyboard Layer 4 (Overlay)
//Storyboard Sound Samples

[TimingPoints]
720,333.333333333333,4,2,1,60,1,0
11386,-125,4,2,1,60,0,0
21386,-111.111111111111,4,2,1,60,0,0
22053,-100,4,2,1,75,0,0
32719,-100,4,2,1,40,0,0
37719,-100,4,2,1,75,0,0
43386,-100,4,2,1,40,0,0
47886,-100,4,2,1,65,0,0
48053,-333.333333333333,4,2,1,65,0,0
48553,-100,4,2,1,90,0,0
70053,-100,4,2,1,80,0,0
91386,-100,4,2,1,70,0,0

[Colours]
Combo1 : 138,138,138
Combo2 : 255,106,106
Combo3 : 176,100,100
Combo4 : 255,128,255

[HitObjects]
337,163,11386,5,8,0:0:0:0:
133,225,11553,1,8,0:0:0:0:
133,225,13553,5,8,0:0:0:0:
141,243,13886,1,8,0:0:0:0:
29,177,14052,1,8,0:0:0:0:
243,86,14219,1,8,0:0:0:0:
243,86,15886,5,10,0:0:0:0:
339,268,16219,1,8,0:0:0:0:
124,358,16553,1,8,0:0:0:0:
244,250,16719,5,8,0:0:0:0:
346,352,16886,1,8,0:0:0:0:
346,352,18886,5,8,0:0:0:0:
291,181,19219,1,8,0:0:0:0:
362,97,19386,1,10,0:0:0:0:
342,254,19553,1,8,0:0:0:0:
342,254,20553,5,2,0:0:0:0:
265,208,20719,1,2,0:0:0:0:
178,237,20886,1,2,1:2:0:0:
103,152,21053,5,8,0:0:0:0:
16,175,21219,1,0,1:2:0:0:
173,216,21386,2,0,P|187:157|188:122,1,80.9999975280763,10|8,0:3|0:0,0:0:0:0:
188,136,21636,1,8,0:0:0:0:
188,136,21719,2,0,L|140:129,1,40.4999987640381,10|8,0:0|0:0,0:0:0:0:
99,44,21886,2,0,L|138:37,1,40.4999987640381,8|8,0:0|0:0,0:0:0:0:
280,47,22053,6,0,P|289:119|386:136,1,180,4|10,1:2|0:0,0:0:0:0:
477,105,22553,1,2,0:0:0:0:
441,231,22719,2,0,P|428:285|425:322,1,90,2|0,1:2|1:2,0:0:0:0:
338,358,23053,1,10,0:0:0:0:
243,278,23219,6,0,P|174:302|56:311,1,180,2|2,1:2|1:2,0:0:0:0:
121,211,23719,1,10,0:0:0:0:
19,161,23886,1,2,1:2:0:0:
166,109,24053,2,0,P|180:65|175:11,1,90,2|0,1:2|1:2,0:0:0:0:
8,31,24386,2,0,P|66:50|114:49,1,90,10|0,0:0|0:0,0:0:0:0:
249,140,24719,5,0,1:2:0:0:
294,47,24886,1,2,1:2:0:0:
309,214,25053,2,0,B|266:232|266:232|213:225,1,90,10|2,0:0|0:0,0:0:0:0:
345,138,25386,1,2,1:2:0:0:
222,226,25553,1,0,1:2:0:0:
344,299,25719,1,10,0:0:0:0:
282,384,25886,6,0,P|337:319|432:355,1,180,2|2,1:2|1:2,0:0:0:0:
491,268,26386,1,8,0:0:0:0:
394,206,26553,1,2,0:0:0:0:
463,130,26719,1,0,1:2:0:0:
432,58,26886,1,2,1:2:0:0:
292,102,27053,5,10,0:0:0:0:
460,159,27219,1,2,0:0:0:0:
358,224,27386,2,0,P|345:274|345:328,1,90,4|0,1:2|1:2,0:0:0:0:
231,364,27719,2,0,P|244:314|244:260,1,90,10|2,0:0|0:0,0:0:0:0:
126,191,28053,2,0,P|63:181|10:283,1,180,2|10,1:2|0:0,0:0:0:0:
198,247,28553,6,0,P|210:200|205:157,1,90,2|0,1:2|0:0,0:0:0:0:
98,268,28886,2,0,P|92:316|76:363,1,90,2|8,1:2|0:0,0:0:0:0:
226,258,29219,5,2,0:0:0:0:
295,314,29386,1,0,1:2:0:0:
374,271,29553,1,0,1:2:0:0:
505,242,29719,5,10,0:0:0:0:
436,208,29886,1,10,0:0:0:0:
436,208,29969,1,8,0:0:0:0:
436,208,30053,2,0,P|458:257|450:301,2,90,2|0|8,1:2|1:2|0:0,0:0:0:0:
308,113,30553,2,0,L|318:58,1,45
386,10,30719,2,0,P|444:22|496:25,1,90,2|0,1:2|1:2,0:0:0:0:
295,132,31053,2,0,P|237:120|185:117,1,90,10|0,0:0|1:2,0:0:0:0:
308,47,31386,5,2,0:0:0:0:
206,117,31553,1,0,1:2:0:0:
372,170,31719,1,10,0:0:0:0:
179,234,31886,1,0,1:2:0:0:
221,21,32053,2,0,P|241:91|253:210,1,180,10|2,0:0|0:0,0:0:0:0:
316,277,32553,1,0,1:2:0:0:
138,326,32719,1,6,1:2:0:0:
251,26,37719,5,10,0:0:0:0:
344,111,37886,2,0,P|376:166|324:299,1,180,6|0,1:2|1:2,0:0:0:0:
206,179,38386,2,0,P|261:193|300:193,1,90,8|0,0:0|0:0,0:0:0:0:
254,98,38719,1,0,1:2:0:0:
122,184,38886,1,0,1:2:0:0:
39,139,39053,1,8,0:0:0:0:
96,43,39219,6,0,P|87:98|71:231,1,180,0|0,1:2|1:2,0:0:0:0:
27,308,39719,2,0,P|84:327|134:337,1,90,8|0,0:0|1:2,0:0:0:0:
214,263,40053,2,0,P|256:248|300:237,1,90,0|2,1:2|1:2,0:0:0:0:
398,301,40386,1,10,0:0:0:0:
482,149,40553,6,0,P|449:200|355:194,1,135,6|0,1:2|0:0,0:0:0:0:
379,208,40886,1,2,1:2:0:0:
307,147,41053,1,10,0:0:0:0:
368,48,41219,1,2,0:0:0:0:
361,232,41386,2,0,P|354:313|349:338,1,90,0|2,1:2|1:2,0:0:0:0:
425,361,41719,1,10,0:0:0:0:
237,382,41886,6,0,P|230:337|228:292,1,90,2|0,1:2|0:0,0:0:0:0:
139,233,42219,1,2,1:2:0:0:
228,291,42386,1,8,0:0:0:0:
66,335,42553,1,2,1:2:0:0:
92,158,42719,2,0,P|139:147|189:169,1,90,8|0,0:0|1:2,0:0:0:0:
324,83,43053,1,2,1:2:0:0:
238,26,43219,1,0,1:2:0:0:
280,210,43386,1,2,1:2:0:0:
393,245,48053,6,0,P|395:209|401:176,1,67.4999979400635,2|0,0:0|0:0,0:0:0:0:
401,178,48553,6,0,B|357:185|287:159|287:159|326:179|331:229,1,180,6|0,1:2|1:2,0:0:0:0:
365,81,49053,1,8,0:0:0:0:
245,223,49219,1,2,0:0:0:0:
401,178,49386,5,2,1:2:0:0:
211,98,49553,1,0,1:2:0:0:
294,27,49719,1,10,0:0:0:0:
245,223,49886,2,0,P|216:281|254:381,1,135,2|0,1:2|0:0,0:0:0:0:
227,348,50219,1,0,1:2:0:0:
387,314,50386,2,0,P|320:305|287:293,1,90,8|2,0:0|0:0,0:0:0:0:
249,203,50719,5,2,1:2:0:0:
89,262,50886,1,2,1:2:0:0:
184,139,51053,1,8,0:0:0:0:
142,2,51219,2,0,P|152:89|155:190,1,180,6|2,1:2|1:2,0:0:0:0:
69,362,51719,1,10,0:0:0:0:
69,362,51886,2,0,P|58:301|63:260,1,90,2|0,1:2|1:2,0:0:0:0:
258,212,52219,2,0,P|247:273|252:314,1,90,2|8,1:2|0:0,0:0:0:0:
505,236,52553,6,0,B|440:241|440:241|401:262|401:262|305:277,1,180,6|2,1:2|1:2,0:0:0:0:
258,212,53053,1,10,0:0:0:0:
244,123,53219,1,2,1:2:0:0:
309,61,53386,1,2,1:2:0:0:
426,117,53553,5,8,0:0:0:0:
426,117,53636,1,8,0:0:0:0:
426,117,53719,1,10,0:0:0:0:
455,24,53886,1,0,1:2:0:0:
332,155,54053,2,0,P|300:212|325:338,2,180,4|10|10,1:2|0:0|0:0,0:0:0:0:
168,294,54886,1,0,1:2:0:0:
221,164,55053,1,10,0:0:0:0:
92,97,55219,1,2,1:2:0:0:
135,196,55386,1,8,0:0:0:0:
135,196,55719,6,0,P|196:186|234:172,1,90,10|0,0:0|1:2,0:0:0:0:
301,279,56053,2,0,P|240:289|202:303,1,90,10|0,0:0|1:2,0:0:0:0:
328,165,56386,1,10,0:0:0:0:
459,213,56553,5,2,1:2:0:0:
459,213,56636,1,8,0:0:0:0:
459,213,56719,2,0,P|465:270|456:308,1,90,10|2,0:0|1:2,0:0:0:0:
288,314,57053,1,10,0:0:0:0:
376,252,57219,1,2,1:2:0:0:
376,252,57303,1,8,0:0:0:0:
376,252,57386,1,10,0:0:0:0:
184,154,57553,5,0,1:2:0:0:
83,237,57719,1,10,0:0:0:0:
140,353,57886,2,0,P|223:342|321:351,1,180,6|0,1:2|1:2,0:0:0:0:
469,224,58386,2,0,P|406:240|370:242,1,90,8|2,0:0|1:2,0:0:0:0:
381,241,58636,1,8,0:0:0:0:
381,241,58719,1,2,1:2:0:0:
247,173,58886,2,0,P|237:141|242:125,1,45,2|8,1:2|0:0,0:0:0:0:
313,56,59053,1,10,0:0:0:0:
303,277,59219,6,0,B|194:266|242:307|109:288,1,180,6|0,1:2|1:2,0:0:0:0:
26,192,59719,2,0,P|37:243|41:284,1,90,8|2,0:0|0:0,0:0:0:0:
149,132,60053,1,2,1:2:0:0:
82,55,60219,5,0,1:2:0:0:
55,211,60386,1,10,0:0:0:0:
242,172,60553,2,0,P|283:206|418:175,1,180,2|0,1:2|1:2,0:0:0:0:
492,50,61053,2,0,P|427:69|384:73,1,90,8|2,0:0|0:0,0:0:0:0:
319,10,61386,1,2,1:2:0:0:
405,71,61553,1,2,1:2:0:0:
290,172,61719,1,8,0:0:0:0:
469,136,61886,6,0,P|482:179|480:227,1,90,6|0,1:2|1:2,0:0:0:0:
392,315,62219,2,0,P|335:305|286:298,1,90,2|10,1:2|0:0,0:0:0:0:
181,351,62553,2,0,P|176:302|197:244,1,90,2|0,1:2|1:2,0:0:0:0:
13,243,62886,1,2,1:2:0:0:
125,154,63053,1,8,0:0:0:0:
72,56,63219,6,0,P|94:108|214:78,1,180,2|2,1:2|1:2,0:0:0:0:
300,48,63719,1,10,0:0:0:0:
300,48,63886,1,2,1:2:0:0:
371,196,64053,5,10,0:0:0:0:
371,196,64136,1,8,0:3:0:0:
371,196,64219,1,0,1:2:0:0:
269,132,64386,1,2,1:2:0:0:
226,276,64553,1,0,1:2:0:0:
495,284,64719,6,0,P|491:220|493:187,1,90,4|2,1:2|1:2,0:0:0:0:
448,94,65053,2,0,P|452:158|450:191,1,90,10|0,0:0|0:0,0:0:0:0:
353,345,65386,2,0,P|349:281|351:248,1,90,10|0,0:0|1:2,0:0:0:0:
180,126,65720,2,0,P|184:190|182:223,1,90,10|2,0:0|1:2,0:0:0:0:
182,215,65969,5,8,0:0:0:0:
182,215,66053,1,8,0:0:0:0:
91,182,66219,1,0,1:2:0:0:
168,320,66386,1,10,0:0:0:0:
310,235,66553,1,0,1:2:0:0:
222,133,66719,5,10,0:0:0:0:
267,322,66886,1,0,1:2:0:0:
337,212,67053,1,10,0:0:0:0:
462,257,67219,1,2,1:2:0:0:
462,257,67303,1,8,0:0:0:0:
462,257,67386,1,8,0:0:0:0:
409,83,67553,6,0,P|399:132|402:182,1,90,2|10,1:2|0:0,0:0:0:0:
299,96,67886,1,2,1:2:0:0:
202,225,68053,1,10,0:0:0:0:
215,222,68136,1,8,0:3:0:0:
228,220,68219,1,2,1:2:0:0:
241,219,68303,1,8,0:0:0:0:
254,217,68386,1,8,0:0:0:0:
136,158,68553,6,0,P|110:202|141:307,1,135,6|0,1:2|0:0,0:0:0:0:
120,282,68886,1,10,0:0:0:0:
222,192,69053,1,10,0:0:0:0:
294,369,69219,1,10,0:0:0:0:
34,322,69386,1,10,0:0:0:0:
34,322,70053,6,0,P|49:243|58:126,1,180,6|10,1:2|0:0,0:0:0:0:
345,67,70719,1,2,1:2:0:0:
181,131,70886,1,0,1:2:0:0:
291,196,71053,2,0,P|306:247|267:370,1,180,10|2,0:0|0:0,0:0:0:0:
149,354,71553,1,0,1:2:0:0:
127,241,71719,2,0,P|190:260|229:265,1,90,10|0,0:0|1:2,0:0:0:0:
465,234,72053,2,0,P|402:215|363:210,1,90,2|0,1:2|1:2,0:0:0:0:
255,129,72386,2,0,P|318:110|357:105,1,90,10|2,0:0|1:2,0:0:0:0:
341,106,72636,5,0,1:2:0:0:
341,106,72719,1,6,1:2:0:0:
268,29,72886,1,0,1:2:0:0:
181,188,73053,2,0,P|170:135|184:92,1,90,10|2,0:0|0:0,0:0:0:0:
263,232,73386,1,2,1:2:0:0:
141,312,73553,1,0,1:2:0:0:
74,202,73719,1,10,0:0:0:0:
16,257,73886,5,2,1:2:0:0:
16,257,73969,1,0,1:2:0:0:
16,257,74053,2,0,P|79:259|201:280,1,180,2|10,0:0|0:0,0:0:0:0:
304,341,74553,2,0,P|317:286|316:253,1,90,2|2,0:0|1:2,0:0:0:0:
217,100,74886,2,0,P|230:155|229:188,1,90,2|10,1:2|0:0,0:0:0:0:
5,145,75219,2,0,L|52:135,1,45,2|0,1:2|1:2,0:0:0:0:
135,93,75386,5,6,1:2:0:0:
87,11,75553,1,0,1:2:0:0:
59,219,75719,2,0,P|126:234|173:241,1,90,10|0,0:0|0:0,0:0:0:0:
242,179,76053,1,2,0:0:0:0:
332,244,76219,1,0,1:2:0:0:
418,115,76386,2,0,P|401:67|405:20,1,90,10|2,0:0|1:2,0:0:0:0:
471,192,76719,5,2,0:0:0:0:
471,192,76886,1,0,1:2:0:0:
332,244,77053,2,0,P|387:269|438:267,1,90,10|0,0:0|0:0,0:0:0:0:
253,178,77386,2,0,P|237:237|241:283,1,90,2|0,1:2|1:2,0:0:0:0:
400,357,77719,2,0,P|416:298|412:252,1,90,10|2,0:0|1:2,0:0:0:0:
237,265,78053,6,0,P|175:272|141:277,2,90,6|0|10,1:2|1:2|0:0,0:0:0:0:
181,185,78553,1,0,0:0:0:0:
60,264,78719,1,2,1:2:0:0:
60,264,78803,1,0,1:2:0:0:
60,264,78886,1,0,1:2:0:0:
69,136,79053,5,14,1:2:0:0:
237,265,79219,1,0,1:2:0:0:
139,338,79386,2,0,P|144:290|159:232,1,90,2|2,0:0|1:2,0:0:0:0:
282,160,79719,2,0,P|277:208|262:266,1,90,10|0,0:0|1:2,0:0:0:0:
334,353,80053,1,2,1:2:0:0:
346,356,80136,1,0,1:2:0:0:
359,354,80219,1,0,1:2:0:0:
370,347,80303,1,0,1:2:0:0:
378,336,80386,1,10,0:0:0:0:
382,323,80469,1,8,0:0:0:0:
378,309,80553,1,10,0:0:0:0:
369,298,80636,1,8,0:0:0:0:
356,289,80719,6,0,P|256:278|168:266,1,180,6|10,1:2|0:0,0:0:0:0:
88,186,81219,1,0,1:2:0:0:
88,186,81303,1,0,1:2:0:0:
88,186,81386,1,2,0:0:0:0:
177,267,81553,1,0,1:2:0:0:
259,140,81719,1,10,0:0:0:0:
85,83,81886,1,2,1:2:0:0:
170,168,82053,6,0,P|223:172|333:145,1,135,2|0,0:0|0:0,0:0:0:0:
303,157,82386,2,0,P|318:97|300:41,1,90,10|0,0:0|0:0,0:0:0:0:
433,161,82719,2,0,P|418:221|436:277,1,90,2|0,0:0|1:2,0:0:0:0:
330,319,83053,1,10,0:0:0:0:
485,363,83219,1,2,1:2:0:0:
422,247,83386,5,6,1:2:0:0:
305,344,83553,1,0,1:2:0:0:
218,261,83719,2,0,P|226:199|227:158,1,90,10|2,0:0|0:0,0:0:0:0:
55,189,84053,2,0,B|101:209|101:209|173:213,1,90,0|0,1:2|1:2,0:0:0:0:
245,143,84386,1,10,0:0:0:0:
301,274,84553,6,0,P|244:341|140:301,1,180,6|0,1:2|1:2,0:0:0:0:
227,226,85053,1,8,0:0:0:0:
386,301,85219,1,2,0:0:0:0:
313,190,85386,1,0,1:2:0:0:
313,190,85469,1,0,1:2:0:0:
313,190,85553,1,10,1:2:0:0:
313,190,85636,1,8,0:0:0:0:
313,190,85719,2,0,L|357:175,1,45,8|8,0:0|0:0,0:0:0:0:
394,88,85886,2,0,L|438:103,1,45,10|8,0:0|0:0,0:0:0:0:
503,240,86053,6,0,P|496:300|380:299,1,180,6|10,1:2|0:0,0:0:0:0:
240,262,86553,1,0,1:2:0:0:
240,262,86719,2,0,P|299:252|338:238,1,90,2|0,1:2|1:2,0:0:0:0:
252,158,87053,1,10,0:0:0:0:
107,282,87219,6,0,P|76:227|120:118,1,180,6|0,1:2|1:2,0:0:0:0:
243,28,87719,1,10,0:0:0:0:
165,198,87886,5,0,0:0:0:0:
315,240,88053,1,2,1:2:0:0:
398,127,88219,1,0,1:2:0:0:
256,182,88386,2,0,P|236:229|236:268,1,90,10|2,0:0|0:0,0:0:0:0:
369,348,88719,5,2,1:2:0:0:
369,348,88886,1,0,1:2:0:0:
315,240,89053,1,10,0:0:0:0:
414,147,89219,1,0,1:2:0:0:
318,31,89386,1,10,0:0:0:0:
475,78,89553,1,0,1:2:0:0:
240,188,89719,2,0,P|220:235|230:284,1,90,8|2,0:0|1:2,0:0:0:0:
340,357,90053,6,0,L|383:345,3,45,2|0|0|8,1:2|1:2|1:2|0:0,0:0:0:0:
476,371,90386,2,0,L|486:307,3,45,10|8|10|0,0:0|0:0|0:0|1:2,0:0:0:0:
408,250,90719,1,2,1:2:0:0:
398,229,90803,1,0,1:2:0:0:
394,206,90886,1,0,1:2:0:0:
404,185,90969,1,0,1:2:0:0:
422,171,91053,2,0,P|453:166|483:157,1,45,2|0,1:2|1:2,0:0:0:0:
351,97,91219,2,0,P|320:92|290:83,1,45,0|0,1:2|1:2,0:0:0:0:
412,39,91386,5,6,1:2:0:0:
412,39,91719,1,8,0:0:0:0:
412,39,92053,1,8,0:0:0:0:
412,39,92386,1,10,0:0:0:0:
245,134,92719,5,8,0:0:0:0:
245,134,93052,1,8,0:0:0:0:
214,31,93219,1,0,1:2:0:0:
365,111,93386,2,0,P|363:158|345:211,1,90,10|0,0:0|1:2,0:0:0:0:
217,131,93719,1,10,0:0:0:0:
138,309,93886,1,2,1:2:0:0:
232,224,94053,2,0,P|234:271|252:324,1,90,10|0,1:2|1:2,0:0:0:0:
362,210,94386,5,8,0:0:0:0:
362,210,94719,1,8,0:0:0:0:
362,210,95053,1,10,0:0:0:0:
362,210,95386,1,8,0:0:0:0:
198,157,95719,5,8,0:0:0:0:
362,210,95886,2,0,P|376:274|331:382,1,180,0|2,1:2|1:2,0:0:0:0:
155,299,96386,1,10,0:0:0:0:
235,138,96553,1,10,0:0:0:0:
