osu file format v14

[General]
AudioFilename: audio.mp3
AudioLeadIn: 0
PreviewTime: 73993
Countdown: 0
SampleSet: Soft
StackLeniency: 0.5
Mode: 0
LetterboxInBreaks: 0
WidescreenStoryboard: 0

[Editor]
Bookmarks: 117581
DistanceSpacing: 1.2
BeatDivisor: 4
GridSize: 4
TimelineZoom: 1.9

[Metadata]
Title:bittersweet
TitleUnicode:bittersweet
Artist:nano
ArtistUnicode:ナノ
Creator:Foggy Otaku
Version:Hard
Source:
Tags:cut version Dreamcatcher the crossing rock
BeatmapID:1319715
BeatmapSetID:620199

[Difficulty]
HPDrainRate:5
CircleSize:3.5
OverallDifficulty:6
ApproachRate:8
SliderMultiplier:1.4
SliderTickRate:1

[Events]
//Background and Video events
0,0,"bittersweet bg.jpg",0,0
//Break Periods
//Storyboard Layer 0 (Background)
//Storyboard Layer 1 (Fail)
//Storyboard Layer 2 (Pass)
//Storyboard Layer 3 (Foreground)
//Storyboard Sound Samples

[TimingPoints]
758,352.941176470588,4,2,2,35,1,0
758,-142.857142857143,4,2,2,35,0,0
12052,-133.333333333333,4,2,2,40,0,0
23346,-125,4,2,2,45,0,0
28993,-125,4,2,2,50,0,0
33934,-111.111111111111,4,2,1,60,0,0
34110,-111.111111111111,4,2,1,55,0,0
34463,-100,4,2,1,67,0,0
45493,-100,4,2,1,60,0,0
45757,-100,4,2,1,67,0,0
45934,-111.111111111111,4,2,1,57,0,0
67640,-111.111111111111,4,2,1,53,0,0
68169,-111.111111111111,4,2,1,55,0,0
68522,-105.263157894737,4,2,1,50,0,0
73463,-105.263157894737,4,2,1,60,0,0
73993,-100,4,2,1,80,0,1
74081,-100,4,2,1,65,0,1
82640,-100,4,2,1,60,0,1
84052,-100,4,2,1,55,0,1
84228,-100,4,2,1,60,0,1
85287,-100,4,2,1,65,0,1
96228,-100,4,2,1,57,0,1
96581,-100,4,2,1,65,0,0
101787,-100,4,2,1,55,0,0
102228,-100,4,2,1,65,0,0
106640,-100,4,2,1,55,0,0
108052,-100,4,2,1,70,0,0
108140,-100,4,2,1,20,0,0

[Colours]
Combo1 : 27,106,15
Combo2 : 181,232,251
Combo3 : 15,2,104
Combo4 : 10,182,239

[HitObjects]
82,146,758,6,0,B|133:229|133:229|178:207|228:229|228:229|285:146,1,293.999991027832,2|0,0:0|0:0,0:0:0:0:
378,172,2169,2,0,P|317:53|195:108,1,293.999991027832,2|0,0:0|0:0,0:0:0:0:
141,188,3581,6,0,B|229:229|229:229|328:231|328:231|426:276,1,293.999991027832,2|0,0:0|0:0,0:0:0:0:
485,339,4993,2,0,B|516:246|516:246|498:179,2,146.999995513916,2|2|2,0:0|0:0|0:0,0:0:0:0:
360,332,6405,6,0,P|283:217|386:131,1,293.999991027832,2|0,0:0|0:0,0:0:0:0:
380,233,7816,2,0,L|72:199,1,293.999991027832,2|0,0:0|0:0,0:0:0:0:
62,105,9228,5,2,0:0:0:0:
9,318,9757,1,2,0:0:0:0:
216,243,10287,1,2,0:0:0:0:
133,189,10640,6,0,P|266:157|305:289,1,293.999991027832,2|0,0:0|0:0,0:0:0:0:
228,349,12052,6,0,P|177:359|118:344,1,105.000004005432,10|8,0:0|0:0,0:0:0:0:
16,234,12757,2,0,L|37:172,1,52.5000020027161,8|8,0:0|0:0,0:0:0:0:
88,127,13110,2,0,P|113:135|140:134,1,52.5000020027161,8|8,0:0|0:0,0:0:0:0:
265,82,13463,6,0,P|250:56|228:38,2,52.5000020027161,10|8|8,0:0|0:0|0:0,0:0:0:0:
296,155,13993,2,0,P|299:207|273:252,1,105.000004005432,8|8,0:0|0:0,0:0:0:0:
196,270,14522,2,0,L|135:254,1,52.5000020027161,8|8,0:0|0:0,0:0:0:0:
70,142,14875,6,0,P|117:119|169:126,1,105.000004005432,10|8,0:0|0:0,0:0:0:0:
239,158,15405,1,8,0:0:0:0:
313,125,15581,2,0,P|325:100|326:73,1,52.5000020027161,8|8,0:0|0:0,0:0:0:0:
262,28,15934,2,0,P|250:53|249:80,1,52.5000020027161,8|8,0:0|0:0,0:0:0:0:
305,201,16287,6,0,L|377:302,1,105.000004005432,10|8,0:0|0:0,0:0:0:0:
448,177,16816,2,0,L|508:91,1,105.000004005432,10|8,0:0|0:0,0:0:0:0:
378,72,17346,2,0,P|347:77|325:75,1,52.5000020027161,10|8,0:0|0:0,0:0:0:0:
192,46,17699,6,0,L|171:112,1,52.5000020027161,10|8,0:0|0:0,0:0:0:0:
156,172,18052,2,0,P|159:223|194:260,1,105.000004005432,8|8,0:0|0:0,0:0:0:0:
269,236,18581,2,0,L|284:185,2,52.5000020027161,8|8|8,0:0|0:0|0:0,0:0:0:0:
384,309,19110,6,0,L|399:359,2,52.5000020027161,10|8|8,0:0|0:0|0:0,0:0:0:0:
425,241,19640,2,0,P|443:193|426:144,1,105.000004005432,8|8,0:0|0:0,0:0:0:0:
370,89,20169,2,0,L|304:92,1,52.5000020027161,8|8,0:0|0:0,0:0:0:0:
196,154,20522,6,0,P|146:172|89:154,1,105.000004005432,10|8,0:0|0:0,0:0:0:0:
181,50,21052,2,0,L|196:154,1,105.000004005432,10|8,0:0|0:0,0:0:0:0:
175,289,21581,2,0,P|147:298|117:297,1,52.5000020027161,10|8,0:0|0:0,0:0:0:0:
239,224,21934,6,0,P|262:273|225:363,1,157.500006008148,10|8,0:0|0:0,0:0:0:0:
136,222,22816,2,0,L|123:165,2,52.5000020027161,8|8|8,0:0|0:0|0:0,0:0:0:0:
219,114,23346,6,0,P|271:96|323:113,1,112,14|8,0:0|0:0,0:0:0:0:
392,172,23875,1,8,0:0:0:0:
322,276,24052,2,0,P|270:293|218:274,1,112,10|8,0:0|0:0,0:0:0:0:
272,202,24581,1,8,0:0:0:0:
392,172,24757,6,0,P|397:203|391:236,2,56,10|8|8,0:0|0:0|0:0,0:0:0:0:
324,114,25287,2,0,L|251:110,1,56,8|10,0:0|0:0,0:0:0:0:
200,170,25640,2,0,L|145:218,1,56,8|8,0:0|0:0,0:0:0:0:
137,329,25993,1,12,0:0:0:0:
248,276,26169,6,0,P|301:268|352:296,1,112,14|8,0:0|0:0,0:0:0:0:
409,363,26699,1,8,0:0:0:0:
468,255,26875,2,0,L|478:185,1,56,10|8,0:0|0:0,0:0:0:0:
408,140,27228,2,0,L|398:70,1,56,8|8,0:0|0:0,0:0:0:0:
281,45,27581,6,0,P|239:68|211:126,1,112,10|8,0:0|0:0,0:0:0:0:
230,211,28110,1,10,0:0:0:0:
346,251,28287,2,0,P|372:244|394:227,1,56,10|8,0:0|0:0,0:0:0:0:
408,140,28640,1,8,0:0:0:0:
320,121,28816,1,8,0:0:0:0:
230,211,28993,6,0,P|219:277|244:329,1,112,14|8,0:0|0:0,0:0:0:0:
325,330,29522,1,8,0:0:0:0:
399,231,29699,1,10,0:0:0:0:
399,231,29875,2,0,P|442:283|448:340,1,112,8|8,0:0|0:0,0:0:0:0:
325,330,30405,6,0,L|312:202,1,112,10|10,0:0|0:0,0:0:0:0:
273,138,30934,1,8,0:0:0:0:
273,138,31110,1,8,0:0:0:0:
149,134,31287,2,0,P|127:152|108:178,1,56,10|8,0:0|0:0,0:0:0:0:
117,297,31640,1,12,0:0:0:0:
234,272,31816,6,0,P|286:289|324:329,1,112,14|8,0:0|0:0,0:0:0:0:
208,355,32346,2,0,P|155:337|117:297,1,112,10|8,0:0|0:0,0:0:0:0:
110,173,32875,2,0,P|127:151|149:134,1,56,10|8,0:0|0:0,0:0:0:0:
237,119,33228,6,0,P|264:125|288:139,1,56,10|8,0:0|0:0,0:0:0:0:
364,186,33581,2,0,P|344:205|320:220,1,56,10|8,0:0|0:0,0:0:0:0:
218,223,33934,1,2,0:0:0:0:
218,223,34110,2,0,L|179:206,3,31.4999990386963,8|8|8|8,0:0|0:0|0:0|0:0,0:0:0:0:
148,188,34463,6,0,P|109:132|128:56,1,140,6|2,0:0|0:0,0:0:0:0:
204,25,34993,2,0,L|353:32,1,140,8|2,0:0|0:0,0:0:0:0:
430,60,35522,1,2,0:0:0:0:
391,142,35699,1,8,0:0:0:0:
495,181,35875,6,0,P|447:241|360:247,1,140,2|2,0:0|0:0,0:0:0:0:
297,239,36405,2,0,P|273:214|263:170,1,70,8|0,0:0|0:0,0:0:0:0:
306,100,36757,2,0,P|295:66|271:41,1,70,2|2,0:0|0:0,0:0:0:0:
181,32,37110,1,8,0:0:0:0:
185,144,37287,6,0,P|160:225|92:252,1,140,6|2,0:0|0:0,0:0:0:0:
93,159,37816,2,0,L|222:245,1,140,8|2,0:0|0:0,0:0:0:0:
288,283,38346,1,2,0:0:0:0:
289,192,38522,1,8,0:0:0:0:
195,129,38699,6,0,P|253:84|332:85,1,140,2|2,0:0|0:0,0:0:0:0:
399,120,39228,2,0,L|423:205,1,70,8|0,0:0|0:0,0:0:0:0:
395,275,39581,2,0,L|371:360,1,70,2|2,0:0|0:0,0:0:0:0:
288,366,39934,1,8,0:0:0:0:
252,259,40110,6,0,L|213:124,1,140,6|2,0:0|0:0,0:0:0:0:
122,112,40640,2,0,L|160:246,1,140,8|2,0:0|0:0,0:0:0:0:
205,325,41169,1,2,0:0:0:0:
288,366,41346,1,8,0:0:0:0:
316,257,41522,6,0,P|356:199|441:191,1,140,2|2,0:0|0:0,0:0:0:0:
452,271,42052,2,0,B|452:307|452:307|440:343,1,70,8|0,0:0|0:0,0:0:0:0:
356,377,42405,2,0,B|320:377|320:377|284:365,1,70,2|2,0:0|0:0,0:0:0:0:
205,325,42757,1,8,0:0:0:0:
239,217,42934,6,0,P|167:218|109:269,1,140,6|2,0:0|0:0,0:0:0:0:
88,345,43463,2,0,L|49:187,1,140,8|2,0:0|0:0,0:0:0:0:
54,117,43993,1,2,0:0:0:0:
141,140,44169,1,8,0:0:0:0:
190,39,44346,6,0,P|250:21|340:62,1,140,2|2,0:0|0:0,0:0:0:0:
344,132,44875,1,8,0:0:0:0:
252,136,45052,1,2,0:0:0:0:
190,39,45228,1,10,0:0:0:0:
149,148,45405,1,2,0:0:0:0:
149,148,45493,1,10,0:0:0:0:
149,148,45581,2,0,P|150:171|169:207,3,35,10|10|2|2,0:0|0:0|0:0|0:0,0:0:0:0:
172,218,45934,6,0,P|187:249|184:298,1,62.9999980773926,6|0,0:0|0:0,0:0:0:0:
107,270,46287,1,8,0:0:0:0:
57,204,46463,1,2,0:0:0:0:
57,204,46552,1,2,0:0:0:0:
57,204,46640,2,0,L|59:119,2,62.9999980773926,2|2|0,0:0|0:0|0:0,0:0:0:0:
28,313,47169,6,0,P|63:351|155:347,1,125.999996154785,8|2,0:0|0:0,0:0:0:0:
214,276,47699,2,0,P|263:260|340:310,1,125.999996154785,8|2,0:0|0:0,0:0:0:0:
388,345,48228,1,2,0:0:0:0:
441,282,48405,2,0,L|436:194,1,62.9999980773926,8|0,0:0|0:0,0:0:0:0:
381,120,48757,6,0,P|349:127|313:124,1,62.9999980773926,2|0,0:0|0:0,0:0:0:0:
242,94,49110,1,8,0:0:0:0:
181,149,49287,1,2,0:0:0:0:
181,149,49375,1,2,0:0:0:0:
181,149,49463,2,0,L|193:229,2,62.9999980773926,2|2|0,0:0|0:0|0:0,0:0:0:0:
82,91,49993,6,0,L|100:220,1,125.999996154785,8|2,0:0|0:0,0:0:0:0:
140,321,50522,2,0,P|196:338|261:310,1,125.999996154785,8|2,0:0|0:0,0:0:0:0:
300,243,51052,2,0,L|292:193,2,31.4999990386963,8|8|10,0:0|0:0|0:0,0:0:0:0:
373,290,51405,1,8,0:0:0:0:
373,290,51493,1,8,0:0:0:0:
372,290,51581,6,0,P|402:280|424:258,1,62.9999980773926,6|0,0:0|0:0,0:0:0:0:
453,181,51934,1,8,0:0:0:0:
421,109,52110,1,2,0:0:0:0:
421,109,52199,1,2,0:0:0:0:
421,109,52287,2,0,L|428:31,2,62.9999980773926,2|2|0,0:0|0:0|0:0,0:0:0:0:
325,171,52816,6,0,P|258:190|187:161,1,125.999996154785,8|2,0:0|0:0,0:0:0:0:
114,105,53346,2,0,L|138:237,1,125.999996154785,8|2,0:0|0:0,0:0:0:0:
176,300,53875,1,2,0:0:0:0:
256,318,54052,2,0,P|257:286|243:253,1,62.9999980773926,8|0,0:0|0:0,0:0:0:0:
137,229,54405,6,0,L|51:248,1,62.9999980773926,2|0,0:0|0:0,0:0:0:0:
14,187,54757,1,8,0:0:0:0:
55,122,54934,1,2,0:0:0:0:
55,122,55022,1,2,0:0:0:0:
55,122,55110,2,0,P|83:108|120:106,2,62.9999980773926,2|2|0,0:0|0:0|0:0,0:0:0:0:
76,242,55640,6,0,P|108:297|178:319,1,125.999996154785,8|2,0:0|0:0,0:0:0:0:
239,237,56169,2,0,P|287:199|349:199,1,125.999996154785,8|2,0:0|0:0,0:0:0:0:
419,245,56699,2,0,L|427:305,2,31.4999990386963,2|2|8,0:0|0:0|0:0,0:0:0:0:
459,177,57052,1,2,0:0:0:0:
459,177,57140,1,2,0:0:0:0:
459,177,57228,6,0,L|450:113,1,62.9999980773926,6|0,0:0|0:0,0:0:0:0:
379,73,57581,1,8,0:0:0:0:
306,110,57757,1,2,0:0:0:0:
306,110,57846,1,2,0:0:0:0:
306,109,57934,2,0,P|275:116|244:114,2,62.9999980773926,2|2|0,0:0|0:0|0:0,0:0:0:0:
215,41,58463,6,0,P|166:97|181:165,1,125.999996154785,8|2,0:0|0:0,0:0:0:0:
234,238,58993,2,0,L|370:231,1,125.999996154785,8|2,0:0|0:0,0:0:0:0:
430,189,59522,1,2,0:0:0:0:
482,252,59699,2,0,P|492:285|488:321,1,62.9999980773926,8|0,0:0|0:0,0:0:0:0:
384,355,60052,6,0,L|321:358,1,62.9999980773926,2|0,0:0|0:0,0:0:0:0:
241,336,60405,1,8,0:0:0:0:
161,315,60581,1,2,0:0:0:0:
161,315,60669,1,2,0:0:0:0:
161,315,60757,2,0,L|98:318,2,62.9999980773926,2|2|0,0:0|0:0|0:0,0:0:0:0:
241,234,61287,6,0,P|261:172|232:108,1,125.999996154785,8|2,0:0|0:0,0:0:0:0:
143,54,61816,2,0,L|178:175,1,125.999996154785,8|2,0:0|0:0,0:0:0:0:
241,234,62346,2,0,L|232:265,2,31.4999990386963,8|8|10,0:0|0:0|0:0,0:0:0:0:
321,220,62699,1,8,0:0:0:0:
321,220,62787,1,8,0:0:0:0:
321,220,62875,6,0,L|338:159,1,62.9999980773926,6|0,0:0|0:0,0:0:0:0:
397,102,63228,1,8,0:0:0:0:
451,171,63405,1,2,0:0:0:0:
451,171,63493,1,2,0:0:0:0:
451,171,63581,2,0,P|462:199|459:238,2,62.9999980773926,2|2|0,0:0|0:0|0:0,0:0:0:0:
338,159,64110,6,0,P|272:148|217:93,1,125.999996154785,8|2,0:0|0:0,0:0:0:0:
157,21,64640,2,0,L|140:168,1,125.999996154785,8|2,0:0|0:0,0:0:0:0:
134,227,65169,1,2,0:0:0:0:
209,195,65346,2,0,L|271:204,1,62.9999980773926,8|0,0:0|0:0,0:0:0:0:
364,268,65699,6,0,P|372:300|366:335,1,62.9999980773926,2|0,0:0|0:0,0:0:0:0:
289,304,66052,1,8,0:0:0:0:
210,281,66228,1,2,0:0:0:0:
210,281,66316,1,2,0:0:0:0:
210,281,66405,2,0,P|178:277|148:285,2,62.9999980773926,2|2|0,0:0|0:0|0:0,0:0:0:0:
184,358,66934,1,8,0:0:0:0:
69,306,67110,6,0,L|62:261,3,31.4999990386963,8|2|2|2,0:0|0:0|0:0|0:0,0:0:0:0:
62,233,67463,2,0,L|78:190,3,31.4999990386963,8|2|8|8,0:0|0:0|0:0|0:0,0:0:0:0:
97,170,67816,2,0,L|132:141,3,31.4999990386963,10|10|10|10,0:0|0:0|0:0|0:0,0:0:0:0:
153,124,68169,2,0,B|202:127|202:127|257:106,1,94.499997116089,2|2,0:0|0:0,0:0:0:0:
290,91,68522,6,0,L|351:65,1,66.4999982242585,12|2,0:0|0:0,0:0:0:0:
454,150,68875,2,0,L|392:175,1,66.4999982242585,8|2,0:0|0:0,0:0:0:0:
287,257,69228,2,0,L|295:191,1,66.4999982242585,8|2,0:0|0:0,0:0:0:0:
172,239,69581,2,0,L|163:304,1,66.4999982242585,8|2,0:0|0:0,0:0:0:0:
71,207,69934,6,0,L|79:141,1,66.4999982242585,8|2,0:0|0:0,0:0:0:0:
188,64,70287,2,0,L|179:129,1,66.4999982242585,8|2,0:0|0:0,0:0:0:0:
296,191,70640,2,0,L|304:125,1,66.4999982242585,8|2,0:0|0:0,0:0:0:0:
413,48,70993,2,0,L|404:113,1,66.4999982242585,8|2,0:0|0:0,0:0:0:0:
370,256,71346,6,0,P|337:283|294:288,1,66.4999982242585,12|2,0:0|0:0,0:0:0:0:
195,349,71699,2,0,P|188:306|205:267,1,66.4999982242585,8|2,0:0|0:0,0:0:0:0:
239,159,72052,2,0,P|278:174|304:208,1,66.4999982242585,8|2,0:0|0:0,0:0:0:0:
195,284,72405,2,0,P|155:268|129:234,1,66.4999982242585,8|2,0:0|0:0,0:0:0:0:
87,130,72757,6,0,L|121:102,3,33.2499991121292,8|8|8|8,0:0|0:0|0:0|0:0,0:0:0:0:
150,86,73110,2,0,L|196:86,3,33.2499991121292,2|2|2|2,0:0|0:0|0:0|0:0,0:0:0:0:
226,87,73463,1,2,0:0:0:0:
393,128,73816,1,8,0:0:0:0:
393,128,73993,6,0,P|359:188|384:266,1,140,6|0,0:0|0:0,0:0:0:0:
481,265,74522,2,0,L|451:202,1,70,8|0,0:0|0:0,0:0:0:0:
485,102,74875,2,0,L|454:38,1,70,2|0,0:0|0:0,0:0:0:0:
350,24,75228,1,8,0:0:0:0:
297,80,75405,1,0,0:0:0:0:
198,43,75581,6,0,P|153:40|123:50,1,70,2|0,0:0|0:0,0:0:0:0:
95,146,75934,1,8,0:0:0:0:
169,125,76110,1,0,0:0:0:0:
245,197,76287,2,0,L|238:278,1,70,2|0,0:0|0:0,0:0:0:0:
148,320,76640,2,0,L|154:250,1,70,8|0,0:0|0:0,0:0:0:0:
169,125,76993,6,0,B|217:101|217:101|294:104,1,105,6|0,0:0|0:0,0:0:0:0:
303,118,77346,2,0,P|327:142|344:193,1,70,8|0,0:0|0:0,0:0:0:0:
313,276,77699,2,0,P|327:307|351:332,1,70,2|0,0:0|0:0,0:0:0:0:
454,354,78052,1,8,0:0:0:0:
468,278,78228,1,0,0:0:0:0:
408,190,78405,6,0,P|374:189|342:175,1,70,2|0,0:0|0:0,0:0:0:0:
269,103,78757,1,8,0:0:0:0:
351,98,78934,1,0,0:0:0:0:
408,190,79110,2,0,P|404:226|376:268,1,70,2|0,0:0|0:0,0:0:0:0:
283,269,79463,2,0,L|196:256,1,70,8|0,0:0|0:0,0:0:0:0:
156,146,79816,6,0,B|120:148|120:148|84:170,1,70,6|0,0:0|0:0,0:0:0:0:
49,262,80169,2,0,P|78:279|113:281,1,70,8|0,0:0|0:0,0:0:0:0:
214,259,80522,2,0,L|248:313,2,35,2|2|2,0:0|0:0|0:0,0:0:0:0:
273,172,80875,2,0,P|305:185|327:211,1,70,8|2,0:0|0:0,0:0:0:0:
346,258,81140,1,2,0:0:0:0:
346,258,81228,6,0,P|367:283|415:298,1,70,2|0,0:0|0:0,0:0:0:0:
474,221,81581,2,0,L|480:141,1,70,8|0,0:0|0:0,0:0:0:0:
467,106,81846,1,2,0:0:0:0:
467,106,81934,2,0,L|451:57,3,35,2|2|2|0,0:0|0:0|0:0|0:0,0:0:0:0:
426,37,82287,2,0,P|383:40|353:57,1,70,8|2,0:0|0:0,0:0:0:0:
333,89,82552,1,2,0:0:0:0:
333,89,82640,6,0,B|304:108|304:108|257:111,1,70,6|0,0:0|0:0,0:0:0:0:
163,101,82993,2,0,L|94:65,1,70,8|0,0:0|0:0,0:0:0:0:
56,59,83257,1,2,0:0:0:0:
56,59,83346,2,0,P|36:62|10:75,3,35,2|0|8|8,0:0|0:0|0:0|0:0,0:0:0:0:
5,99,83699,1,8,0:0:0:0:
8,187,83875,1,2,0:0:0:0:
8,187,83963,1,2,0:0:0:0:
8,187,84052,6,0,B|38:202|38:202|74:200,1,70,12|2,0:0|0:0,0:0:0:0:
126,194,84316,1,2,0:0:0:0:
126,194,84405,1,2,0:0:0:0:
220,122,84581,2,0,B|252:107|252:107|286:109,1,70,8|2,0:0|0:0,0:0:0:0:
338,115,84845,1,2,0:0:0:0:
338,115,84934,2,0,L|377:117,3,35,2|2|2|2,0:0|0:0|0:0|0:0,0:0:0:0:
416,130,85287,6,0,P|441:197|407:265,1,140,6|0,0:0|0:0,0:0:0:0:
321,304,85816,2,0,L|243:278,1,70,8|0,0:0|0:0,0:0:0:0:
206,187,86169,2,0,P|221:156|220:121,1,70,2|0,0:0|0:0,0:0:0:0:
170,28,86522,1,8,0:0:0:0:
121,88,86699,1,0,0:0:0:0:
221,121,86875,6,0,L|299:119,1,70,2|0,0:0|0:0,0:0:0:0:
388,79,87228,1,8,0:0:0:0:
413,151,87405,1,0,0:0:0:0:
336,222,87581,2,0,P|296:236|256:233,1,70,2|0,0:0|0:0,0:0:0:0:
175,188,87934,2,0,P|140:188|108:202,1,70,8|0,0:0|0:0,0:0:0:0:
59,295,88287,6,0,P|108:308|157:294,2,93.3333333333333,6|2|8,0:0|0:0|0:0,0:0:0:0:
5,201,88993,2,0,P|-5:155|8:111,2,93.3333333333333,6|2|8,0:0|0:0|0:0,0:0:0:0:
108,202,89699,6,0,L|181:187,1,70,6|0,0:0|0:0,0:0:0:0:
240,104,90052,2,0,B|293:100|293:100|352:124,1,105,8|2,0:0|0:0,0:0:0:0:
381,140,90405,1,2,0:0:0:0:
409,240,90581,2,0,L|380:286,2,35,10|10|2,0:0|0:0|0:0,0:0:0:0:
467,170,90934,1,2,0:0:0:0:
467,170,91022,1,2,0:0:0:0:
467,170,91110,6,0,B|475:135|475:135|471:99,1,70,6|0,0:0|0:0,0:0:0:0:
394,29,91463,2,0,L|324:31,1,70,8|0,0:0|0:0,0:0:0:0:
229,70,91816,2,0,L|231:107,2,35,2|2|2,0:0|0:0|0:0,0:0:0:0:
131,32,92169,2,0,P|94:37|52:66,1,70,8|2,0:0|0:0,0:0:0:0:
39,90,92434,1,2,0:0:0:0:
39,90,92522,6,0,L|42:181,1,70,2|0,0:0|0:0,0:0:0:0:
94,250,92875,2,0,P|130:244|172:255,1,70,8|0,0:0|0:0,0:0:0:0:
205,267,93140,1,2,0:0:0:0:
205,267,93228,2,0,L|246:289,3,35,2|2|2|0,0:0|0:0|0:0|0:0,0:0:0:0:
278,300,93581,2,0,P|314:306|356:295,1,70,8|2,0:0|0:0,0:0:0:0:
388,280,93846,1,2,0:0:0:0:
388,280,93934,6,0,B|402:247|402:247|400:213,1,70,6|0,0:0|0:0,0:0:0:0:
362,114,94287,2,0,L|287:118,1,70,8|2,0:0|0:0,0:0:0:0:
246,125,94552,1,2,0:0:0:0:
246,125,94640,2,0,L|180:145,3,35,8|8|2|2,0:0|0:0|0:0|0:0,0:0:0:0:
172,156,94993,1,8,0:0:0:0:
79,71,95169,6,0,P|49:127|59:210,1,140,6|2,0:0|0:0,0:0:0:0:
125,279,95699,2,0,P|159:268|193:272,1,70,8|2,0:0|0:0,0:0:0:0:
286,322,96052,1,8,0:0:0:0:
378,272,96228,2,0,L|389:234,3,35,10|10|10|10,0:0|0:0|0:0|0:0,0:0:0:0:
401,196,96581,6,0,P|399:128|353:78,1,140,6|2,0:0|0:0,0:0:0:0:
250,51,97110,2,0,P|257:130|305:173,1,140,8|2,0:0|0:0,0:0:0:0:
352,77,97640,1,2,0:0:0:0:
250,51,97816,2,0,L|166:54,1,70,8|0,0:0|0:0,0:0:0:0:
88,104,98169,6,0,P|73:137|75:177,1,70,2|2,0:0|0:0,0:0:0:0:
119,264,98522,1,8,0:0:0:0:
119,264,98699,1,0,0:0:0:0:
199,196,98875,2,0,P|233:196|265:210,1,70,2|2,0:0|0:0,0:0:0:0:
210,300,99228,1,8,0:0:0:0:
107,374,99405,6,0,P|49:348|9:276,1,140,6|2,0:0|0:0,0:0:0:0:
59,188,99934,2,0,L|199:196,1,140,8|2,0:0|0:0,0:0:0:0:
210,300,100463,1,2,0:0:0:0:
275,217,100640,2,0,P|276:182|256:141,1,70,8|0,0:0|0:0,0:0:0:0:
192,71,100993,6,0,L|122:67,1,70,2|2,0:0|0:0,0:0:0:0:
28,114,101346,1,8,0:0:0:0:
28,114,101522,1,0,0:0:0:0:
96,193,101699,2,0,P|114:197|136:196,5,35,2|10|10|10|10|10,0:0|0:0|0:0|0:0|0:0|0:0,0:0:0:0:
172,180,102228,6,0,P|236:176|297:229,1,140,6|2,0:0|0:0,0:0:0:0:
315,324,102757,2,0,P|348:343|396:348,1,70,8|0,0:0|0:0,0:0:0:0:
458,279,103110,1,2,0:0:0:0:
394,195,103287,1,2,0:0:0:0:
293,221,103463,2,0,P|257:230|217:224,1,70,8|0,0:0|0:0,0:0:0:0:
132,175,103816,6,0,L|139:105,1,70,2|2,0:0|0:0,0:0:0:0:
226,45,104169,1,8,0:0:0:0:
286,98,104346,1,0,0:0:0:0:
372,38,104522,2,0,P|388:69|391:109,1,70,2|2,0:0|0:0,0:0:0:0:
371,207,104875,2,0,L|319:287,1,70,8|0,0:0|0:0,0:0:0:0:
206,255,105228,6,0,L|244:196,1,70,6|2,0:0|0:0,0:0:0:0:
286,98,105581,1,8,0:0:0:0:
202,107,105757,1,0,0:0:0:0:
145,195,105934,2,0,L|106:253,1,70,2|2,0:0|0:0,0:0:0:0:
173,335,106287,2,0,P|210:343|262:333,1,70,8|0,0:0|0:0,0:0:0:0:
359,293,106640,6,0,L|397:234,1,70,12|2,0:0|0:0,0:0:0:0:
416,192,106905,1,2,0:0:0:0:
416,192,106993,2,0,L|377:133,1,70,12|2,0:0|0:0,0:0:0:0:
345,101,107257,1,2,0:0:0:0:
345,101,107346,2,0,P|309:110|268:106,1,70,12|2,0:0|0:0,0:0:0:0:
231,99,107610,1,10,0:0:0:0:
231,99,107699,2,0,P|210:96|175:101,3,35,10|0|0|0,0:0|0:0|0:0|0:0,0:0:0:0:
151,105,108052,5,6,0:0:0:0:
256,192,108140,12,0,117581,0:0:0:0:
