osu file format v14

[General]
AudioFilename: audio.mp3
AudioLeadIn: 0
PreviewTime: 55007
Countdown: 1
SampleSet: Normal
StackLeniency: 0.7
Mode: 1
LetterboxInBreaks: 0
WidescreenStoryboard: 0

[Editor]
DistanceSpacing: 1.1
BeatDivisor: 4
GridSize: 4
TimelineZoom: 3.699998

[Metadata]
Title:Star light, Star bright (TV Size)
TitleUnicode:Star light, Star bright (TV Size)
Artist:nano
ArtistUnicode:ナノ
Creator:Treekii
Version:Oni
Source:CONCEPTION
Tags:
BeatmapID:1982346
BeatmapSetID:949315

[Difficulty]
HPDrainRate:5
CircleSize:5
OverallDifficulty:7
ApproachRate:5
SliderMultiplier:1.4
SliderTickRate:1

[Events]
//Background and Video events
0,0,"bg.jpg",0,0
//Break Periods
//Storyboard Layer 0 (Background)
//Storyboard Layer 1 (Fail)
//Storyboard Layer 2 (Pass)
//Storyboard Layer 3 (Foreground)
//Storyboard Sound Samples

[TimingPoints]
376,315.789473684211,4,1,0,100,1,0
55954,-100,4,1,0,100,0,1
76165,-100,4,1,0,100,0,0

[HitObjects]
256,191,376,5,0,0:0:0:0:
262,192,533,1,8,0:0:0:0:
262,192,691,1,8,0:0:0:0:
262,192,849,1,0,0:0:0:0:
262,193,1165,1,0,0:0:0:0:
262,193,1323,1,8,0:0:0:0:
268,199,1481,1,0,0:0:0:0:
262,192,1797,1,0,0:0:0:0:
262,192,1954,1,8,0:0:0:0:
262,192,2112,1,0,0:0:0:0:
258,193,2428,1,0,0:0:0:0:
262,192,2586,1,8,0:0:0:0:
262,192,2744,1,8,0:0:0:0:
269,191,2902,1,0,0:0:0:0:
269,191,3060,1,8,0:0:0:0:
269,191,3218,1,8,0:0:0:0:
272,193,3376,1,0,0:0:0:0:
272,193,3691,1,0,0:0:0:0:
269,191,3849,1,8,0:0:0:0:
269,191,4007,1,8,0:0:0:0:
269,191,4323,1,0,0:0:0:0:
272,193,4481,1,8,0:0:0:0:
272,193,4639,1,8,0:0:0:0:
257,175,4954,1,0,0:0:0:0:
257,175,5033,1,0,0:0:0:0:
257,175,5112,1,8,0:0:0:0:
256,170,5428,1,0,0:0:0:0:
264,173,5586,1,8,0:0:0:0:
264,173,5744,1,8,0:0:0:0:
264,173,5902,1,0,0:0:0:0:
264,174,6218,1,0,0:0:0:0:
264,174,6376,1,8,0:0:0:0:
264,173,6533,1,8,0:0:0:0:
264,173,6691,1,0,0:0:0:0:
264,173,6849,1,0,0:0:0:0:
264,174,7007,1,8,0:0:0:0:
264,174,7165,1,0,0:0:0:0:
266,168,7323,1,0,0:0:0:0:
260,166,7481,1,8,0:0:0:0:
262,163,7639,1,8,0:0:0:0:
263,165,7797,1,0,0:0:0:0:
263,165,7876,1,0,0:0:0:0:
263,165,7954,1,8,0:0:0:0:
263,162,8112,1,0,0:0:0:0:
263,162,8270,1,8,0:0:0:0:
260,166,8428,1,0,0:0:0:0:
262,163,8586,1,8,0:0:0:0:
263,165,8744,1,0,0:0:0:0:
289,172,8902,1,8,0:0:0:0:
272,171,9060,1,0,0:0:0:0:
272,171,9139,1,8,0:0:0:0:
272,171,9218,1,0,0:0:0:0:
272,171,9376,1,0,0:0:0:0:
272,171,9533,1,8,0:0:0:0:
272,171,9691,1,8,0:0:0:0:
272,177,9770,1,0,0:0:0:0:
272,171,9849,1,0,0:0:0:0:
272,171,10007,1,8,0:0:0:0:
267,180,10165,1,8,0:0:0:0:
267,180,10323,1,0,0:0:0:0:
267,180,10481,1,0,0:0:0:0:
268,175,10639,1,8,0:0:0:0:
268,175,10797,1,8,0:0:0:0:
268,175,10954,1,8,0:0:0:0:
267,180,11112,1,0,0:0:0:0:
267,180,11191,1,0,0:0:0:0:
267,180,11270,1,8,0:0:0:0:
267,180,11428,1,8,0:0:0:0:
270,178,11586,1,8,0:0:0:0:
266,180,11744,1,0,0:0:0:0:
268,175,11823,1,8,0:0:0:0:
266,180,11902,1,8,0:0:0:0:
267,180,12060,1,8,0:0:0:0:
267,180,12218,1,8,0:0:0:0:
267,180,12376,1,8,0:0:0:0:
270,178,12455,1,8,0:0:0:0:
280,185,12534,1,8,0:0:0:0:
280,185,12613,1,8,0:0:0:0:
280,185,12692,1,0,0:0:0:0:
280,185,12771,1,0,0:0:0:0:
280,185,12850,1,0,0:0:0:0:
280,185,12929,1,0,0:0:0:0:
283,183,13007,1,0,0:0:0:0:
206,175,13323,1,8,0:0:0:0:
229,147,13639,1,0,0:0:0:0:
238,124,13954,1,0,0:0:0:0:
239,124,14270,1,8,0:0:0:0:
239,124,14586,1,8,0:0:0:0:
254,192,14744,1,0,0:0:0:0:
255,183,15060,1,0,0:0:0:0:
255,183,15218,1,8,0:0:0:0:
254,186,15376,1,4,0:0:0:0:
254,186,15533,1,4,0:0:0:0:
286,165,15849,1,8,0:0:0:0:
286,165,16165,1,0,0:0:0:0:
293,168,16481,1,0,0:0:0:0:
262,160,16797,1,8,0:0:0:0:
165,138,17112,1,0,0:0:0:0:
165,138,17270,1,8,0:0:0:0:
167,150,17586,1,0,0:0:0:0:
256,164,17744,1,12,0:0:0:0:
303,170,18060,1,0,0:0:0:0:
249,174,18376,1,8,0:0:0:0:
251,174,18691,1,0,0:0:0:0:
249,174,19007,1,0,0:0:0:0:
249,174,19323,1,8,0:0:0:0:
251,174,19639,1,8,0:0:0:0:
249,174,19797,1,0,0:0:0:0:
320,140,20112,1,0,0:0:0:0:
251,174,20428,1,0,0:0:0:0:
251,174,20586,1,8,0:0:0:0:
265,137,21376,1,0,0:0:0:0:
265,137,21533,1,0,0:0:0:0:
265,137,21691,1,8,0:0:0:0:
252,191,21849,1,0,0:0:0:0:
252,191,22007,1,8,0:0:0:0:
252,191,22165,1,0,0:0:0:0:
252,191,22323,1,0,0:0:0:0:
255,198,22639,1,12,0:0:0:0:
252,191,22797,1,4,0:0:0:0:
252,191,23112,1,4,0:0:0:0:
305,147,23428,1,0,0:0:0:0:
305,147,23586,1,8,0:0:0:0:
305,147,23744,1,8,0:0:0:0:
305,147,23902,1,0,0:0:0:0:
305,147,24060,1,0,0:0:0:0:
305,147,24218,1,0,0:0:0:0:
303,139,24297,1,8,0:0:0:0:
305,147,24376,1,0,0:0:0:0:
305,147,24533,1,0,0:0:0:0:
236,133,24691,1,0,0:0:0:0:
236,133,24849,1,8,0:0:0:0:
236,133,25007,1,8,0:0:0:0:
236,133,25165,1,0,0:0:0:0:
236,133,25323,1,8,0:0:0:0:
255,175,25481,1,8,0:0:0:0:
255,175,25560,1,8,0:0:0:0:
255,175,25639,1,0,0:0:0:0:
275,178,25954,1,8,0:0:0:0:
277,157,26112,1,0,0:0:0:0:
277,157,26270,1,0,0:0:0:0:
277,157,26428,1,8,0:0:0:0:
277,157,26586,1,8,0:0:0:0:
274,161,26744,1,0,0:0:0:0:
271,172,26823,1,0,0:0:0:0:
274,161,26902,1,0,0:0:0:0:
274,161,27060,1,0,0:0:0:0:
259,183,27218,1,8,0:0:0:0:
259,183,27376,1,8,0:0:0:0:
259,183,27533,1,0,0:0:0:0:
259,183,27691,1,0,0:0:0:0:
277,217,27770,1,0,0:0:0:0:
259,183,27849,1,8,0:0:0:0:
260,190,28007,1,0,0:0:0:0:
259,183,28165,1,12,0:0:0:0:
259,183,28639,1,12,0:0:0:0:
259,183,29112,1,12,0:0:0:0:
259,183,29586,1,4,0:0:0:0:
259,188,30060,1,0,0:0:0:0:
259,188,30376,1,0,0:0:0:0:
259,188,30691,1,0,0:0:0:0:
259,196,31007,1,0,0:0:0:0:
259,196,31323,1,0,0:0:0:0:
258,202,31481,1,8,0:0:0:0:
259,196,31639,1,0,0:0:0:0:
254,195,31954,5,0,0:0:0:0:
257,199,32112,1,8,0:0:0:0:
257,199,32191,1,0,0:0:0:0:
257,199,32270,1,0,0:0:0:0:
256,191,32428,1,0,0:0:0:0:
256,191,32507,1,0,0:0:0:0:
257,198,32586,1,8,0:0:0:0:
257,198,32665,1,8,0:0:0:0:
257,198,32744,1,0,0:0:0:0:
257,198,32823,1,0,0:0:0:0:
257,198,32902,1,8,0:0:0:0:
257,198,32981,1,8,0:0:0:0:
257,199,33060,1,0,0:0:0:0:
257,199,33139,1,8,0:0:0:0:
257,199,33218,1,0,0:0:0:0:
257,198,33376,1,8,0:0:0:0:
257,198,33533,1,0,0:0:0:0:
257,198,33691,1,8,0:0:0:0:
257,198,33770,1,0,0:0:0:0:
261,196,33849,1,0,0:0:0:0:
257,199,34007,1,0,0:0:0:0:
257,198,34165,1,8,0:0:0:0:
257,198,34323,1,0,0:0:0:0:
257,190,34402,1,0,0:0:0:0:
258,190,34481,1,8,0:0:0:0:
262,202,34639,1,0,0:0:0:0:
262,202,34797,1,0,0:0:0:0:
262,202,34954,1,8,0:0:0:0:
254,195,35112,1,0,0:0:0:0:
254,195,35191,1,0,0:0:0:0:
254,195,35270,1,8,0:0:0:0:
254,195,35349,1,8,0:0:0:0:
254,195,35428,1,0,0:0:0:0:
268,204,35744,1,8,0:0:0:0:
267,195,35902,1,0,0:0:0:0:
267,195,36060,1,0,0:0:0:0:
267,195,36218,1,0,0:0:0:0:
267,195,36297,1,8,0:0:0:0:
267,195,36376,1,0,0:0:0:0:
271,200,36533,1,0,0:0:0:0:
268,185,36691,1,0,0:0:0:0:
268,185,36849,1,8,0:0:0:0:
263,181,37007,1,0,0:0:0:0:
263,181,37086,1,0,0:0:0:0:
263,181,37165,1,8,0:0:0:0:
263,181,37323,1,0,0:0:0:0:
262,178,37481,1,8,0:0:0:0:
262,178,37560,1,8,0:0:0:0:
262,178,37639,1,0,0:0:0:0:
262,178,37718,1,0,0:0:0:0:
262,178,37797,1,8,0:0:0:0:
255,163,37954,1,0,0:0:0:0:
264,169,38270,1,8,0:0:0:0:
262,170,38428,1,0,0:0:0:0:
262,170,38586,1,8,0:0:0:0:
262,170,38744,1,0,0:0:0:0:
264,169,38823,1,0,0:0:0:0:
264,169,38902,1,8,0:0:0:0:
264,169,39060,1,0,0:0:0:0:
262,170,39218,1,8,0:0:0:0:
262,170,39376,1,8,0:0:0:0:
262,170,39533,1,0,0:0:0:0:
264,169,39612,1,0,0:0:0:0:
264,169,39691,1,8,0:0:0:0:
264,169,39849,1,0,0:0:0:0:
276,172,40007,1,0,0:0:0:0:
279,184,40165,1,8,0:0:0:0:
279,184,40323,1,8,0:0:0:0:
279,184,40481,1,0,0:0:0:0:
268,219,40797,1,0,0:0:0:0:
268,219,40954,1,8,0:0:0:0:
268,219,41112,1,8,0:0:0:0:
268,219,41270,1,0,0:0:0:0:
268,219,41428,1,8,0:0:0:0:
268,219,41586,1,8,0:0:0:0:
268,219,41744,1,0,0:0:0:0:
268,219,41902,1,8,0:0:0:0:
259,174,42060,1,0,0:0:0:0:
259,174,42139,1,0,0:0:0:0:
259,174,42218,1,8,0:0:0:0:
259,174,42376,1,8,0:0:0:0:
259,174,42454,1,8,0:0:0:0:
259,174,42533,1,0,0:0:0:0:
323,154,42691,1,8,0:0:0:0:
315,160,42797,1,0,0:0:0:0:
315,160,42902,1,8,0:0:0:0:
315,160,43007,1,8,0:0:0:0:
315,160,43112,1,0,0:0:0:0:
315,160,43218,1,0,0:0:0:0:
315,160,43323,1,8,0:0:0:0:
235,185,45060,1,8,0:0:0:0:
235,185,45139,1,8,0:0:0:0:
235,185,45218,1,0,0:0:0:0:
259,186,47112,1,4,0:0:0:0:
255,193,47270,1,8,0:0:0:0:
255,193,47428,1,8,0:0:0:0:
255,193,47586,1,4,0:0:0:0:
264,192,47744,1,8,0:0:0:0:
264,192,47902,1,8,0:0:0:0:
272,184,48060,1,8,0:0:0:0:
266,191,48139,1,8,0:0:0:0:
266,191,48218,1,8,0:0:0:0:
266,191,48297,1,8,0:0:0:0:
266,191,48376,1,0,0:0:0:0:
264,183,48533,1,0,0:0:0:0:
264,185,48691,1,0,0:0:0:0:
264,185,48849,1,8,0:0:0:0:
252,190,48928,1,8,0:0:0:0:
264,186,49007,1,0,0:0:0:0:
266,191,49165,1,0,0:0:0:0:
264,188,49323,1,0,0:0:0:0:
265,192,49481,1,8,0:0:0:0:
270,188,49560,1,0,0:0:0:0:
265,192,49639,1,0,0:0:0:0:
265,192,49797,1,0,0:0:0:0:
264,220,49954,1,8,0:0:0:0:
271,206,50112,1,0,0:0:0:0:
271,206,50191,1,0,0:0:0:0:
271,206,50270,1,8,0:0:0:0:
257,209,50428,1,8,0:0:0:0:
260,213,50507,1,8,0:0:0:0:
260,213,50586,1,8,0:0:0:0:
260,213,50665,1,8,0:0:0:0:
260,213,50744,1,0,0:0:0:0:
266,203,50902,1,0,0:0:0:0:
266,203,51060,1,8,0:0:0:0:
266,203,51218,1,0,0:0:0:0:
266,203,51376,1,8,0:0:0:0:
266,203,51533,1,0,0:0:0:0:
266,203,51691,1,8,0:0:0:0:
266,203,51849,1,0,0:0:0:0:
266,203,52007,1,0,0:0:0:0:
266,203,52165,1,8,0:0:0:0:
266,203,52323,1,8,0:0:0:0:
266,203,52481,1,8,0:0:0:0:
266,203,52639,1,0,0:0:0:0:
266,203,52797,1,8,0:0:0:0:
266,203,52954,1,8,0:0:0:0:
266,203,53112,1,0,0:0:0:0:
266,203,53270,1,8,0:0:0:0:
251,192,55007,1,0,0:0:0:0:
251,192,55323,1,0,0:0:0:0:
251,192,55639,1,0,0:0:0:0:
251,185,55954,1,12,0:0:0:0:
255,183,56270,1,0,0:0:0:0:
255,183,56428,1,0,0:0:0:0:
261,191,56586,1,8,0:0:0:0:
243,182,56744,1,0,0:0:0:0:
255,190,56823,1,0,0:0:0:0:
255,190,56902,1,8,0:0:0:0:
255,183,57060,1,8,0:0:0:0:
262,182,57218,1,8,0:0:0:0:
262,182,57376,1,0,0:0:0:0:
262,182,57533,1,8,0:0:0:0:
263,180,57612,1,8,0:0:0:0:
263,180,57691,1,0,0:0:0:0:
260,181,57770,1,0,0:0:0:0:
260,181,57849,1,8,0:0:0:0:
262,182,58007,1,0,0:0:0:0:
262,182,58165,1,8,0:0:0:0:
262,182,58323,1,8,0:0:0:0:
263,180,58481,1,8,0:0:0:0:
260,181,58560,1,0,0:0:0:0:
260,181,58639,1,0,0:0:0:0:
271,187,58797,1,0,0:0:0:0:
271,187,58954,1,0,0:0:0:0:
271,187,59112,1,8,0:0:0:0:
271,187,59270,1,8,0:0:0:0:
277,194,59428,1,0,0:0:0:0:
270,197,59586,1,0,0:0:0:0:
270,197,59665,1,8,0:0:0:0:
270,197,59744,1,8,0:0:0:0:
270,197,59823,1,0,0:0:0:0:
270,197,59902,1,0,0:0:0:0:
268,198,60060,1,0,0:0:0:0:
273,199,60218,1,8,0:0:0:0:
270,197,60376,1,0,0:0:0:0:
270,197,60454,1,8,0:0:0:0:
270,197,60533,1,0,0:0:0:0:
270,197,60691,1,0,0:0:0:0:
272,192,60849,1,0,0:0:0:0:
253,186,61007,1,8,0:0:0:0:
255,192,61323,1,0,0:0:0:0:
255,192,61481,1,0,0:0:0:0:
255,192,61639,1,8,0:0:0:0:
251,177,61797,1,0,0:0:0:0:
251,177,61876,1,0,0:0:0:0:
251,177,61954,1,8,0:0:0:0:
240,182,62586,1,0,0:0:0:0:
240,182,62744,1,0,0:0:0:0:
240,182,62902,1,8,0:0:0:0:
250,191,63060,1,8,0:0:0:0:
252,193,63139,1,0,0:0:0:0:
252,193,63218,1,0,0:0:0:0:
250,180,63376,1,0,0:0:0:0:
250,180,63533,1,8,0:0:0:0:
253,173,63691,1,8,0:0:0:0:
263,180,63849,1,0,0:0:0:0:
263,180,64007,1,8,0:0:0:0:
263,180,64165,1,0,0:0:0:0:
269,189,64244,1,0,0:0:0:0:
263,180,64323,1,8,0:0:0:0:
263,180,64481,1,8,0:0:0:0:
263,180,64639,1,8,0:0:0:0:
257,195,64797,1,0,0:0:0:0:
257,201,64876,1,0,0:0:0:0:
257,195,64954,1,8,0:0:0:0:
257,195,65112,1,8,0:0:0:0:
257,195,65270,1,0,0:0:0:0:
257,195,65428,1,8,0:0:0:0:
259,223,65586,1,8,0:0:0:0:
259,223,65665,1,8,0:0:0:0:
262,214,65744,1,8,0:0:0:0:
262,214,65823,1,8,0:0:0:0:
262,214,65902,1,0,0:0:0:0:
262,214,65981,1,0,0:0:0:0:
262,214,66060,1,0,0:0:0:0:
269,218,66218,1,8,0:0:0:0:
269,218,66376,1,0,0:0:0:0:
269,218,66533,1,0,0:0:0:0:
269,218,66612,1,8,0:0:0:0:
269,218,66691,1,0,0:0:0:0:
269,218,66849,1,0,0:0:0:0:
273,220,67007,1,8,0:0:0:0:
257,205,67165,1,0,0:0:0:0:
258,206,67244,1,8,0:0:0:0:
255,196,67323,1,8,0:0:0:0:
255,196,67481,1,8,0:0:0:0:
255,196,67639,1,8,0:0:0:0:
255,196,67797,1,0,0:0:0:0:
255,196,67954,1,8,0:0:0:0:
255,196,68112,1,8,0:0:0:0:
255,196,68270,1,0,0:0:0:0:
255,196,68428,1,8,0:0:0:0:
255,196,68507,1,0,0:0:0:0:
255,196,68586,1,0,0:0:0:0:
248,217,68744,1,0,0:0:0:0:
251,205,68902,1,8,0:0:0:0:
255,196,69060,1,0,0:0:0:0:
255,196,69139,1,0,0:0:0:0:
255,196,69218,1,8,0:0:0:0:
240,180,69376,1,0,0:0:0:0:
240,180,69533,1,0,0:0:0:0:
240,180,69691,1,8,0:0:0:0:
240,180,69770,1,0,0:0:0:0:
240,180,69849,1,0,0:0:0:0:
244,180,70007,1,0,0:0:0:0:
244,180,70086,1,0,0:0:0:0:
244,180,70165,1,8,0:0:0:0:
244,180,70323,1,0,0:0:0:0:
244,180,70402,1,8,0:0:0:0:
244,180,70481,1,8,0:0:0:0:
244,180,70560,1,8,0:0:0:0:
244,180,70639,1,0,0:0:0:0:
244,180,70718,1,0,0:0:0:0:
244,180,70797,1,8,0:0:0:0:
244,180,70876,1,8,0:0:0:0:
244,180,70954,1,0,0:0:0:0:
244,180,71033,1,8,0:0:0:0:
244,180,71112,1,0,0:0:0:0:
250,181,71270,1,0,0:0:0:0:
250,181,71428,1,8,0:0:0:0:
250,181,71586,1,8,0:0:0:0:
250,181,71744,1,0,0:0:0:0:
246,171,71902,1,0,0:0:0:0:
250,181,71981,1,0,0:0:0:0:
246,171,72060,1,8,0:0:0:0:
246,171,72218,1,8,0:0:0:0:
254,174,72376,1,0,0:0:0:0:
254,174,72533,1,0,0:0:0:0:
254,173,72612,1,0,0:0:0:0:
254,173,72691,1,8,0:0:0:0:
257,185,72849,1,0,0:0:0:0:
257,185,73007,1,8,0:0:0:0:
257,185,73165,1,0,0:0:0:0:
257,185,73323,1,8,0:0:0:0:
283,186,73639,1,0,0:0:0:0:
283,186,73797,1,8,0:0:0:0:
283,186,73954,1,8,0:0:0:0:
283,186,74112,1,0,0:0:0:0:
283,186,74270,1,8,0:0:0:0:
283,186,74428,1,8,0:0:0:0:
283,186,74586,1,8,0:0:0:0:
290,184,74744,1,0,0:0:0:0:
283,186,74902,1,8,0:0:0:0:
122,107,75060,1,8,0:0:0:0:
122,107,75218,1,0,0:0:0:0:
122,107,75376,1,8,0:0:0:0:
265,183,75533,1,4,0:0:0:0:
265,183,75691,1,4,0:0:0:0:
298,194,76165,1,0,0:0:0:0:
298,194,76323,1,0,0:0:0:0:
298,194,76481,1,8,0:0:0:0:
298,194,76639,1,8,0:0:0:0:
293,203,76954,1,0,0:0:0:0:
298,194,77112,1,8,0:0:0:0:
298,194,77270,1,8,0:0:0:0:
298,194,77428,1,0,0:0:0:0:
293,203,77586,1,0,0:0:0:0:
298,194,77744,1,8,0:0:0:0:
298,194,77902,1,0,0:0:0:0:
291,188,78218,1,0,0:0:0:0:
291,188,78375,1,8,0:0:0:0:
291,188,78533,1,0,0:0:0:0:
288,199,78691,1,0,0:0:0:0:
288,199,78849,1,8,0:0:0:0:
288,199,79007,1,8,0:0:0:0:
288,199,79165,1,8,0:0:0:0:
289,204,79481,1,0,0:0:0:0:
289,204,79639,1,8,0:0:0:0:
289,204,79797,1,8,0:0:0:0:
288,198,80112,1,0,0:0:0:0:
288,198,80270,1,0,0:0:0:0:
288,198,80428,1,8,0:0:0:0:
289,203,80744,1,0,0:0:0:0:
289,203,80823,1,0,0:0:0:0:
289,203,80902,1,8,0:0:0:0:
268,179,81218,1,0,0:0:0:0:
268,179,81376,1,8,0:0:0:0:
268,179,81533,1,8,0:0:0:0:
268,179,81691,1,0,0:0:0:0:
272,168,82007,1,0,0:0:0:0:
272,168,82165,1,8,0:0:0:0:
272,168,82323,1,8,0:0:0:0:
272,168,82481,1,0,0:0:0:0:
272,168,82639,1,8,0:0:0:0:
272,168,82797,1,0,0:0:0:0:
272,168,82954,1,8,0:0:0:0:
272,168,83112,1,0,0:0:0:0:
272,168,83270,1,8,0:0:0:0:
272,168,83428,1,0,0:0:0:0:
272,168,83586,1,0,0:0:0:0:
272,168,83665,1,0,0:0:0:0:
272,168,83744,1,8,0:0:0:0:
256,175,83902,1,0,0:0:0:0:
262,176,84060,1,8,0:0:0:0:
262,176,84218,1,8,0:0:0:0:
270,174,84297,1,0,0:0:0:0:
270,174,84376,1,0,0:0:0:0:
257,172,84533,1,0,0:0:0:0:
256,175,84691,1,8,0:0:0:0:
252,164,84849,1,0,0:0:0:0:
253,165,84928,1,0,0:0:0:0:
253,165,85007,1,8,0:0:0:0:
249,169,85165,1,0,0:0:0:0:
249,169,85323,1,8,0:0:0:0:
249,169,85481,1,0,0:0:0:0:
249,169,85560,1,0,0:0:0:0:
249,169,85639,1,0,0:0:0:0:
252,179,85797,1,0,0:0:0:0:
252,179,85954,1,8,0:0:0:0:
252,179,86112,1,8,0:0:0:0:
252,179,86270,1,0,0:0:0:0:
256,176,86428,1,8,0:0:0:0:
256,176,86586,1,8,0:0:0:0:
256,176,86744,1,0,0:0:0:0:
256,176,86902,1,0,0:0:0:0:
256,185,86981,1,8,0:0:0:0:
256,176,87060,1,8,0:0:0:0:
245,174,87218,1,0,0:0:0:0:
246,174,87376,1,0,0:0:0:0:
256,176,87454,1,0,0:0:0:0:
256,176,87533,1,8,0:0:0:0:
256,176,87691,1,8,0:0:0:0:
255,179,87770,1,8,0:0:0:0:
256,176,87849,1,0,0:0:0:0:
255,179,88007,1,0,0:0:0:0:
255,179,88086,1,0,0:0:0:0:
255,179,88165,1,8,0:0:0:0:
256,176,88244,1,8,0:0:0:0:
256,176,88323,1,0,0:0:0:0:
256,176,88402,1,0,0:0:0:0:
256,176,88481,1,0,0:0:0:0:
255,179,88560,1,0,0:0:0:0:
256,176,88639,1,8,0:0:0:0:
255,179,88718,1,8,0:0:0:0:
