osu file format v14

[General]
AudioFilename: audio.mp3
AudioLeadIn: 0
PreviewTime: 184284
Countdown: 0
SampleSet: None
StackLeniency: 0.7
Mode: 0
LetterboxInBreaks: 0
WidescreenStoryboard: 0

[Editor]
DistanceSpacing: 0.2
BeatDivisor: 1
GridSize: 32
TimelineZoom: 1.5

[Metadata]
Title:Star light, Star bright (TV Size)
TitleUnicode:Star light, Star bright (TV Size)
Artist:nano
ArtistUnicode:ナノ
Creator:Hydraduck
Version:Faith
Source:
Tags:
BeatmapID:4537606
BeatmapSetID:2153527

[Difficulty]
HPDrainRate:5
CircleSize:3.8
OverallDifficulty:9.2
ApproachRate:9.4
SliderMultiplier:1.8
SliderTickRate:1

[Events]
//Background and Video events
0,0,"70786735.jpg",0,0
//Break Periods
//Storyboard Layer 0 (Background)
//Storyboard Layer 1 (Fail)
//Storyboard Layer 2 (Pass)
//Storyboard Layer 3 (Foreground)
//Storyboard Layer 4 (Overlay)
//Storyboard Sound Samples

[TimingPoints]
88,315.789473684211,4,2,0,100,1,0
88,-95.2380952380952,4,2,0,100,0,0
11456,-95.2380952380952,4,2,0,100,0,1
12719,-125,4,2,0,100,0,0
22824,-111.111111111111,4,2,0,100,0,0
32930,-99.9999999999999,4,2,0,100,0,0
43035,-117.647058823529,4,2,0,100,0,0
48088,-90.9090909090909,4,2,0,100,0,1
52824,-90.9090909090909,4,2,0,100,0,0
54719,-200,4,2,0,100,0,0
55035,-166.666666666667,4,2,0,100,0,0
55666,-95.2380952380952,4,2,0,100,0,1
70824,-86.9565217391304,4,2,0,100,0,1
75245,-86.9565217391304,4,2,0,100,0,0
75877,-100,4,2,0,100,0,0
83456,-90.9090909090909,4,2,0,100,0,0
85982,-90.9090909090909,4,2,0,100,0,1
88509,-111.111111111111,4,2,0,100,0,0

[Colours]
Combo1 : 224,140,112
Combo2 : 138,118,254
Combo3 : 242,111,111
Combo4 : 165,165,165

[HitObjects]
333,158,88,5,0,0:0:0:0:
416,341,245,1,0,0:0:0:0:
512,134,403,1,0,0:0:0:0:
285,245,561,2,0,P|328:260|377:249,1,94.499997116089
254,59,877,1,0,0:0:0:0:
426,149,1035,1,0,0:0:0:0:
236,47,1193,6,0,L|222:142,1,94.499997116089
38,269,1509,1,0,0:0:0:0:
109,84,1666,1,0,0:0:0:0:
189,313,1824,6,0,B|150:291|82:334|132:352|72:386|19:370,1,188.999994232178
269,237,2298,1,0,0:0:0:0:
71,175,2456,1,0,0:0:0:0:
285,245,2614,5,0,0:0:0:0:
109,84,2772,1,0,0:0:0:0:
189,313,2930,1,0,0:0:0:0:
310,118,3088,2,0,L|215:137,1,94.499997116089
318,351,3403,1,0,0:0:0:0:
422,156,3561,1,0,0:0:0:0:
285,245,3719,6,0,L|380:267,1,94.499997116089
494,77,4035,1,0,0:0:0:0:
310,118,4193,1,0,0:0:0:0:
466,338,4351,2,0,L|486:244,1,94.499997116089
381,37,4666,1,0,0:0:0:0:
381,37,4745,1,0,0:0:0:0:
381,37,4824,2,0,P|315:8|236:40,1,141.749995674133
238,39,5140,5,0,0:0:0:0:
71,192,5298,1,0,0:0:0:0:
310,118,5456,1,0,0:0:0:0:
114,17,5614,2,0,L|136:111,1,94.499997116089
219,327,5930,1,0,0:0:0:0:
310,118,6088,1,0,0:0:0:0:
111,285,6245,6,0,P|63:295|19:280,1,94.499997116089
219,165,6561,1,0,0:0:0:0:
130,383,6719,1,0,0:0:0:0:
226,150,6877,2,0,L|246:246,1,94.499997116089
420,97,7193,1,0,0:0:0:0:
235,53,7351,1,0,0:0:0:0:
397,193,7509,1,0,0:0:0:0:
397,193,7588,1,0,0:0:0:0:
397,193,7666,6,0,L|493:179,1,94.499997116089
290,340,7982,2,0,P|248:349|194:326,1,94.499997116089
106,180,8298,5,0,0:0:0:0:
257,243,8456,1,0,0:0:0:0:
86,169,8614,1,0,0:0:0:0:
182,333,8772,1,0,0:0:0:0:
243,93,8930,5,0,0:0:0:0:
83,294,9088,1,0,0:0:0:0:
254,78,9245,1,0,0:0:0:0:
182,333,9403,1,0,0:0:0:0:
74,54,9561,5,0,0:0:0:0:
257,243,9719,1,0,0:0:0:0:
15,203,9877,2,0,L|107:179,1,94.499997116089
355,27,10193,5,0,0:0:0:0:
257,243,10351,1,0,0:0:0:0:
445,98,10509,1,0,0:0:0:0:
342,306,10666,1,0,0:0:0:0:
254,78,10824,5,0,0:0:0:0:
437,269,10982,1,0,0:0:0:0:
170,133,11140,1,0,0:0:0:0:
444,5,11298,1,0,0:0:0:0:
342,306,11456,5,0,0:0:0:0:
171,35,11614,1,0,0:0:0:0:
216,384,11772,5,0,0:0:0:0:
343,129,11930,1,0,0:0:0:0:
108,326,12088,5,0,0:0:0:0:
108,326,12166,1,0,0:0:0:0:
108,326,12245,2,0,L|61:331,1,47.2499985580445
201,236,12403,6,0,P|218:254|228:274,1,47.2499985580445
88,205,12561,2,0,P|95:180|107:161,1,47.2499985580445
171,35,12719,5,0,0:0:0:0:
186,40,13035,2,0,L|265:53,1,72
314,196,13351,2,0,P|273:173|258:149,1,72
360,31,13666,2,0,L|339:115,1,72
450,29,13982,2,0,L|415:181,1,144
478,284,14456,2,0,B|393:253|393:253|342:297,1,144
333,384,14930,2,0,P|368:390|402:379,1,72
314,196,15245,5,0,0:0:0:0:
297,198,15561,2,0,L|227:210,1,72
184,313,15878,2,0,L|254:301,1,72
145,157,16193,2,0,P|122:200|127:238,1,72
227,112,16509,2,0,P|192:70|93:76,1,144
34,150,16982,2,0,L|0:11,1,144
145,157,17456,2,0,L|128:231,1,72
75,312,17772,5,0,0:0:0:0:
89,322,18088,2,0,P|130:328|172:311,1,72
219,384,18403,2,0,P|245:351|251:306,1,72
347,310,18719,2,0,P|332:271|296:243,1,72
263,153,19035,6,0,L|408:182,1,144
485,103,19509,2,0,L|414:87,1,72
472,249,19824,2,0,P|501:213|498:182,1,72
382,274,20140,1,0,0:0:0:0:
511,363,20298,6,0,B|461:357|461:357|425:378|425:378|373:372,1,144
311,259,20772,2,0,L|390:275,1,72
286,352,21088,1,0,0:0:0:0:
220,282,21245,2,0,L|205:203,1,72
303,100,21561,6,0,P|309:135|288:174,2,72
243,27,22035,2,0,P|288:3|317:4,1,72
202,115,22351,1,0,0:0:0:0:
122,12,22509,2,0,L|97:130,1,108
94,142,22824,6,0,L|12:128,1,80.9999975280763
172,207,23140,2,0,L|254:193,1,80.9999975280763
79,237,23456,2,0,L|-3:223,1,80.9999975280763
154,296,23772,1,0,0:0:0:0:
94,142,23930,1,0,0:0:0:0:
168,311,24088,6,0,B|270:288|270:288|312:332,1,161.999995056153
443,245,24561,2,0,P|398:257|352:239,1,80.9999975280763
292,151,24877,1,0,0:0:0:0:
390,77,25035,2,0,L|410:159,1,80.9999975280763
227,72,25351,6,0,P|263:48|311:49,1,80.9999975280763
190,164,25666,2,0,P|151:144|128:96,1,80.9999975280763
292,151,25982,2,0,L|277:239,1,80.9999975280763
129,285,26298,1,0,0:0:0:0:
190,164,26456,1,0,0:0:0:0:
273,343,26614,6,0,B|230:325|185:357|218:370|167:401|125:386,1,161.999995056153
50,303,27088,2,0,L|141:282,1,80.9999975280763
190,164,27403,1,0,0:0:0:0:
97,118,27561,2,0,L|80:210,1,80.9999975280763
186,58,27877,6,0,P|125:15|33:27,1,161.999995056153
190,164,28351,2,0,L|280:147,1,80.9999975280763
436,285,28666,1,0,0:0:0:0:
377,82,28824,2,0,L|343:244,1,161.999995056153
230,332,29298,6,0,L|248:248,1,80.9999975280763
338,333,29614,1,0,0:0:0:0:
145,259,29772,2,0,L|57:274,1,80.9999975280763
189,163,30088,1,0,0:0:0:0:
113,352,30245,1,0,0:0:0:0:
8,136,30403,6,0,L|93:153,1,80.9999975280763
243,60,30719,1,0,0:0:0:0:
159,0,30877,1,0,0:0:0:0:
159,0,31035,2,0,P|138:44|143:81,1,80.9999975280763
308,228,31351,1,0,0:0:0:0:
243,60,31509,1,0,0:0:0:0:
318,250,31666,6,0,L|309:293,3,40.4999987640381
422,237,31982,2,0,L|413:280,3,40.4999987640381
341,121,32298,2,0,L|346:163,3,40.4999987640381
439,95,32614,2,0,L|447:146,1,40.4999987640381
242,66,32772,5,0,0:0:0:0:
242,66,32851,1,0,0:0:0:0:
242,66,32930,2,0,P|291:11|392:13,1,180
257,173,33403,2,0,L|151:156,1,90
284,266,33719,1,0,0:0:0:0:
96,91,33877,6,0,B|42:135|42:135|87:241,1,180
257,173,34351,1,0,0:0:0:0:
172,346,34509,2,0,L|188:254,1,90
356,140,34824,1,0,0:0:0:0:
284,266,34982,1,0,0:0:0:0:
369,120,35140,2,0,L|458:137,1,90
441,338,35456,6,0,B|403:310|335:345|381:371|312:403|263:374,1,180
168,190,35930,2,0,L|259:172,1,90
194,378,36245,1,0,0:0:0:0:
87,258,36403,6,0,P|57:193|112:100,1,180
320,53,36877,1,0,0:0:0:0:
235,0,37035,2,0,L|212:89,1,90
381,212,37351,1,0,0:0:0:0:
320,53,37509,1,0,0:0:0:0:
386,228,37666,2,0,P|433:235|480:213,1,90
333,325,37982,5,0,0:0:0:0:
414,121,38140,1,0,0:0:0:0:
512,316,38298,1,0,0:0:0:0:
295,157,38456,2,0,B|231:151|231:151|185:187|185:187|127:182,1,180
6,31,38930,1,0,0:0:0:0:
147,83,39088,1,0,0:0:0:0:
20,229,39245,6,0,P|3:189|15:142,1,90
214,256,39561,1,0,0:0:0:0:
93,371,39719,2,0,L|112:277,1,90
301,189,40035,1,0,0:0:0:0:
204,360,40193,1,0,0:0:0:0:
127,182,40351,1,0,0:0:0:0:
301,314,40509,6,0,P|369:356|469:320,1,180
410,158,40982,2,0,L|383:255,1,90
511,114,41298,1,0,0:0:0:0:
301,189,41456,1,0,0:0:0:0:
493,232,41614,1,0,0:0:0:0:
313,43,41772,6,0,L|325:93,2,45
206,62,42088,1,0,0:0:0:0:
211,79,42166,1,0,0:0:0:0:
217,96,42245,1,0,0:0:0:0:
132,233,42403,6,0,L|144:160,2,60
37,175,42719,5,0,0:0:0:0:
33,194,42825,6,0,L|22:253,1,60
134,326,43035,6,0,B|173:342|215:313|184:300|232:272|271:286,1,153.000002918243
377,315,43509,2,0,L|361:237,1,76.5000014591217
512,203,43824,2,0,P|493:237|452:255,1,76.5000014591217
335,147,44140,1,0,0:0:0:0:
335,147,44219,1,0,0:0:0:0:
335,147,44298,5,0,0:0:0:0:
442,77,44456,2,0,L|425:162,1,76.5000014591217
276,56,44772,1,0,0:0:0:0:
276,56,44930,2,0,P|314:34|359:39,1,76.5000014591217
231,151,45245,2,0,P|194:125|180:86,1,76.5000014591217
335,147,45561,5,0,0:0:0:0:
335,147,45719,2,0,L|317:231,1,76.5000014591217
287,384,46035,2,0,L|269:300,1,76.5000014591217
231,151,46351,2,0,L|213:235,1,76.5000014591217
13,303,46666,1,0,0:0:0:0:
129,105,46824,5,0,0:0:0:0:
24,283,46982,1,0,0:0:0:0:
136,88,47140,1,0,0:0:0:0:
119,247,47298,5,0,0:0:0:0:
17,25,47456,1,0,0:0:0:0:
127,261,47614,2,0,L|139:210,1,40.4999987640381
253,25,47772,6,0,L|210:37,1,40.4999987640381
13,153,47930,2,0,L|56:165,1,40.4999987640381
209,329,48088,6,0,L|312:307,1,99.0000030212403
372,15,48403,5,0,0:0:0:0:
251,220,48561,1,0,0:0:0:0:
447,93,48719,1,0,0:0:0:0:
156,62,48877,5,0,0:0:0:0:
402,292,49035,1,0,0:0:0:0:
263,38,49193,1,0,0:0:0:0:
209,329,49351,6,0,P|263:338|315:311,1,99.0000030212403
333,116,49666,1,0,0:0:0:0:
150,243,49824,2,0,L|54:222,1,99.0000030212403
222,134,50140,1,0,0:0:0:0:
109,342,50298,1,0,0:0:0:0:
26,108,50456,1,0,0:0:0:0:
209,329,50614,5,0,0:0:0:0:
126,77,50772,1,0,0:0:0:0:
0,308,50930,5,0,0:0:0:0:
128,58,51088,1,0,0:0:0:0:
203,345,51245,5,0,0:0:0:0:
334,70,51403,1,0,0:0:0:0:
427,370,51561,5,0,0:0:0:0:
340,54,51719,1,0,0:0:0:0:
203,345,51877,5,0,0:0:0:0:
398,135,52035,1,0,0:0:0:0:
122,245,52193,5,0,0:0:0:0:
420,123,52351,1,0,0:0:0:0:
97,144,52509,5,0,0:0:0:0:
442,110,52666,1,0,0:0:0:0:
103,47,52824,5,0,0:0:0:0:
464,233,52982,1,0,0:0:0:0:
112,384,54719,6,0,L|91:299,1,67.5
16,281,55035,2,0,P|-8:221|82:241,1,188.999994232178
166,265,55666,6,0,B|212:243|273:281|229:302|292:336|333:315,1,188.999994232178
512,258,56140,2,0,L|479:367,1,94.499997116089
229,384,56456,1,0,0:0:0:0:
379,145,56614,2,0,L|400:237,1,94.499997116089
273,93,56930,5,0,0:0:0:0:
498,169,57088,1,0,0:0:0:0:
253,87,57245,1,0,0:0:0:0:
486,36,57403,1,0,0:0:0:0:
285,207,57561,2,0,L|190:188,1,94.499997116089
24,96,57877,1,0,0:0:0:0:
245,0,58035,6,0,P|265:50|250:93,1,94.499997116089
60,244,58351,1,0,0:0:0:0:
158,46,58509,1,0,0:0:0:0:
50,263,58666,1,0,0:0:0:0:
289,209,58824,2,0,L|194:190,1,94.499997116089
280,368,59140,1,0,0:0:0:0:
396,153,59298,6,0,L|412:250,1,94.499997116089
479,74,59614,1,0,0:0:0:0:
288,209,59772,1,0,0:0:0:0:
496,60,59930,1,0,0:0:0:0:
267,100,60088,1,0,0:0:0:0:
507,195,60245,1,0,0:0:0:0:
349,28,60403,2,0,P|254:-8|210:9,1,141.749995674133
145,85,60719,6,0,P|118:39|125:-8,1,94.499997116089
288,209,61035,2,0,L|189:189,1,94.499997116089
68,353,61351,2,0,L|167:333,1,94.499997116089
267,100,61666,1,0,0:0:0:0:
88,228,61824,1,0,0:0:0:0:
272,365,61982,6,0,P|315:315|437:333,1,188.999994232178
507,181,62456,2,0,L|406:198,1,94.499997116089
246,0,62772,1,0,0:0:0:0:
440,92,62930,1,0,0:0:0:0:
241,191,63088,1,0,0:0:0:0:
469,0,63245,5,0,0:0:0:0:
198,93,63403,1,0,0:0:0:0:
414,197,63561,5,0,0:0:0:0:
246,0,63719,1,0,0:0:0:0:
331,273,63877,1,0,0:0:0:0:
363,2,64035,5,0,0:0:0:0:
124,157,64193,1,0,0:0:0:0:
345,14,64351,1,0,0:0:0:0:
42,30,64509,5,0,0:0:0:0:
343,136,64666,1,0,0:0:0:0:
67,267,64824,1,0,0:0:0:0:
246,0,64982,5,0,0:0:0:0:
0,151,65140,1,0,0:0:0:0:
284,273,65298,1,0,0:0:0:0:
284,273,65377,1,0,0:0:0:0:
284,273,65456,2,0,L|335:263,1,47.2499985580445
166,73,65614,1,0,0:0:0:0:
166,73,65693,1,0,0:0:0:0:
166,73,65772,6,0,L|146:172,1,94.499997116089
343,136,66088,1,0,0:0:0:0:
159,284,66245,2,0,L|62:266,1,94.499997116089
245,366,66561,1,0,0:0:0:0:
147,165,66719,1,0,0:0:0:0:
251,384,66877,1,0,0:0:0:0:
343,136,67035,5,0,0:0:0:0:
159,284,67193,1,0,0:0:0:0:
376,372,67351,2,0,L|397:271,1,94.499997116089
248,79,67666,1,0,0:0:0:0:
437,194,67824,1,0,0:0:0:0:
232,70,67982,2,0,L|89:96,1,141.749995674133
0,64,68298,6,0,P|-10:114|20:159,1,94.499997116089
139,283,68614,2,0,L|161:185,1,94.499997116089
39,334,68930,1,0,0:0:0:0:
257,243,69088,1,0,0:0:0:0:
0,150,69245,5,0,0:0:0:0:
140,383,69403,1,0,0:0:0:0:
158,85,69561,5,0,0:0:0:0:
39,334,69719,1,0,0:0:0:0:
42,31,69877,5,0,0:0:0:0:
139,283,70035,2,0,L|148:231,1,47.2499985580445
270,22,70193,5,0,0:0:0:0:
270,22,70272,1,0,0:0:0:0:
270,22,70351,2,0,L|324:13,1,47.2499985580445
437,117,70509,2,0,L|388:105,3,47.2499985580445
241,337,70824,5,0,0:0:0:0:
509,214,70982,1,0,0:0:0:0:
196,223,71140,5,0,0:0:0:0:
486,323,71298,1,0,0:0:0:0:
235,118,71456,5,0,0:0:0:0:
361,383,71614,1,0,0:0:0:0:
349,67,71772,5,0,0:0:0:0:
241,337,71930,2,0,L|261:281,1,51.7500009870529
247,17,72088,5,0,0:0:0:0:
367,268,72245,1,0,0:0:0:0:
239,0,72403,5,0,0:0:0:0:
126,274,72561,1,0,0:0:0:0:
0,29,72719,5,0,0:0:0:0:
260,124,72877,1,0,0:0:0:0:
28,332,73035,6,0,P|2:280|11:238,1,94.499997116089
138,36,73351,5,0,0:0:0:0:
231,234,73509,1,0,0:0:0:0:
131,20,73666,1,0,0:0:0:0:
126,274,73824,5,0,0:0:0:0:
250,5,73982,1,0,0:0:0:0:
63,175,74140,1,0,0:0:0:0:
368,172,74298,5,0,0:0:0:0:
131,20,74456,1,0,0:0:0:0:
248,332,74614,1,0,0:0:0:0:
364,0,74772,5,0,0:0:0:0:
63,175,74930,1,0,0:0:0:0:
392,321,75088,1,0,0:0:0:0:
123,0,75245,5,0,0:0:0:0:
254,350,75403,1,0,0:0:0:0:
260,373,75877,5,0,0:0:0:0:
342,239,76035,1,0,0:0:0:0:
164,334,76193,1,0,0:0:0:0:
356,228,76351,2,0,L|452:245,1,90
291,142,76666,1,0,0:0:0:0:
388,331,76824,1,0,0:0:0:0:
490,112,76982,6,0,L|395:130,1,90
219,238,77298,1,0,0:0:0:0:
329,46,77456,1,0,0:0:0:0:
208,260,77614,2,0,B|105:222|105:222|47:269,1,180
205,149,78088,1,0,0:0:0:0:
123,340,78245,1,0,0:0:0:0:
17,157,78403,5,0,0:0:0:0:
208,260,78561,1,0,0:0:0:0:
0,148,78719,1,0,0:0:0:0:
161,58,78877,2,0,P|210:40|256:60,1,90
317,257,79193,1,0,0:0:0:0:
421,68,79351,1,0,0:0:0:0:
208,260,79509,6,0,L|230:362,1,90
416,255,79824,1,0,0:0:0:0:
257,164,79982,1,0,0:0:0:0:
370,347,80140,2,0,P|416:361|460:347,1,90
512,136,80456,1,0,0:0:0:0:
512,136,80535,1,0,0:0:0:0:
512,136,80614,2,0,L|370:164,1,135
363,167,80930,5,0,0:0:0:0:
167,115,81088,1,0,0:0:0:0:
314,260,81245,1,0,0:0:0:0:
274,70,81403,2,0,L|257:164,1,90
65,318,81719,1,0,0:0:0:0:
167,115,81877,1,0,0:0:0:0:
264,353,82035,6,0,P|302:370|352:361,1,90
414,150,82351,1,0,0:0:0:0:
212,273,82509,1,0,0:0:0:0:
462,238,82666,1,0,0:0:0:0:
189,274,82824,1,0,0:0:0:0:
441,345,82982,1,0,0:0:0:0:
239,133,83140,5,0,0:0:0:0:
239,133,83219,1,0,0:0:0:0:
239,133,83298,2,0,L|224:191,1,45
94,347,83456,6,0,P|75:313|80:250,1,99.0000030212403
351,150,83772,2,0,L|324:251,1,99.0000030212403
131,152,84088,1,0,0:0:0:0:
321,51,84245,1,0,0:0:0:0:
114,159,84403,1,0,0:0:0:0:
326,236,84561,1,0,0:0:0:0:
104,50,84719,5,0,0:0:0:0:
203,295,84877,1,0,0:0:0:0:
321,53,85035,1,0,0:0:0:0:
109,245,85193,1,0,0:0:0:0:
214,0,85351,5,0,0:0:0:0:
326,236,85509,1,0,0:0:0:0:
438,0,85666,1,0,0:0:0:0:
198,174,85824,2,0,L|247:186,1,49.5000015106202
458,326,85982,5,0,0:0:0:0:
321,53,86140,1,0,0:0:0:0:
319,364,86298,5,0,0:0:0:0:
431,105,86456,1,0,0:0:0:0:
316,383,86614,5,0,0:0:0:0:
203,85,86772,1,0,0:0:0:0:
6,383,86930,5,0,0:0:0:0:
324,225,87088,1,0,0:0:0:0:
33,56,87245,5,0,0:0:0:0:
33,56,87324,1,0,0:0:0:0:
33,56,87403,2,0,L|17:115,1,49.5000015106202
192,250,87561,2,0,L|183:201,3,49.5000015106202
13,221,87877,6,0,P|42:224|77:208,1,49.5000015106202
203,84,88035,2,0,L|143:97,1,49.5000015106202
271,315,88193,1,0,0:0:0:0:
297,328,88272,1,0,0:0:0:0:
337,332,88351,1,0,0:0:0:0:
370,322,88430,1,0,0:0:0:0:
400,303,88509,6,0,L|411:259,1,40.4999987640381
