osu file format v14

[General]
AudioFilename: audio.mp3
AudioLeadIn: 0
PreviewTime: 54640
Countdown: 0
SampleSet: Soft
StackLeniency: 0.7
Mode: 0
LetterboxInBreaks: 0
WidescreenStoryboard: 1

[Editor]
Bookmarks: 13007,23112,33218,43323,48376,55954,76165,88797
DistanceSpacing: 1
BeatDivisor: 4
GridSize: 4
TimelineZoom: 1

[Metadata]
Title:Star light, Star bright (TV Size)
TitleUnicode:Star light, Star bright (TV Size)
Artist:nano
ArtistUnicode:ナノ
Creator:A r M i N
Version:Suou's Insane
Source:CONCEPTION
Tags:コンセプション japanese rock j-rock op opening ore no kodomo o undekure! Armin A_r_M_i_N browiec Shirahane Suou Roda Totsuki reisevia PikAqours
BeatmapID:2796477
BeatmapSetID:1350684

[Difficulty]
HPDrainRate:5
CircleSize:3.8
OverallDifficulty:8
ApproachRate:9
SliderMultiplier:1.7
SliderTickRate:1

[Events]
//Background and Video events
0,0,"70786735.jpg",0,0
//Break Periods
//Storyboard Layer 0 (Background)
//Storyboard Layer 1 (Fail)
//Storyboard Layer 2 (Pass)
//Storyboard Layer 3 (Foreground)
//Storyboard Layer 4 (Overlay)
//Storyboard Sound Samples

[TimingPoints]
88,315.789473684211,4,2,1,70,1,0
88,-111.111111111111,4,2,1,70,0,0
12719,-166.666666666667,4,2,1,60,0,0
21561,-111.111111111111,4,2,1,60,0,0
22824,-133.333333333333,4,2,1,65,0,0
31666,-111.111111111111,4,2,1,70,0,0
43035,-133.333333333333,4,2,1,65,0,0
46824,-133.333333333333,4,2,1,70,0,0
48088,-111.111111111111,4,2,1,70,0,0
50614,-111.111111111111,4,2,1,75,0,0
51877,-111.111111111111,4,2,1,80,0,0
53140,-111.111111111111,4,2,1,65,0,0
55035,-166.666666666666,4,2,1,65,0,0
55666,-100,4,2,1,80,0,1
70824,-100,4,2,1,85,0,1
75877,-111.111111111111,4,2,1,70,0,0

[Colours]
Combo1 : 79,70,140
Combo2 : 107,33,43
Combo3 : 123,145,213
Combo4 : 112,88,101

[HitObjects]
155,351,88,6,0,L|142:254,1,76.4999976654053,6|2,1:2|1:2,0:0:0:0:
227,122,403,1,10,0:0:0:0:
113,192,561,2,0,B|195:163|181:229|262:199,1,152.999995330811,2|2,1:2|1:2,0:0:0:0:
424,135,1035,1,10,0:0:0:0:
366,61,1193,6,0,B|325:101|325:101|349:218,1,152.999995330811,2|2,1:2|1:2,0:0:0:0:
323,370,1666,1,10,0:0:0:0:
442,295,1824,2,0,L|277:276,1,152.999995330811,2|2,1:2|1:2,0:0:0:0:
170,180,2298,2,0,L|252:170,1,76.4999976654053,10|2,0:0|0:0,0:0:0:0:
417,112,2614,6,0,P|374:118|329:91,1,76.4999976654053,2|2,1:2|1:2,0:0:0:0:
497,38,2930,1,10,0:0:0:0:
512,177,3088,2,0,L|492:353,1,152.999995330811,2|2,1:2|1:2,0:0:0:0:
377,205,3561,1,10,0:0:0:0:
268,289,3719,6,0,B|325:279|325:279|355:295|355:295|442:281,1,152.999995330811,2|2,1:2|1:2,0:0:0:0:
297,375,4193,1,10,0:0:0:0:
245,200,4351,1,2,1:2:0:0:
148,306,4509,2,0,L|60:290,1,76.4999976654053,0|2,1:2|1:2,0:0:0:0:
36,283,4745,1,0,1:2:0:0:
36,283,4824,2,0,P|19:240|33:197,1,76.4999976654053,14|0,0:0|0:0,0:0:0:0:
153,62,5140,6,0,L|168:150,1,76.4999976654053,6|2,1:2|1:2,0:0:0:0:
235,308,5456,1,10,0:0:0:0:
274,221,5614,2,0,B|214:211|214:211|185:230|185:230|97:214,1,152.999995330811,2|2,1:2|1:2,0:0:0:0:
254,130,6088,1,10,0:0:0:0:
328,295,6245,6,0,L|506:267,1,152.999995330811,2|2,1:2|1:2,0:0:0:0:
357,376,6719,1,10,0:0:0:0:
397,198,6877,2,0,B|374:93|374:93|364:115|344:126,1,152.999995330811,2|2,1:2|1:2,0:0:0:0:
248,0,7351,1,10,0:0:0:0:
122,81,7509,1,10,0:0:0:0:
122,81,7588,1,8,0:0:0:0:
122,81,7666,6,0,B|180:73|180:73|210:94|210:94|285:84,1,152.999995330811,6|8,1:2|0:0,0:0:0:0:
154,163,8140,1,2,1:2:0:0:
36,51,8298,2,0,B|81:89|81:89|63:190,1,152.999995330811,2|10,0:0|0:0,0:0:0:0:
226,222,8772,1,2,1:2:0:0:
126,313,8930,6,0,L|159:131,1,152.999995330811,2|10,1:2|0:0,0:0:0:0:
45,277,9403,1,2,1:2:0:0:
204,357,9561,2,0,L|290:341,1,76.4999976654053,2|2,1:2|1:2,0:0:0:0:
411,249,9877,2,0,L|325:233,1,76.4999976654053,10|2,0:0|1:2,0:0:0:0:
252,70,10193,6,0,L|233:171,1,76.4999976654053,6|2,1:2|1:2,0:0:0:0:
143,284,10509,1,10,0:0:0:0:
28,165,10666,2,0,L|129:184,1,76.4999976654053,2|2,1:2|1:2,0:0:0:0:
250,263,10982,1,2,1:2:0:0:
103,179,11140,1,10,0:0:0:0:
238,145,11298,1,2,1:2:0:0:
143,284,11456,5,10,0:0:0:0:
150,99,11614,1,2,1:2:0:0:
250,263,11772,1,10,0:0:0:0:
315,82,11930,1,2,1:2:0:0:
133,186,12088,1,10,0:0:0:0:
352,274,12245,1,8,3:0:0:0:
352,274,12324,1,8,3:0:0:0:
352,274,12403,2,0,L|335:213,3,38.2499988327027,8|8|4|4,3:0|3:0|3:0|3:0,0:0:0:0:
332,194,12719,5,4,1:2:0:0:
332,194,13035,2,0,L|450:211,1,101.999996887207,2|2,0:0|0:0,0:0:0:0:
331,379,13666,1,2,0:0:0:0:
443,301,13982,2,0,L|324:284,1,101.999996887207,2|2,0:0|0:0,0:0:0:0:
262,253,14456,2,0,L|143:269,1,101.999996887207,2|2,0:0|0:0,0:0:0:0:
104,330,14930,1,2,0:0:0:0:
189,175,15088,1,0,1:2:0:0:
41,243,15245,5,0,1:2:0:0:
41,243,15561,2,0,L|53:133,1,101.999996887207,2|2,0:0|0:0,0:0:0:0:
118,22,16193,1,2,0:0:0:0:
211,105,16509,2,0,P|263:115|306:90,1,101.999996887207,2|2,0:0|0:0,0:0:0:0:
381,40,16982,2,0,L|394:143,1,101.999996887207,2|2,0:0|0:0,0:0:0:0:
302,230,17456,2,0,L|308:178,1,50.9999984436036,6|0,0:0|0:0,0:0:0:0:
490,220,17772,5,4,1:2:0:0:
490,220,18088,2,0,L|374:231,1,101.999996887207,2|2,0:0|0:0,0:0:0:0:
213,207,18719,1,2,0:0:0:0:
324,330,19035,2,0,L|298:208,1,101.999996887207,2|2,0:0|0:0,0:0:0:0:
174,284,19509,2,0,L|229:293,1,50.9999984436036,2|0,0:0|0:0,0:0:0:0:
213,206,19824,2,0,L|163:198,1,50.9999984436036,2|0,0:0|0:0,0:0:0:0:
101,126,20140,1,2,1:2:0:0:
82,271,20298,6,0,L|100:384,1,101.999996887207,2|0,1:2|0:0,0:0:0:0:
174,284,20772,2,0,L|192:397,1,101.999996887207,0|2,1:2|0:0,0:0:0:0:
274,347,21245,2,0,L|266:297,1,50.9999984436036,2|2,0:0|0:0,0:0:0:0:
374,178,21561,6,0,L|363:256,2,76.4999976654053,2|2|2,0:0|0:0|0:0,0:0:0:0:
219,77,22035,2,0,P|251:95|289:92,1,76.4999976654053,10|0,0:0|0:0,0:0:0:0:
404,64,22351,1,10,1:3:0:0:
275,200,22509,2,0,L|198:192,1,76.4999976654053,6|0,1:3|0:0,0:0:0:0:
22,119,22824,5,4,1:2:0:0:
22,119,23140,2,0,L|31:53,1,63.7500024318696,2|0,1:2|0:0,0:0:0:0:
116,0,23456,2,0,L|124:63,1,63.7500024318696,2|0,1:2|0:0,0:0:0:0:
208,106,23772,2,0,L|216:42,1,63.7500024318696,2|0,1:2|0:0,0:0:0:0:
358,0,24088,6,0,P|325:42|344:119,1,127.500004863739,2|2,1:2|1:2,0:0:0:0:
394,180,24561,1,2,0:0:0:0:
394,180,24719,2,0,L|466:164,1,63.7500024318696,0|2,1:2|0:0,0:0:0:0:
512,272,25035,2,0,L|440:256,1,63.7500024318696,2|0,1:2|0:0,0:0:0:0:
319,370,25351,5,0,1:2:0:0:
319,370,25666,2,0,L|302:291,1,63.7500024318696,2|0,1:2|0:0,0:0:0:0:
238,254,25982,2,0,L|255:175,1,63.7500024318696,2|0,1:2|0:0,0:0:0:0:
331,157,26298,2,0,L|314:78,1,63.7500024318696,2|0,1:2|0:0,0:0:0:0:
226,11,26614,6,0,P|203:42|113:45,1,127.500004863739,2|2,1:2|1:2,0:0:0:0:
40,10,27088,1,2,0:0:0:0:
40,10,27245,2,0,L|25:80,1,63.7500024318696,0|2,1:2|0:0,0:0:0:0:
104,195,27561,2,0,L|90:132,1,63.7500024318696,2|0,1:2|0:0,0:0:0:0:
49,277,27877,6,0,L|188:296,1,127.500004863739,6|0,1:2|1:2,0:0:0:0:
263,272,28351,1,2,0:0:0:0:
263,272,28509,2,0,L|252:353,1,63.7500024318696,0|0,1:2|0:0,0:0:0:0:
192,206,28824,6,0,L|209:79,1,127.500004863739,2|0,1:2|1:2,0:0:0:0:
294,31,29298,1,2,0:0:0:0:
294,31,29456,2,0,L|305:112,1,63.7500024318696,0|0,1:2|0:0,0:0:0:0:
387,182,29772,2,0,L|395:118,1,63.7500024318696,2|0,1:2|0:0,0:0:0:0:
334,262,30088,2,0,P|371:279|414:272,1,63.7500024318696,2|0,1:2|0:0,0:0:0:0:
300,176,30403,6,0,L|170:194,1,127.500004863739,2|2,1:2|1:2,0:0:0:0:
101,253,30877,1,2,0:0:0:0:
101,253,31035,2,0,L|26:239,1,63.7500024318696,0|0,1:2|0:0,0:0:0:0:
87,155,31351,1,2,1:2:0:0:
189,284,31509,1,2,0:0:0:0:
38,241,31666,5,8,0:0:0:0:
174,91,31824,1,8,0:0:0:0:
174,91,31903,1,8,0:0:0:0:
174,91,31982,2,0,L|163:35,3,38.2499988327027,8|8|8|8,1:2|0:0|0:0|0:0,0:0:0:0:
82,0,32298,2,0,L|74:37,3,38.2499988327027,8|8|8|8,1:2|0:0|0:0|0:0,0:0:0:0:
0,90,32614,1,10,1:2:0:0:
3,108,32692,1,8,0:0:0:0:
7,127,32771,1,8,0:0:0:0:
11,146,32850,1,8,0:0:0:0:
14,165,32930,6,0,P|42:196|162:166,1,152.999995330811,6|8,1:2|0:0,0:0:0:0:
257,108,33403,2,0,L|237:275,1,152.999995330811,2|2,1:2|1:2,0:0:0:0:
374,361,33877,6,0,B|329:331|329:331|340:228,1,152.999995330811,10|0,0:0|1:2,0:0:0:0:
404,79,34351,1,2,1:2:0:0:
494,182,34509,2,0,L|417:174,1,76.4999976654053,8|0,0:0|1:2,0:0:0:0:
316,85,34824,1,0,1:2:0:0:
417,174,34982,1,0,1:2:0:0:
238,259,35140,2,0,L|245:182,1,76.4999976654053,10|0,0:0|1:2,0:0:0:0:
355,330,35456,6,0,B|266:313|299:367|206:345,1,152.999995330811,2|8,1:2|0:0,0:0:0:0:
63,296,35930,2,0,P|107:312|134:232,1,152.999995330811,2|0,1:2|1:2,0:0:0:0:
83,120,36403,6,0,B|176:100|176:100|185:128|219:154,1,152.999995330811,10|0,0:0|1:2,0:0:0:0:
350,87,36877,1,2,1:2:0:0:
252,0,37035,2,0,L|263:92,1,76.4999976654053,8|0,0:0|1:2,0:0:0:0:
312,185,37351,1,0,1:2:0:0:
261,75,37509,1,0,1:2:0:0:
405,173,37666,2,0,L|493:159,1,76.4999976654053,14|0,0:0|1:2,0:0:0:0:
358,269,37982,6,0,P|304:219|232:236,1,152.999995330811,6|10,1:2|0:0,0:0:0:0:
114,333,38456,2,0,B|128:310|151:297|151:297|126:199,1,152.999995330811,2|0,1:2|1:2,0:0:0:0:
51,267,38930,1,10,0:0:0:0:
196,375,39088,6,0,B|253:366|253:366|285:382|285:382|343:373,1,152.999995330811,2|0,1:2|1:2,0:0:0:0:
401,212,39561,1,10,0:0:0:0:
512,311,39719,2,0,L|354:290,1,152.999995330811,2|0,1:2|1:2,0:0:0:0:
284,202,40193,1,10,0:0:0:0:
271,335,40351,1,2,1:2:0:0:
401,212,40509,6,0,L|387:122,1,76.4999976654053,4|0,1:2|1:2,0:0:0:0:
325,0,40824,1,8,0:0:0:0:
206,89,40982,2,0,L|308:102,1,76.4999976654053,0|0,1:2|1:2,0:0:0:0:
416,43,41298,1,0,1:2:0:0:
284,202,41456,2,0,L|182:189,1,76.4999976654053,8|0,0:0|1:2,0:0:0:0:
55,110,41772,6,0,L|47:60,2,38.2499988327027,8|8|2,0:0|0:0|1:2,0:0:0:0:
165,0,42088,2,0,L|157:50,2,38.2499988327027,10|8|4,3:0|3:0|3:0,0:0:0:0:
282,99,42403,6,0,L|274:49,2,50.9999984436036,8|0|8,0:0|1:0|3:0,0:0:0:0:
381,16,42719,2,0,L|373:66,2,50.9999984436036,8|4|4,3:0|3:0|3:0,0:0:0:0:
426,187,43035,5,6,1:2:0:0:
453,109,43193,2,0,P|391:103|346:146,1,127.500004863739,0|2,1:2|1:2,0:0:0:0:
258,287,43666,2,0,B|292:250|292:250|263:158,1,127.500004863739,8|0,0:0|0:0,0:0:0:0:
167,320,44140,1,2,1:2:0:0:
175,327,44219,1,0,1:2:0:0:
175,327,44298,5,0,1:2:0:0:
253,378,44456,2,0,L|379:361,1,127.500004863739,8|0,0:0|1:2,0:0:0:0:
430,281,44930,2,0,L|359:269,1,63.7500024318696,8|0,0:0|0:0,0:0:0:0:
269,176,45245,2,0,L|281:247,1,63.7500024318696,2|0,1:2|0:0,0:0:0:0:
427,99,45561,5,2,1:2:0:0:
482,201,45719,2,0,L|333:175,1,127.500004863739,0|2,1:2|1:2,0:0:0:0:
201,122,46193,2,0,P|253:88|313:103,1,127.500004863739,8|0,0:0|0:0,0:0:0:0:
192,209,46666,1,2,1:2:0:0:
102,80,46824,6,0,L|111:9,1,63.7500024318696,10|0,0:0|1:2,0:0:0:0:
201,122,47140,1,0,1:2:0:0:
82,179,47298,2,0,L|3:168,1,63.7500024318696,8|0,0:0|1:2,0:0:0:0:
121,311,47614,1,8,0:0:0:0:
121,311,47693,1,8,0:0:0:0:
121,311,47772,2,0,L|173:302,3,31.8750012159348,10|8|8|8,1:2|0:0|0:0|0:0,0:0:0:0:
181,280,48088,6,0,L|268:290,1,76.4999976654053,6|0,1:2|1:2,0:0:0:0:
401,349,48403,2,0,L|325:357,1,76.4999976654053,8|0,0:0|1:2,0:0:0:0:
284,202,48719,1,2,1:2:0:0:
422,261,48877,2,0,L|346:269,1,76.4999976654053,8|0,0:0|1:2,0:0:0:0:
293,110,49193,1,2,1:2:0:0:
436,173,49351,6,0,L|512:165,1,76.4999976654053,10|0,0:0|1:2,0:0:0:0:
381,70,49666,1,2,1:2:0:0:
284,202,49824,2,0,L|208:194,1,76.4999976654053,8|2,0:0|1:2,0:0:0:0:
88,92,50140,1,0,1:2:0:0:
183,19,50298,2,0,P|209:62|206:92,1,76.4999976654053,10|0,0:0|1:2,0:0:0:0:
118,205,50614,6,0,L|34:192,1,76.4999976654053,14|0,0:0|1:2,0:0:0:0:
172,278,50930,5,8,0:0:0:0:
208,194,51088,1,0,1:2:0:0:
82,289,51245,5,8,0:0:0:0:
136,362,51403,1,0,1:2:0:0:
262,267,51561,5,8,0:0:0:0:
226,351,51719,1,0,1:2:0:0:
208,194,51877,5,8,0:0:0:0:
208,194,52035,1,8,0:0:0:0:
355,255,52193,1,8,0:0:0:0:
355,255,52351,1,8,0:0:0:0:
226,351,52509,5,8,0:0:0:0:
298,183,52666,1,8,0:0:0:0:
373,369,52824,1,8,0:0:0:0:
172,278,52982,1,8,0:0:0:0:
172,278,54719,6,0,L|153:197,1,76.4999976654053,2|0,0:0|0:0,0:0:0:0:
8,196,55035,6,0,B|86:174|71:238|154:204,1,152.999995330811,2|0,0:0|0:0,0:0:0:0:
130,35,55666,6,0,L|114:133,1,85,6|0,1:2|1:2,0:0:0:0:
182,299,55982,1,10,0:0:0:0:
290,134,56140,2,0,P|251:117|209:120,1,85,2|0,0:0|1:2,0:0:0:0:
361,220,56456,1,2,1:2:0:0:
415,22,56614,2,0,L|313:38,1,85,10|2,0:0|0:0,0:0:0:0:
155,204,56930,6,0,L|249:219,1,85,2|2,1:2|1:2,0:0:0:0:
374,120,57245,2,0,L|290:133,1,85,10|2,0:0|0:0,0:0:0:0:
454,181,57561,2,0,P|477:146|474:104,1,85,2|0,1:2|1:2,0:0:0:0:
361,220,57877,1,10,0:0:0:0:
504,334,58035,6,0,B|442:324|442:324|410:343|410:343|330:330,1,170,2|2,0:0|1:2,0:0:0:0:
180,246,58509,2,0,L|263:232,1,85,8|2,0:0|0:0,0:0:0:0:
422,127,58824,2,0,L|338:113,1,85,2|0,1:2|1:2,0:0:0:0:
153,161,59140,1,10,0:0:0:0:
212,0,59298,6,0,B|258:49|258:49|233:169,1,170,2|2,0:0|1:2,0:0:0:0:
67,222,59772,2,0,L|48:130,1,85,8|0,0:0|0:0,0:0:0:0:
171,252,60088,1,0,1:2:0:0:
49,138,60245,1,0,1:2:0:0:
11,304,60403,2,0,P|48:322|89:316,1,85,10|0,0:0|0:0,0:0:0:0:
237,149,60719,6,0,L|144:162,1,85,6|0,1:2|1:2,0:0:0:0:
248,318,61035,2,0,L|341:305,1,85,10|0,0:0|0:0,0:0:0:0:
370,128,61351,1,2,1:2:0:0:
252,230,61509,1,0,1:2:0:0:
322,43,61666,2,0,P|361:29|402:38,1,85,10|0,0:0|0:0,0:0:0:0:
512,214,61982,6,0,L|427:202,1,85,0|0,1:2|1:2,0:0:0:0:
322,43,62298,1,10,0:0:0:0:
207,131,62456,2,0,B|294:98|283:172|374:125,1,170,2|2,0:0|1:2,0:0:0:0:
160,35,62930,2,0,P|123:56|101:92,1,85,8|2,0:0|0:0,0:0:0:0:
239,302,63245,6,0,L|252:197,1,85,6|0,1:2|1:2,0:0:0:0:
140,366,63561,1,8,0:0:0:0:
336,384,63719,2,0,B|382:345|382:345|361:237,1,170,0|8,1:2|0:0,0:0:0:0:
243,118,64193,1,2,1:2:0:0:
419,135,64351,1,2,1:2:0:0:
249,217,64509,6,0,L|151:205,1,85,8|0,0:0|1:2,0:0:0:0:
45,78,64824,1,0,1:2:0:0:
243,118,64982,1,8,0:0:0:0:
55,192,65140,1,0,1:2:0:0:
144,45,65298,1,8,0:0:0:0:
144,45,65377,1,8,0:0:0:0:
144,45,65456,2,0,L|153:97,3,42.5,10|8|8|8,0:0|0:0|0:0|0:0,0:0:0:0:
139,131,65772,6,0,L|153:214,1,85,6|0,1:2|1:2,0:0:0:0:
273,375,66088,1,10,0:0:0:0:
422,251,66245,2,0,B|335:218|346:292|255:245,1,170,2|2,0:0|1:2,0:0:0:0:
85,323,66719,2,0,P|125:314|162:334,1,85,8|2,0:0|0:0,0:0:0:0:
9,222,67035,6,0,L|21:109,1,85,0|0,1:2|1:2,0:0:0:0:
138,0,67351,1,8,0:0:0:0:
234,171,67509,2,0,B|128:153|128:153|112:121|128:92,1,170,0|0,1:0|1:2,0:0:0:0:
319,113,67982,2,0,P|339:149|338:191,1,85,10|0,0:0|0:0,0:0:0:0:
220,70,68298,6,0,P|241:34|278:14,1,85,2|0,1:2|1:2,0:0:0:0:
403,126,68614,2,0,L|307:110,1,85,10|0,0:0|0:0,0:0:0:0:
131,230,68930,2,0,L|227:246,1,85,2|0,1:2|1:0,0:0:0:0:
411,280,69245,1,10,0:0:0:0:
250,362,69403,1,2,1:2:0:0:
309,217,69561,5,8,0:0:0:0:
345,384,69719,1,2,1:2:0:0:
215,244,69877,1,10,0:0:0:0:
406,166,70035,1,2,1:2:0:0:
406,166,70114,1,0,1:2:0:0:
406,166,70193,1,10,0:0:0:0:
424,191,70271,1,8,0:0:0:0:
432,222,70350,1,2,1:2:0:0:
427,253,70429,1,0,1:2:0:0:
411,280,70509,2,0,L|365:270,3,42.5,10|8|4|4,3:0|3:0|3:0|3:0,0:0:0:0:
309,217,70824,6,0,L|295:124,1,85,6|0,1:2|0:0,0:0:0:0:
207,55,71140,5,8,0:0:0:0:
191,169,71298,1,2,1:2:0:0:
118,42,71456,5,8,0:0:0:0:
102,156,71614,1,0,1:2:0:0:
29,29,71772,5,10,0:0:0:0:
13,143,71930,1,0,1:2:0:0:
13,143,72009,1,0,1:2:0:0:
13,143,72088,6,0,L|24:233,1,85,8|2,0:0|1:2,0:0:0:0:
107,357,72403,5,8,0:0:0:0:
123,243,72561,1,0,1:2:0:0:
196,370,72719,5,8,0:0:0:0:
212,256,72877,1,0,1:2:0:0:
285,383,73035,5,10,0:0:0:0:
301,269,73193,1,0,1:2:0:0:
452,324,73351,6,0,L|357:339,1,85,14|0,0:0|1:2,0:0:0:0:
263,188,73666,1,0,1:2:0:0:
464,232,73824,2,0,L|369:247,1,85,14|0,0:0|1:2,0:0:0:0:
212,256,74140,1,0,1:2:0:0:
295,93,74298,6,0,B|332:112|332:112|347:152,1,85,14|0,0:0|1:2,0:0:0:0:
177,169,74614,1,0,1:2:0:0:
198,0,74772,2,0,L|215:102,1,85,14|0,0:0|1:2,0:0:0:0:
118,243,75088,1,0,1:2:0:0:
101,53,75245,5,10,0:0:0:0:
263,188,75403,1,10,0:0:0:0:
263,188,75877,6,0,L|179:174,1,76.4999976654053,6|2,1:2|1:2,0:0:0:0:
7,207,76193,1,10,0:0:0:0:
90,72,76351,2,0,B|104:131|104:131|86:164|86:164|101:226,1,152.999995330811,2|2,1:2|1:2,0:0:0:0:
9,116,76824,1,10,0:0:0:0:
173,35,76982,6,0,B|269:46|269:46|266:76|274:101,1,152.999995330811,2|2,1:2|1:2,0:0:0:0:
354,246,77456,1,10,0:0:0:0:
500,144,77614,2,0,B|420:117|434:183|353:153,1,152.999995330811,2|2,1:2|1:2,0:0:0:0:
371,0,78088,2,0,L|386:87,1,76.4999976654053,10|2,0:0|0:0,0:0:0:0:
473,225,78403,6,0,L|458:312,1,76.4999976654053,2|2,1:2|1:2,0:0:0:0:
368,384,78719,1,10,0:0:0:0:
277,258,78877,2,0,B|218:253|218:253|192:271|192:271|119:264,1,152.999995330811,2|2,1:2|1:2,0:0:0:0:
25,198,79351,1,10,0:0:0:0:
133,48,79509,6,0,B|182:89|182:89|163:186,1,152.999995330811,2|2,1:2|1:2,0:0:0:0:
48,284,79982,1,10,0:0:0:0:
90,129,80140,1,2,1:2:0:0:
159,275,80298,2,0,L|239:260,1,76.4999976654053,0|2,1:2|1:2,0:0:0:0:
279,256,80535,1,0,1:2:0:0:
279,256,80614,2,0,P|291:220|282:184,1,76.4999976654053,14|0,0:0|0:0,0:0:0:0:
224,30,80930,6,0,L|209:110,1,76.4999976654053,6|2,1:2|1:2,0:0:0:0:
141,10,81245,1,10,0:0:0:0:
297,93,81403,2,0,L|459:71,1,152.999995330811,2|2,1:2|1:2,0:0:0:0:
321,0,81877,1,10,0:0:0:0:
385,163,82035,6,0,B|363:261|363:261|354:236|328:222,1,152.999995330811,2|2,1:2|1:2,0:0:0:0:
263,384,82509,1,10,0:0:0:0:
136,284,82666,2,0,B|216:257|202:323|283:293,1,152.999995330811,2|2,1:2|1:2,0:0:0:0:
246,207,83140,1,10,0:0:0:0:
151,379,83298,1,10,0:0:0:0:
151,379,83377,1,8,0:0:0:0:
151,379,83456,6,0,B|64:367|64:367|41:336|59:301,1,152.999995330811,6|8,1:2|0:0,0:0:0:0:
171,183,83930,1,2,1:2:0:0:
76,89,84088,2,0,B|94:149|94:149|83:178|83:178|99:234,1,152.999995330811,2|10,0:0|0:0,0:0:0:0:
0,150,84561,1,2,1:2:0:0:
172,87,84719,6,0,B|267:77|267:77|266:104|278:132,1,152.999995330811,2|10,1:2|0:0,0:0:0:0:
339,0,85193,1,2,1:2:0:0:
435,99,85351,2,0,L|348:87,1,76.4999976654053,2|2,1:2|1:2,0:0:0:0:
266,222,85666,2,0,L|353:210,1,76.4999976654053,10|2,0:0|1:2,0:0:0:0:
189,166,85982,6,0,P|169:198|168:236,1,76.4999976654053,14|2,0:0|1:2,0:0:0:0:
279,133,86298,1,10,0:0:0:0:
171,28,86456,2,0,L|95:41,1,76.4999976654053,2|10,1:2|0:0,0:0:0:0:
0,176,86772,1,2,1:2:0:0:
105,129,86930,1,10,0:0:0:0:
0,76,87088,1,2,1:2:0:0:
84,222,87245,5,10,0:0:0:0:
81,240,87323,1,8,0:0:0:0:
78,259,87402,1,2,1:2:0:0:
75,278,87481,1,0,1:2:0:0:
72,297,87561,2,0,L|66:344,3,38.2499988327027,10|8|6|4,3:0|3:0|3:0|3:0,0:0:0:0:
59,373,87877,5,10,0:0:0:0:
191,278,88035,2,0,L|240:285,1,38.2499988327027,10|8,0:0|0:0,0:0:0:0:
327,367,88193,2,0,L|289:372,1,38.2499988327027,10|8,0:0|0:0,0:0:0:0:
172,258,88351,5,10,1:2:0:0:
