osu file format v14

[General]
AudioFilename: audio.mp3
AudioLeadIn: 0
PreviewTime: 54640
Countdown: 0
SampleSet: Soft
StackLeniency: 0.7
Mode: 0
LetterboxInBreaks: 0
WidescreenStoryboard: 1

[Editor]
DistanceSpacing: 1
BeatDivisor: 4
GridSize: 4
TimelineZoom: 1

[Metadata]
Title:Star light, Star bright (TV Size)
TitleUnicode:Star light, Star bright (TV Size)
Artist:nano
ArtistUnicode:ナノ
Creator:A r M i N
Version:Roda's Normal
Source:CONCEPTION
Tags:コンセプション japanese rock j-rock op opening ore no kodomo o undekure! Armin A_r_M_i_N browiec Shirahane Suou Roda Totsuki reisevia PikAqours
BeatmapID:2796476
BeatmapSetID:1350684

[Difficulty]
HPDrainRate:4
CircleSize:3
OverallDifficulty:3
ApproachRate:5
SliderMultiplier:0.999999999999999
SliderTickRate:1

[Events]
//Background and Video events
0,0,"70786735.jpg",0,0
//Break Periods
2,12919,13888
2,15445,16572
2,17972,18940
//Storyboard Layer 0 (Background)
//Storyboard Layer 1 (Fail)
//Storyboard Layer 2 (Pass)
//Storyboard Layer 3 (Foreground)
//Storyboard Layer 4 (Overlay)
//Storyboard Sound Samples

[TimingPoints]
88,315.789473684211,4,2,1,70,1,0
12719,-100,4,2,1,60,0,0
20298,-111.111111111111,4,2,1,60,0,0
22824,-111.111111111111,4,2,1,65,0,0
31666,-111.111111111111,4,2,1,70,0,0
43035,-111.111111111111,4,2,1,65,0,0
46824,-111.111111111111,4,2,1,70,0,0
50614,-100,4,2,1,75,0,0
51877,-100,4,2,1,80,0,0
53140,-100,4,2,1,65,0,0
55666,-90.9090909090909,4,2,1,80,0,1
70824,-90.9090909090909,4,2,1,85,0,1
75877,-100,4,2,1,70,0,0

[Colours]
Combo1 : 79,70,140
Combo2 : 107,33,43
Combo3 : 123,145,213
Combo4 : 112,88,101

[HitObjects]
112,24,88,6,0,P|86:60|96:120,1,99.9999999999999,6|10,1:2|0:0,0:0:0:0:
135,137,561,2,0,B|196:120|196:120|226:137|226:137|280:122,1,150,2|10,1:2|0:0,0:0:0:0:
323,106,1193,1,2,1:2:0:0:
399,41,1509,1,2,1:2:0:0:
473,106,1824,2,0,P|487:160|468:213,1,99.9999999999999,2|2,1:2|1:2,0:0:0:0:
445,242,2298,1,10,0:0:0:0:
378,317,2614,6,0,B|271:323,1,99.9999999999999,2|10,1:2|0:0,0:0:0:0:
234,297,3088,2,0,B|218:216|265:241|251:150,1,150,2|10,1:2|0:0,0:0:0:0:
245,101,3719,1,2,1:2:0:0:
173,30,4035,2,0,L|115:22,1,50,2|10,1:2|0:0,0:0:0:0:
74,11,4351,2,0,P|52:54|59:111,1,99.9999999999999,2|2,1:2|1:2,0:0:0:0:
86,144,4824,1,14,0:0:0:0:
46,235,5140,6,0,P|20:279|28:333,1,99.9999999999999,6|10,1:2|0:0,0:0:0:0:
51,368,5614,2,0,P|104:383|177:320,1,150,2|10,1:2|0:0,0:0:0:0:
185,280,6245,2,0,B|233:264|233:264|289:288,1,99.9999999999999,2|2,1:2|1:2,0:0:0:0:
354,348,6877,1,2,1:2:0:0:
449,312,7193,1,2,1:2:0:0:
449,312,7351,2,0,L|444:261,1,50,10|10,0:0|0:0,0:0:0:0:
409,226,7666,6,0,L|420:118,1,99.9999999999999,6|8,1:2|0:0,0:0:0:0:
393,83,8140,2,0,P|355:95|298:74,1,99.9999999999999,2|2,1:2|1:2,0:0:0:0:
262,41,8614,1,10,0:0:0:0:
181,100,8930,2,0,L|172:203,1,99.9999999999999,2|10,1:2|0:0,0:0:0:0:
194,297,9561,1,2,1:2:0:0:
105,344,9877,1,10,0:0:0:0:
12,305,10193,6,0,P|-1:268|12:203,1,99.9999999999999,6|10,1:2|0:0,0:0:0:0:
43,173,10666,2,0,L|32:68,1,99.9999999999999,2|2,1:2|1:2,0:0:0:0:
58,30,11140,2,0,L|111:38,1,50,10|2,0:0|1:2,0:0:0:0:
155,23,11456,5,10,0:0:0:0:
214,103,11772,1,10,0:0:0:0:
307,68,12088,2,0,L|356:60,1,50,10|8,0:0|3:0,0:0:0:0:
398,32,12403,2,0,L|447:40,1,50,8|4,3:0|3:0,0:0:0:0:
483,75,12719,1,4,1:2:0:0:
325,206,15088,5,0,1:2:0:0:
325,206,15245,1,0,1:2:0:0:
112,264,17772,5,4,1:2:0:0:
212,97,20140,5,2,1:2:0:0:
212,97,20298,2,0,P|175:65|87:76,1,134.999995880127,2|0,1:2|1:2,0:0:0:0:
330,342,22035,6,0,L|436:326,1,89.999997253418,10|10,0:0|1:3,0:0:0:0:
448,294,22509,1,6,1:3:0:0:
499,220,22824,2,0,P|505:156|518:117,1,89.999997253418,4|2,1:2|1:2,0:0:0:0:
476,48,23456,2,0,P|432:60|381:69,1,89.999997253418,2|2,1:2|1:2,0:0:0:0:
303,99,24088,2,0,L|214:84,1,89.999997253418,2|2,1:2|1:2,0:0:0:0:
179,55,24561,1,2,0:0:0:0:
116,120,24877,1,2,0:0:0:0:
116,120,25035,2,0,P|135:171|120:222,1,89.999997253418,2|0,1:2|1:2,0:0:0:0:
76,278,25666,5,2,1:2:0:0:
142,338,25982,2,0,L|235:323,1,89.999997253418,2|2,1:2|1:2,0:0:0:0:
314,358,26614,2,0,P|358:378|409:366,1,89.999997253418,2|2,1:2|1:2,0:0:0:0:
430,340,27088,2,0,P|436:292|447:239,1,89.999997253418,2|2,0:0|0:0,0:0:0:0:
432,207,27561,1,2,1:2:0:0:
359,152,27877,6,0,P|301:140|233:194,1,134.999995880127,6|2,1:2|0:0,0:0:0:0:
220,220,28509,1,0,1:2:0:0:
144,267,28824,2,0,P|100:268|59:236,1,89.999997253418,2|0,1:2|1:2,0:0:0:0:
42,202,29298,1,2,0:0:0:0:
93,128,29614,1,0,0:0:0:0:
93,128,29772,2,0,P|86:73|78:27,1,89.999997253418,2|2,1:2|1:2,0:0:0:0:
165,9,30403,6,0,P|215:0|259:25,1,89.999997253418,2|2,1:2|1:2,0:0:0:0:
286,41,30877,2,0,P|274:103|264:182,1,134.999995880127,2|2,0:0|1:2,0:0:0:0:
283,215,31509,1,2,0:0:0:0:
283,215,31666,2,0,L|292:272,1,44.999998626709,8|8,0:0|0:0,0:0:0:0:
300,303,31982,1,8,1:2:0:0:
385,337,32298,2,0,L|382:392,2,44.999998626709,8|8|10,1:2|0:0|1:2,0:0:0:0:
450,275,32930,6,0,P|460:235|450:188,1,89.999997253418,6|8,1:2|0:0,0:0:0:0:
413,161,33403,2,0,L|423:68,1,89.999997253418,2|2,1:2|1:2,0:0:0:0:
396,34,33877,2,0,P|357:21|308:39,1,89.999997253418,10|0,0:0|1:2,0:0:0:0:
281,68,34351,1,2,1:2:0:0:
281,68,34509,1,8,0:0:0:0:
199,104,34824,2,0,P|156:93|104:85,1,89.999997253418,0|10,1:2|0:0,0:0:0:0:
33,131,35456,6,0,P|14:154|11:222,1,89.999997253418,2|8,1:2|0:0,0:0:0:0:
30,251,35930,2,0,L|124:240,1,89.999997253418,2|0,1:2|1:2,0:0:0:0:
149,274,36403,2,0,P|194:279|245:289,1,89.999997253418,10|0,0:0|1:2,0:0:0:0:
274,314,36877,1,2,1:2:0:0:
274,314,37035,1,8,0:0:0:0:
343,370,37351,1,0,1:2:0:0:
427,340,37666,2,0,L|432:286,1,44.999998626709,14|0,0:0|1:2,0:0:0:0:
407,256,37982,6,0,P|421:227|413:160,1,89.999997253418,6|10,1:2|0:0,0:0:0:0:
391,133,38456,2,0,L|289:129,1,89.999997253418,2|0,1:2|1:2,0:0:0:0:
271,163,38930,1,10,0:0:0:0:
190,124,39245,2,0,P|168:85|173:41,1,89.999997253418,4|10,1:2|0:0,0:0:0:0:
211,16,39719,2,0,P|266:25|351:32,1,134.999995880127,2|10,1:2|0:0,0:0:0:0:
387,15,40351,1,2,1:2:0:0:
387,15,40509,6,0,P|414:61|412:106,1,89.999997253418,4|8,1:2|0:0,0:0:0:0:
379,179,41140,2,0,L|391:278,1,89.999997253418,0|8,1:2|0:0,0:0:0:0:
339,343,41772,2,0,L|278:333,1,44.999998626709,8|2,0:0|1:2,0:0:0:0:
259,306,42088,2,0,L|198:316,1,44.999998626709,10|4,3:0|3:0,0:0:0:0:
184,346,42403,2,0,P|149:327|83:329,1,89.999997253418,8|8,0:0|3:0,0:0:0:0:
45,252,43035,6,0,L|26:110,1,134.999995880127,6|2,1:2|1:2,0:0:0:0:
53,81,43666,1,8,0:0:0:0:
128,32,43982,1,0,0:0:0:0:
216,66,44298,1,0,1:2:0:0:
216,66,44456,2,0,P|253:43|311:46,1,89.999997253418,8|0,0:0|1:2,0:0:0:0:
340,58,44930,2,0,L|333:151,1,89.999997253418,8|2,0:0|1:2,0:0:0:0:
379,224,45561,6,0,P|320:188|241:197,1,134.999995880127,2|2,1:2|1:2,0:0:0:0:
224,223,46193,1,8,0:0:0:0:
164,290,46509,1,0,0:0:0:0:
83,250,46824,2,0,L|76:184,1,44.999998626709,10|0,0:0|1:2,0:0:0:0:
75,160,47140,1,0,1:2:0:0:
75,160,47298,2,0,P|112:135|161:136,1,89.999997253418,8|8,0:0|0:0,0:0:0:0:
197,152,47772,1,10,1:2:0:0:
280,117,48088,6,0,L|273:64,1,44.999998626709,6|0,1:2|1:2,0:0:0:0:
299,35,48403,2,0,B|341:16|341:16|387:32,1,89.999997253418,8|2,0:0|1:2,0:0:0:0:
425,43,48877,1,8,0:0:0:0:
480,113,49193,1,2,1:2:0:0:
480,113,49351,2,0,L|471:213,1,89.999997253418,10|2,0:0|1:2,0:0:0:0:
434,228,49824,2,0,L|443:328,1,89.999997253418,8|0,0:0|1:2,0:0:0:0:
423,358,50298,1,10,0:0:0:0:
323,369,50614,6,0,B|268:380|268:380|218:353,1,99.9999999999999,14|8,0:0|0:0,0:0:0:0:
149,298,51245,2,0,L|159:193,1,99.9999999999999,8|8,0:0|0:0,0:0:0:0:
223,127,51877,2,0,L|238:71,1,50,8|8,0:0|0:0,0:0:0:0:
287,82,52193,2,0,L|337:53,1,50,8|8,0:0|0:0,0:0:0:0:
364,94,52509,2,0,L|420:109,1,50,8|8,0:0|0:0,0:0:0:0:
415,156,52824,2,0,L|443:206,1,50,8|8,0:0|0:0,0:0:0:0:
200,56,55035,6,0,L|101:46,1,99.9999999999999,2|2,0:0|0:0,0:0:0:0:
29,115,55666,2,0,B|52:165|52:165|36:222,1,110.000003356934,6|10,1:2|0:0,0:0:0:0:
13,261,56140,1,2,0:0:0:0:
85,333,56456,1,2,1:2:0:0:
85,333,56614,2,0,L|145:325,1,55.0000016784668,10|2,0:0|0:0,0:0:0:0:
178,355,56930,2,0,P|223:360|279:316,1,110.000003356934,2|10,1:2|0:0,0:0:0:0:
308,226,57561,2,0,L|291:106,1,110.000003356934,2|10,1:2|0:0,0:0:0:0:
284,62,58035,5,2,0:0:0:0:
379,7,58351,1,2,1:2:0:0:
461,71,58666,1,2,0:0:0:0:
465,75,58824,2,0,P|453:135|446:197,1,110.000003356934,2|10,1:2|0:0,0:0:0:0:
466,235,59298,1,2,0:0:0:0:
379,296,59614,2,0,B|316:283|316:283|288:303|288:303|217:290,1,165.0000050354,2|0,1:2|1:2,0:0:0:0:
169,277,60245,1,0,1:2:0:0:
169,277,60403,1,10,0:0:0:0:
69,229,60719,6,0,P|51:172|72:116,1,110.000003356934,6|10,1:2|0:0,0:0:0:0:
134,39,61351,1,2,1:2:0:0:
235,80,61666,2,0,P|303:42|401:52,1,165.0000050354,10|0,0:0|1:2,0:0:0:0:
433,73,62298,1,10,0:0:0:0:
433,73,62456,2,0,B|450:130|450:130|419:187,1,110.000003356934,2|2,0:0|1:2,0:0:0:0:
378,264,63088,1,2,0:0:0:0:
378,264,63245,6,0,L|386:323,1,55.0000016784668,6|0,1:2|1:2,0:0:0:0:
353,363,63561,2,0,P|300:379|234:351,1,110.000003356934,8|0,0:0|1:2,0:0:0:0:
204,330,64035,1,8,0:0:0:0:
100,367,64351,1,0,1:2:0:0:
104,371,64509,2,0,P|96:309|83:253,1,110.000003356934,8|0,0:0|1:2,0:0:0:0:
65,211,64982,1,8,0:0:0:0:
156,148,65298,1,8,0:0:0:0:
156,148,65456,2,0,L|218:154,1,55.0000016784668,10|8,0:0|0:0,0:0:0:0:
234,203,65772,6,0,P|268:227|339:227,1,110.000003356934,6|10,1:2|0:0,0:0:0:0:
372,189,66245,1,2,0:0:0:0:
430,95,66561,1,2,1:2:0:0:
356,13,66877,2,0,L|240:37,1,110.000003356934,2|0,0:0|1:2,0:0:0:0:
193,44,67351,1,8,0:0:0:0:
87,14,67666,2,0,L|81:77,1,55.0000016784668,0|0,1:2|1:2,0:0:0:0:
73,123,67982,1,10,0:0:0:0:
10,213,68298,6,0,P|21:268|31:343,1,110.000003356934,2|10,1:2|0:0,0:0:0:0:
132,359,68930,2,0,B|181:331|181:331|243:339,1,110.000003356934,2|10,1:2|0:0,0:0:0:0:
283,343,69403,1,2,1:2:0:0:
287,347,69561,1,8,0:0:0:0:
368,271,69877,1,10,0:0:0:0:
321,171,70193,2,0,L|313:99,1,55.0000016784668,10|2,0:0|1:2,0:0:0:0:
306,61,70509,1,10,3:0:0:0:
407,19,70824,6,0,B|431:68|431:68|413:129,1,110.000003356934,6|8,1:2|0:0,0:0:0:0:
321,171,71456,1,8,0:0:0:0:
229,109,71772,2,0,L|164:116,1,55.0000016784668,10|0,0:0|1:2,0:0:0:0:
120,128,72088,2,0,L|138:250,1,110.000003356934,8|8,0:0|0:0,0:0:0:0:
217,310,72719,1,8,0:0:0:0:
316,261,73035,1,10,0:0:0:0:
389,342,73351,6,0,P|435:347|491:311,1,110.000003356934,14|0,0:0|1:2,0:0:0:0:
510,264,73824,2,0,L|494:152,1,110.000003356934,14|0,0:0|1:2,0:0:0:0:
485,100,74298,1,14,0:0:0:0:
387,49,74614,1,0,1:2:0:0:
387,49,74772,2,0,L|259:35,1,110.000003356934,14|0,0:0|1:2,0:0:0:0:
233,67,75245,1,10,0:0:0:0:
233,67,75403,1,10,0:0:0:0:
83,76,75877,6,0,L|100:190,1,99.9999999999999,6|10,1:2|0:0,0:0:0:0:
79,221,76351,2,0,B|160:205|135:252|226:238,1,150,2|10,1:2|0:0,0:0:0:0:
267,263,76982,1,2,1:2:0:0:
349,319,77298,1,2,1:2:0:0:
424,253,77614,2,0,P|438:199|419:146,1,99.9999999999999,2|2,1:2|1:2,0:0:0:0:
402,113,78088,1,10,0:0:0:0:
324,50,78403,6,0,B|217:56,1,99.9999999999999,2|10,1:2|0:0,0:0:0:0:
192,94,78877,2,0,P|124:65|57:93,1,150,2|10,1:2|0:0,0:0:0:0:
19,125,79509,1,2,1:2:0:0:
100,182,79824,2,0,L|92:240,1,50,2|10,1:2|0:0,0:0:0:0:
84,281,80140,2,0,P|127:303|184:296,1,99.9999999999999,2|2,1:2|1:2,0:0:0:0:
221,275,80614,1,14,0:0:0:0:
272,189,80930,6,0,L|264:87,1,99.9999999999999,6|10,1:2|0:0,0:0:0:0:
287,44,81403,2,0,P|340:29|413:92,1,150,2|10,1:2|0:0,0:0:0:0:
447,116,82035,2,0,L|437:221,1,99.9999999999999,2|2,1:2|1:2,0:0:0:0:
388,302,82666,1,2,1:2:0:0:
309,250,82982,1,2,1:2:0:0:
309,250,83140,2,0,L|304:199,1,50,10|10,0:0|0:0,0:0:0:0:
279,156,83456,6,0,L|171:145,1,99.9999999999999,6|8,1:2|0:0,0:0:0:0:
132,163,83930,2,0,P|112:208|124:256,1,99.9999999999999,2|2,1:2|1:2,0:0:0:0:
154,296,84403,1,10,0:0:0:0:
236,352,84719,2,0,L|339:343,1,99.9999999999999,2|10,1:2|0:0,0:0:0:0:
428,381,85351,1,2,1:2:0:0:
491,304,85666,1,10,0:0:0:0:
417,236,85982,6,0,B|371:213|371:213|323:225,1,99.9999999999999,14|10,0:0|0:0,0:0:0:0:
248,290,86614,2,0,B|202:313|202:313|144:298,1,99.9999999999999,10|10,0:0|0:0,0:0:0:0:
67,252,87245,2,0,L|59:188,1,50,10|2,0:0|1:2,0:0:0:0:
51,152,87561,1,10,3:0:0:0:
119,79,87877,2,0,L|173:84,1,50,10|10,0:0|0:0,0:0:0:0:
218,95,88193,1,10,0:0:0:0:
218,95,88351,1,10,1:2:0:0:
