osu file format v14

[General]
AudioFilename: audio.mp3
AudioLeadIn: 0
PreviewTime: 54640
Countdown: 0
SampleSet: Soft
StackLeniency: 0.7
Mode: 0
LetterboxInBreaks: 0
WidescreenStoryboard: 0

[Editor]
DistanceSpacing: 0.8
BeatDivisor: 4
GridSize: 4
TimelineZoom: 1.7

[Metadata]
Title:Star light, Star bright (TV Size)
TitleUnicode:Star light, Star bright (TV Size)
Artist:nano
ArtistUnicode:ナノ
Creator:A r M i N
Version:PikA's Extra
Source:CONCEPTION
Tags:コンセプション japanese rock j-rock op opening ore no kodomo o undekure! Armin A_r_M_i_N browiec Shirahane Suou Roda Totsuki reisevia PikAqours
BeatmapID:2801091
BeatmapSetID:1350684

[Difficulty]
HPDrainRate:5.6
CircleSize:3.5
OverallDifficulty:9
ApproachRate:9.2
SliderMultiplier:1.8
SliderTickRate:1

[Events]
//Background and Video events
0,0,"70786735.jpg",0,0
//Break Periods
//Storyboard Layer 0 (Background)
//Storyboard Layer 1 (Fail)
//Storyboard Layer 2 (Pass)
//Storyboard Layer 3 (Foreground)
//Storyboard Layer 4 (Overlay)
//Storyboard Sound Samples

[TimingPoints]
88,315.789473684211,4,2,1,70,1,0
5061,-100,4,2,1,5,0,0
5140,-100,4,2,1,70,0,0
12719,-142.857142857143,4,2,1,60,0,0
17693,-142.857142857143,4,2,1,5,0,0
17772,-142.857142857143,4,2,1,60,0,0
22745,-125,4,2,1,60,0,0
22824,-111.111111111111,4,2,1,65,0,0
31666,-100,4,2,1,70,0,0
32930,-100,4,2,1,70,0,0
43035,-111.111111111111,4,2,1,65,0,0
46824,-100,4,2,1,70,0,0
48088,-100,4,2,1,70,0,0
50614,-100,4,2,1,75,0,0
51877,-100,4,2,1,80,0,0
53140,-100,4,2,1,65,0,0
54719,-200,4,2,1,65,0,0
54956,-200,4,2,1,5,0,0
55035,-200,4,2,1,65,0,0
55588,-200,4,2,1,5,0,0
55666,-90.9090909090909,4,2,1,80,0,1
70193,-90.9090909090909,4,2,1,80,0,0
70824,-90.9090909090909,4,2,1,85,0,1
75877,-100,4,2,1,70,0,0
80851,-100,4,2,1,70,0,0
80930,-100,4,2,1,70,0,0

[Colours]
Combo1 : 79,70,140
Combo2 : 107,33,43
Combo3 : 123,145,213
Combo4 : 112,88,101

[HitObjects]
56,74,88,5,6,1:2:0:0:
264,138,245,1,2,1:2:0:0:
38,238,403,1,10,0:0:0:0:
145,26,561,2,0,P|165:120|184:215,1,180,2|2,1:2|1:2,0:0:0:0:
216,354,1035,1,10,0:0:0:0:
343,222,1193,6,0,P|386:233|437:246,1,90,2|0,1:2|0:0,0:0:0:0:
264,138,1509,1,2,1:2:0:0:
334,335,1666,1,10,0:0:0:0:
412,130,1824,2,0,P|424:86|435:42,1,90,2|0,1:2|1:2,0:0:0:0:
229,41,2140,1,2,1:2:0:0:
343,222,2298,2,0,P|386:233|430:244,1,90,10|2,0:0|0:0,0:0:0:0:
225,357,2614,5,2,1:2:0:0:
264,138,2772,1,2,1:2:0:0:
378,350,2930,1,10,0:0:0:0:
113,230,3088,2,0,P|75:140|121:54,1,180,2|2,1:2|1:2,0:0:0:0:
241,6,3561,1,10,0:0:0:0:
245,226,3719,6,0,P|254:180|263:138,1,90,2|0,1:2|0:0,0:0:0:0:
437,4,4035,1,2,1:2:0:0:
459,222,4193,1,10,0:0:0:0:
343,32,4351,2,0,P|351:76|361:120,1,90,2|0,1:2|1:2,0:0:0:0:
397,305,4666,1,2,1:2:0:0:
397,305,4745,1,0,1:2:0:0:
397,305,4824,2,0,B|346:272|346:272|252:293,1,135,14|0,0:0|0:0,0:0:0:0:
231,309,5140,5,6,1:2:0:0:
28,248,5298,1,2,1:2:0:0:
232,165,5456,1,10,0:0:0:0:
137,374,5614,6,0,B|122:303|122:303|142:261|142:261|125:175,1,180,2|2,1:2|1:2,0:0:0:0:
102,23,6088,1,10,0:0:0:0:
232,165,6245,6,0,P|281:175|320:183,1,90,2|0,1:2|0:0,0:0:0:0:
489,95,6561,1,2,1:2:0:0:
292,54,6719,1,10,0:0:0:0:
411,266,6877,2,0,P|420:221|429:177,1,90,2|0,1:2|1:2,0:0:0:0:
232,165,7193,1,2,1:2:0:0:
299,380,7351,2,0,P|343:370|387:361,1,90,10|10,0:0|0:0,0:0:0:0:
429,354,7588,1,8,0:0:0:0:
429,354,7666,6,0,P|418:303|411:266,1,90,6|2,1:2|1:2,0:0:0:0:
232,165,7982,2,0,P|223:209|213:253,1,90,8|2,0:0|1:2,0:0:0:0:
316,99,8298,1,2,0:0:0:0:
112,193,8456,1,2,1:2:0:0:
327,246,8614,1,10,0:0:0:0:
203,47,8772,1,2,1:2:0:0:
156,286,8930,6,0,P|164:329|173:385,1,90,2|2,1:2|1:2,0:0:0:0:
407,316,9245,2,0,P|414:271|422:227,1,90,10|2,0:0|1:2,0:0:0:0:
303,108,9561,1,2,1:2:0:0:
503,152,9719,1,2,1:2:0:0:
262,204,9877,1,10,0:0:0:0:
446,62,10035,1,2,1:2:0:0:
199,31,10193,6,0,P|191:70|180:136,1,90,6|2,1:2|1:2,0:0:0:0:
396,275,10509,2,0,P|388:230|379:186,1,90,10|2,0:0|1:2,0:0:0:0:
239,310,10824,1,2,1:2:0:0:
470,359,10982,1,2,1:2:0:0:
214,307,11140,1,10,0:0:0:0:
470,209,11298,1,2,1:2:0:0:
229,90,11456,5,10,0:0:0:0:
350,322,11614,1,2,1:2:0:0:
386,71,11772,5,10,0:0:0:0:
252,273,11930,1,2,1:2:0:0:
140,17,12088,5,10,0:0:0:0:
140,261,12245,2,0,P|145:230|150:201,1,45,8|8,3:0|3:0,0:0:0:0:
229,90,12403,2,0,P|232:112|236:134,1,45,8|8,3:0|3:0,0:0:0:0:
40,168,12561,2,0,P|43:145|47:123,1,45,4|4,3:0|3:0,0:0:0:0:
140,17,12719,5,4,1:2:0:0:
140,17,13035,6,0,P|132:58|124:100,1,62.9999980773926,2|0,0:0|0:0,0:0:0:0:
279,112,13351,2,0,P|247:84|215:56,1,62.9999980773926,2|0,0:0|0:0,0:0:0:0:
127,184,13666,2,0,P|166:170|206:156,1,62.9999980773926,2|0,0:0|0:0,0:0:0:0:
155,298,13982,2,0,P|92:279|12:261,1,125.999996154785,2|2,0:0|0:0,0:0:0:0:
248,259,14456,2,0,P|258:320|234:378,1,125.999996154785,2|2,0:0|0:0,0:0:0:0:
95,311,14930,2,0,P|119:299|167:301,1,62.9999980773926,2|0,0:0|1:2,0:0:0:0:
351,348,15245,5,0,1:2:0:0:
351,348,15561,2,0,P|359:303|363:278,1,62.9999980773926,2|0,0:0|0:0,0:0:0:0:
485,322,15877,2,0,P|490:353|495:384,1,62.9999980773926,2|0,0:0|0:0,0:0:0:0:
369,332,16193,2,0,P|374:301|379:269,1,62.9999980773926,2|0,0:0|0:0,0:0:0:0:
441,188,16509,6,0,B|362:169|362:169|336:196|309:195,1,125.999996154785,2|2,0:0|0:0,0:0:0:0:
231,251,16982,2,0,P|219:182|206:111,1,125.999996154785,2|2,0:0|0:0,0:0:0:0:
118,29,17456,2,0,P|110:76|99:133,1,94.499997116089,6|0,0:0|0:0,0:0:0:0:
78,149,17772,6,0,P|84:185|90:219,1,62.9999980773926,4|0,1:2|0:0,0:0:0:0:
43,298,18088,2,0,P|77:306|111:312,1,62.9999980773926,2|0,0:0|0:0,0:0:0:0:
180,250,18403,2,0,P|210:244|241:236,1,62.9999980773926,2|0,0:0|0:0,0:0:0:0:
301,356,18719,2,0,P|270:350|239:342,1,62.9999980773926,2|0,0:0|0:0,0:0:0:0:
348,258,19035,6,0,P|411:252|469:297,1,125.999996154785,2|2,0:0|0:0,0:0:0:0:
507,194,19509,2,0,P|501:163|495:128,1,62.9999980773926,2|0,0:0|0:0,0:0:0:0:
422,54,19824,2,0,P|361:43|288:32,1,125.999996154785,2|2,0:0|1:2,0:0:0:0:
214,90,20298,6,0,B|156:130|156:130|201:265,1,188.999994232178,2|0,1:2|1:2,0:0:0:0:
193,242,21088,1,2,0:0:0:0:
184,349,21245,1,2,0:0:0:0:
295,277,21403,1,2,0:0:0:0:
304,384,21561,6,0,P|342:375|379:367,2,62.9999980773926,2|2|2,0:0|0:0|0:0,0:0:0:0:
413,266,22035,2,0,P|402:215|383:127,1,125.999996154785,10|10,0:0|1:3,0:0:0:0:
401,50,22509,2,0,P|366:50|332:67,1,62.9999980773926,6|0,1:3|0:0,0:0:0:0:
206,165,22824,6,0,P|245:158|285:150,1,80.9999975280763,4|0,1:2|0:0,0:0:0:0:
121,18,23140,2,0,P|113:57|105:97,1,80.9999975280763,2|0,1:2|0:0,0:0:0:0:
221,244,23456,2,0,P|213:204|205:164,1,80.9999975280763,2|0,1:2|0:0,0:0:0:0:
26,156,23772,2,0,P|18:195|10:235,1,80.9999975280763,2|0,1:2|0:0,0:0:0:0:
161,341,24088,6,0,P|243:360|310:310,1,161.999995056153,2|2,1:2|1:2,0:0:0:0:
393,255,24561,2,0,P|402:294|411:333,1,80.9999975280763,2|0,0:0|1:2,0:0:0:0:
292,221,24877,1,2,0:0:0:0:
457,175,25035,2,0,P|466:135|475:96,1,80.9999975280763,2|0,1:2|0:0,0:0:0:0:
332,37,25351,6,0,P|341:76|350:115,1,80.9999975280763,0|0,1:2|0:0,0:0:0:0:
154,121,25666,2,0,P|193:111|244:99,1,80.9999975280763,2|0,1:2|0:0,0:0:0:0:
167,238,25982,2,0,P|128:228|77:216,1,80.9999975280763,2|0,1:2|0:0,0:0:0:0:
174,90,26298,2,0,P|213:79|252:70,1,80.9999975280763,2|0,1:2|0:0,0:0:0:0:
197,284,26614,6,0,P|125:268|33:245,1,161.999995056153,2|2,1:2|1:2,0:0:0:0:
294,218,27088,2,0,P|302:255|309:297,1,80.9999975280763,2|0,0:0|1:2,0:0:0:0:
234,384,27403,1,2,0:0:0:0:
423,293,27561,2,0,P|415:330|408:372,1,80.9999975280763,2|0,1:2|0:0,0:0:0:0:
429,158,27877,6,0,B|344:175|368:102|266:128,1,161.999995056153,6|0,1:2|1:2,0:0:0:0:
113,162,28351,1,2,0:0:0:0:
193,282,28509,2,0,P|202:242|212:203,1,80.9999975280763,0|0,1:2|0:0,0:0:0:0:
46,89,28824,6,0,B|-4:134|-4:134|35:243,1,161.999995056153,2|0,1:2|1:2,0:0:0:0:
83,350,29298,2,0,P|158:364|255:385,1,161.999995056153,2|0,0:0|0:0,0:0:0:0:
336,262,29772,2,0,P|301:268|242:281,1,80.9999975280763,2|0,1:2|0:0,0:0:0:0:
419,381,30088,2,0,P|425:346|438:287,1,80.9999975280763,2|0,1:2|0:0,0:0:0:0:
300,104,30403,6,0,P|323:189|338:282,1,161.999995056153,2|2,1:2|1:2,0:0:0:0:
245,380,30877,1,2,0:0:0:0:
197,236,31035,2,0,P|157:229|117:220,1,80.9999975280763,0|0,1:2|0:0,0:0:0:0:
0,303,31351,1,2,1:2:0:0:
148,344,31509,1,2,0:0:0:0:
16,202,31666,6,0,P|24:162|32:113,1,90,8|8,0:0|0:0,0:0:0:0:
63,95,31903,1,8,0:0:0:0:
63,95,31982,2,0,P|66:68|70:51,3,45,8|8|8|8,1:2|0:0|0:0|0:0,0:0:0:0:
163,18,32298,2,0,P|168:45|172:62,3,45,8|8|8|8,1:2|0:0|0:0|0:0,0:0:0:0:
242,130,32614,2,0,P|263:135|286:139,3,45,8|8|8|8,1:2|0:0|0:0|0:0,0:0:0:0:
362,18,32930,6,0,P|378:85|405:223,1,180,6|8,1:2|0:0,0:0:0:0:
258,327,33403,2,0,P|265:279|275:222,1,90,2|0,1:2|1:2,0:0:0:0:
420,321,33719,1,2,1:2:0:0:
309,147,33877,6,0,B|249:134|249:134|205:164|205:164|141:150,1,180,10|0,0:0|1:2,0:0:0:0:
12,61,34351,1,2,1:2:0:0:
1,250,34509,2,0,P|45:241|89:235,1,90,8|0,0:0|1:2,0:0:0:0:
282,282,34824,1,0,1:2:0:0:
141,150,34982,1,0,1:2:0:0:
176,322,35140,2,0,P|185:275|196:218,1,90,10|0,0:0|1:2,0:0:0:0:
378,168,35456,6,0,P|386:212|413:350,1,180,2|8,1:2|0:0,0:0:0:0:
176,322,35930,2,0,P|186:272|194:233,1,90,2|0,1:2|1:2,0:0:0:0:
302,89,36245,1,0,1:2:0:0:
49,177,36403,6,0,B|141:205|127:120|218:148,1,180,10|0,0:0|1:2,0:0:0:0:
343,244,36877,1,2,1:2:0:0:
209,322,37035,2,0,P|200:271|189:210,1,90,8|0,0:0|1:2,0:0:0:0:
160,41,37351,1,0,1:2:0:0:
83,231,37509,1,0,1:2:0:0:
235,116,37666,2,0,P|286:107|347:95,1,90,14|0,0:0|1:2,0:0:0:0:
455,318,37982,6,0,B|398:280|357:287|357:287|329:329|296:330,1,180,6|10,1:2|0:0,0:0:0:0:
107,278,38456,2,0,P|153:268|195:261,1,90,2|0,1:2|1:2,0:0:0:0:
366,190,38772,1,0,1:2:0:0:
275,352,38930,1,10,0:0:0:0:
221,150,39088,1,2,1:2:0:0:
387,326,39245,6,0,P|474:312|508:228,1,180,4|10,1:2|0:0,0:0:0:0:
383,101,39719,2,0,P|375:140|365:190,1,90,2|0,1:2|1:2,0:0:0:0:
482,35,40035,1,0,1:2:0:0:
261,108,40193,1,10,0:0:0:0:
476,217,40351,1,2,1:2:0:0:
255,285,40509,6,0,B|159:256|186:343|87:320,1,180,4|8,1:2|0:0,0:0:0:0:
134,133,40982,2,0,P|125:179|116:222,1,90,0|0,1:2|1:2,0:0:0:0:
14,93,41298,1,0,1:2:0:0:
222,15,41456,2,0,P|231:61|240:104,1,90,8|0,0:0|1:2,0:0:0:0:
255,285,41772,5,8,0:0:0:0:
255,285,41850,1,8,0:0:0:0:
255,285,41929,1,2,1:2:0:0:
349,151,42088,2,0,P|353:128|358:106,2,45,10|8|4,3:0|3:0|3:0,0:0:0:0:
425,234,42403,6,0,P|453:243|487:252,2,60,8|0|8,0:0|1:0|3:0,0:0:0:0:
362,352,42719,2,0,P|390:344|419:335,2,60,8|4|4,3:0|3:0|3:0,0:0:0:0:
180,351,43035,6,0,P|160:273|207:206,1,161.999995056153,6|2,1:2|0:0,0:0:0:0:
335,133,43509,1,2,1:2:0:0:
259,290,43666,1,8,0:0:0:0:
176,98,43824,2,0,P|245:115|335:133,1,161.999995056153,2|2,0:0|1:2,0:0:0:0:
368,145,44219,1,0,1:2:0:0:
368,145,44298,1,0,1:2:0:0:
509,248,44456,6,0,P|426:225|360:289,1,161.999995056153,8|0,0:0|1:2,0:0:0:0:
351,378,44930,2,0,P|394:367|430:361,1,80.9999975280763,8|0,0:0|0:0,0:0:0:0:
279,229,45245,2,0,P|236:218|200:212,1,80.9999975280763,2|0,1:2|0:0,0:0:0:0:
22,298,45561,5,2,1:2:0:0:
130,349,45719,2,0,P|115:269|100:189,1,161.999995056153,0|2,1:2|1:2,0:0:0:0:
62,0,46193,1,8,0:0:0:0:
21,89,46351,2,0,B|78:97|78:97|116:80|116:80|178:86,1,161.999995056153,2|2,0:0|1:2,0:0:0:0:
412,102,46824,5,10,0:0:0:0:
224,231,46982,1,0,1:2:0:0:
257,3,47140,1,0,1:2:0:0:
372,201,47298,6,0,P|422:213|476:226,1,90,8|0,0:0|1:2,0:0:0:0:
289,323,47614,2,0,L|244:332,1,45,8|8,0:0|0:0,0:0:0:0:
180,217,47772,2,0,L|225:226,3,45,10|8|8|8,1:2|0:0|0:0|0:0,0:0:0:0:
90,291,48088,2,0,P|79:239|65:174,1,90,6|0,1:2|1:2,0:0:0:0:
304,47,48403,6,0,P|294:91|285:135,1,90,8|0,0:0|1:2,0:0:0:0:
244,331,48719,1,2,1:2:0:0:
445,87,48877,2,0,P|454:131|463:175,1,90,8|0,0:0|1:2,0:0:0:0:
503,367,49193,1,2,1:2:0:0:
271,229,49351,6,0,L|153:244,1,90,10|0,0:0|1:2,0:0:0:0:
433,285,49666,1,2,1:2:0:0:
146,350,49824,2,0,P|101:344|56:339,1,90,8|2,0:0|1:2,0:0:0:0:
337,329,50140,1,0,1:2:0:0:
157,154,50298,2,0,P|112:159|67:164,1,90,10|0,0:0|1:2,0:0:0:0:
249,384,50614,5,14,0:0:0:0:
284,156,50772,1,0,1:2:0:0:
146,350,50930,5,8,0:0:0:0:
102,98,51088,1,0,1:2:0:0:
223,296,51245,5,8,0:0:0:0:
277,65,51403,1,0,1:2:0:0:
90,273,51561,5,8,0:0:0:0:
42,30,51719,1,0,1:2:0:0:
247,181,51877,6,0,P|294:189|344:200,1,90,8|8,0:0|0:0,0:0:0:0:
141,366,52193,2,0,P|94:374|44:385,1,90,8|8,0:0|0:0,0:0:0:0:
145,124,52509,1,8,0:0:0:0:
249,335,52666,1,8,0:0:0:0:
300,64,52824,1,8,0:0:0:0:
415,307,52982,1,8,0:0:0:0:
147,99,54719,6,0,P|115:83|85:76,1,67.5,2|0,0:0|0:0,0:0:0:0:
59,72,55035,6,0,P|68:129|87:228,1,157.5,2|0,0:0|0:0,0:0:0:0:
95,262,55666,6,0,B|217:234|217:234|246:275|301:281,1,198.000006042481,6|10,1:2|0:0,0:0:0:0:
407,165,56140,2,0,P|369:171|295:184,1,99.0000030212403,2|0,0:0|1:2,0:0:0:0:
103,117,56456,1,2,1:2:0:0:
200,332,56614,2,0,P|209:283|217:234,1,99.0000030212403,10|2,0:0|0:0,0:0:0:0:
108,19,56930,5,2,1:2:0:0:
292,166,57088,1,2,1:2:0:0:
74,245,57245,1,10,0:0:0:0:
223,14,57403,1,2,0:0:0:0:
317,260,57561,2,0,P|369:250|430:241,1,99.0000030212403,2|0,1:2|1:2,0:0:0:0:
333,36,57877,1,10,0:0:0:0:
217,234,58035,6,0,P|208:286|197:347,1,99.0000030212403,2|0,0:0|1:2,0:0:0:0:
437,153,58351,2,0,P|428:104|419:55,1,99.0000030212403,2|8,1:2|0:0,0:0:0:0:
198,129,58666,1,2,0:0:0:0:
377,255,58824,2,0,P|426:268|481:282,1,99.0000030212403,2|0,1:2|1:2,0:0:0:0:
311,80,59140,1,10,0:0:0:0:
224,279,59298,6,0,P|233:331|244:392,1,99.0000030212403,2|0,0:0|1:2,0:0:0:0:
198,129,59614,1,2,1:2:0:0:
97,326,59772,2,0,P|45:317|-16:306,1,99.0000030212403,8|0,0:0|0:0,0:0:0:0:
93,147,60088,1,0,1:2:0:0:
187,289,60245,1,0,1:2:0:0:
0,201,60403,2,0,P|3:149|14:88,1,99.0000030212403,10|0,0:0|0:0,0:0:0:0:
226,12,60719,6,0,P|234:60|243:109,1,99.0000030212403,6|0,1:2|1:2,0:0:0:0:
451,255,61035,2,0,P|459:206|468:157,1,99.0000030212403,10|0,0:0|0:0,0:0:0:0:
255,328,61351,2,0,P|303:336|352:345,1,99.0000030212403,2|0,1:2|1:2,0:0:0:0:
243,109,61666,2,0,P|194:117|145:126,1,99.0000030212403,10|0,0:0|0:0,0:0:0:0:
14,296,61982,5,0,1:2:0:0:
218,222,62140,1,0,1:2:0:0:
29,110,62298,1,10,0:0:0:0:
127,310,62456,2,0,P|174:318|224:327,1,99.0000030212403,2|0,0:0|1:2,0:0:0:0:
243,109,62772,2,0,P|196:117|146:126,1,99.0000030212403,2|8,1:2|0:0,0:0:0:0:
332,310,63088,1,2,0:0:0:0:
373,33,63245,5,6,1:2:0:0:
256,239,63403,1,0,1:2:0:0:
474,89,63561,2,0,P|464:130|446:218,1,99.0000030212403,8|0,0:0|1:2,0:0:0:0:
413,365,63877,1,0,1:2:0:0:
234,142,64035,6,0,P|244:183|262:271,1,99.0000030212403,8|2,0:0|1:2,0:0:0:0:
102,61,64351,1,2,1:2:0:0:
348,141,64509,1,8,0:0:0:0:
128,278,64666,1,0,1:2:0:0:
202,24,64824,1,0,1:2:0:0:
366,234,64982,6,0,P|411:244|481:260,1,99.0000030212403,8|0,0:0|1:2,0:0:0:0:
308,38,65298,1,8,0:0:0:0:
144,191,65456,1,10,0:0:0:0:
114,171,65534,1,8,0:0:0:0:
93,141,65613,1,8,0:0:0:0:
84,105,65692,1,8,0:0:0:0:
90,66,65772,6,0,B|202:41|167:130|285:108,1,198.000006042481,6|10,1:2|0:0,0:0:0:0:
460,38,66245,2,0,P|451:84|439:134,1,99.0000030212403,2|0,0:0|1:2,0:0:0:0:
311,314,66561,2,0,P|300:265|290:217,1,99.0000030212403,2|8,1:2|0:0,0:0:0:0:
250,19,66877,1,2,0:0:0:0:
179,212,67035,1,0,1:2:0:0:
255,6,67193,1,0,1:2:0:0:
96,132,67351,2,0,P|51:119|-1:109,1,99.0000030212403,8|0,0:0|0:0,0:0:0:0:
102,314,67666,1,0,1:2:0:0:
198,122,67824,1,0,1:2:0:0:
285,289,67982,2,0,P|330:276|382:266,1,99.0000030212403,10|0,0:0|0:0,0:0:0:0:
214,24,68298,6,0,P|207:66|194:139,1,99.0000030212403,2|0,1:2|1:2,0:0:0:0:
427,63,68614,2,0,P|394:35|337:-11,1,99.0000030212403,10|0,0:0|0:0,0:0:0:0:
286,227,68930,2,0,P|325:212|395:186,1,99.0000030212403,2|0,1:2|1:2,0:0:0:0:
55,173,69245,5,10,0:0:0:0:
307,100,69403,1,2,1:2:0:0:
215,329,69561,5,8,0:0:0:0:
110,94,69719,1,2,1:2:0:0:
342,212,69877,1,10,0:0:0:0:
95,321,70035,2,0,P|104:288|121:262,1,49.5000015106202,2|0,1:2|1:2,0:0:0:0:
197,164,70193,1,10,0:0:0:0:
213,138,70271,1,8,0:0:0:0:
221,109,70350,1,2,1:2:0:0:
220,79,70429,1,0,1:2:0:0:
210,51,70509,2,0,P|183:37|149:25,3,49.5000015106202,10|8|4|4,3:0|3:0|3:0|3:0,0:0:0:0:
360,4,70824,6,0,P|367:52|377:111,1,99.0000030212403,6|0,1:2|0:0,0:0:0:0:
420,321,71140,5,8,0:0:0:0:
490,113,71298,1,2,1:2:0:0:
407,341,71456,5,8,0:0:0:0:
375,101,71614,1,0,1:2:0:0:
242,314,71772,2,0,P|190:319|126:328,1,99.0000030212403,10|0,0:0|1:2,0:0:0:0:
115,326,72009,1,0,1:2:0:0:
115,326,72088,5,8,0:0:0:0:
331,232,72245,1,2,1:2:0:0:
55,168,72403,5,8,0:0:0:0:
310,226,72561,1,0,1:2:0:0:
33,162,72719,5,8,0:0:0:0:
304,94,72877,1,0,1:2:0:0:
67,7,73035,5,10,0:0:0:0:
185,240,73193,1,0,1:2:0:0:
284,0,73351,6,0,P|330:8|405:25,1,99.0000030212403,14|0,0:0|1:2,0:0:0:0:
283,279,73666,1,0,1:2:0:0:
127,47,73824,2,0,P|81:55|6:72,1,99.0000030212403,14|0,0:0|1:2,0:0:0:0:
201,339,74140,1,0,1:2:0:0:
411,117,74298,6,0,P|400:167|387:233,1,99.0000030212403,14|0,0:0|1:2,0:0:0:0:
91,299,74614,1,0,1:2:0:0:
265,44,74772,2,0,P|276:94|289:160,1,99.0000030212403,14|0,0:0|1:2,0:0:0:0:
335,358,75088,1,0,1:2:0:0:
92,182,75245,5,10,0:0:0:0:
388,117,75403,1,10,0:0:0:0:
388,117,75877,5,6,1:2:0:0:
317,336,76035,1,2,1:2:0:0:
208,139,76193,1,10,0:0:0:0:
441,240,76351,6,0,B|378:254|378:254|339:230|339:230|271:246,1,180,2|2,1:2|1:2,0:0:0:0:
56,289,76824,1,10,0:0:0:0:
157,384,76982,2,0,P|167:329|180:271,1,90,2|0,1:2|0:0,0:0:0:0:
258,121,77298,1,2,1:2:0:0:
97,184,77456,1,10,0:0:0:0:
271,245,77614,2,0,P|326:235|384:222,1,90,2|0,1:2|1:2,0:0:0:0:
447,104,77930,1,2,1:2:0:0:
275,32,78088,2,0,P|265:87|252:145,1,90,10|2,0:0|0:0,0:0:0:0:
212,317,78403,5,2,1:2:0:0:
359,227,78561,1,2,1:2:0:0:
153,147,78719,1,10,0:0:0:0:
331,328,78877,2,0,P|403:326|460:224,1,180,2|2,1:2|1:2,0:0:0:0:
418,40,79351,1,10,0:0:0:0:
252,188,79509,6,0,P|245:143|235:99,1,90,2|0,1:2|0:0,0:0:0:0:
49,40,79824,1,2,1:2:0:0:
271,0,79982,1,10,0:0:0:0:
141,169,80140,2,0,P|96:176|52:186,1,90,2|0,1:2|1:2,0:0:0:0:
246,308,80456,1,2,1:2:0:0:
246,308,80535,1,0,1:2:0:0:
246,308,80614,2,0,P|290:315|334:325,1,90,14|0,0:0|0:0,0:0:0:0:
509,215,80930,5,6,1:2:0:0:
305,114,81088,1,2,1:2:0:0:
450,310,81245,1,10,0:0:0:0:
512,99,81403,2,0,P|450:30|350:39,1,180,2|2,1:2|1:2,0:0:0:0:
180,78,81877,1,10,0:0:0:0:
304,223,82035,2,0,P|351:212|408:202,1,90,2|0,1:2|0:0,0:0:0:0:
272,25,82351,5,2,1:2:0:0:
194,211,82509,1,10,0:0:0:0:
363,106,82666,2,0,P|318:114|274:124,1,90,2|0,1:2|1:2,0:0:0:0:
91,186,82982,1,2,1:2:0:0:
269,290,83140,1,10,0:0:0:0:
108,358,83298,1,10,0:0:0:0:
108,358,83377,1,8,0:0:0:0:
108,358,83456,6,0,P|55:346|20:338,1,90,6|2,1:2|1:2,0:0:0:0:
206,198,83772,2,0,P|258:186|294:178,1,90,8|2,0:0|1:2,0:0:0:0:
480,234,84088,1,2,0:0:0:0:
269,290,84245,1,2,1:2:0:0:
376,95,84403,1,10,0:0:0:0:
434,320,84561,1,2,1:2:0:0:
241,162,84719,6,0,P|193:149|126:137,1,90,2|2,1:2|1:2,0:0:0:0:
81,347,85035,2,0,P|129:334|196:322,1,90,10|2,0:0|1:2,0:0:0:0:
345,250,85351,1,2,1:2:0:0:
113,228,85509,1,2,1:2:0:0:
284,384,85666,1,10,0:0:0:0:
282,150,85824,1,2,1:2:0:0:
282,150,85903,1,0,1:2:0:0:
282,150,85982,5,14,0:0:0:0:
155,363,86140,1,2,1:2:0:0:
101,83,86298,5,10,0:0:0:0:
233,300,86456,1,2,1:2:0:0:
257,23,86614,5,10,0:0:0:0:
113,271,86772,1,2,1:2:0:0:
34,11,86930,5,10,0:0:0:0:
193,214,87088,1,2,1:2:0:0:
272,13,87245,5,10,0:0:0:0:
314,0,87323,1,8,0:0:0:0:
358,7,87402,1,2,1:2:0:0:
395,32,87481,1,0,1:2:0:0:
418,71,87561,2,0,L|409:115,3,45,10|8|6|4,3:0|3:0|3:0|3:0,0:0:0:0:
479,200,87877,5,10,0:0:0:0:
370,348,88035,2,0,P|362:314|356:278,1,45,10|8,0:0|0:0,0:0:0:0:
298,149,88193,2,0,P|293:171|288:192,1,45,10|8,0:0|0:0,0:0:0:0:
186,279,88351,2,0,P|134:265|67:251,1,90,10|0,1:2|0:0,0:0:0:0:
