osu file format v14

[General]
AudioFilename: audio.mp3
AudioLeadIn: 0
PreviewTime: 54640
Countdown: 0
SampleSet: Soft
StackLeniency: 0.7
Mode: 0
LetterboxInBreaks: 0
WidescreenStoryboard: 1

[Editor]
DistanceSpacing: 1.4
BeatDivisor: 4
GridSize: 4
TimelineZoom: 1

[Metadata]
Title:Star light, Star bright (TV Size)
TitleUnicode:Star light, Star bright (TV Size)
Artist:nano
ArtistUnicode:ナノ
Creator:A r M i N
Version:Insane
Source:CONCEPTION
Tags:コンセプション japanese rock j-rock op opening ore no kodomo o undekure! Armin A_r_M_i_N browiec Shirahane Suou Roda Totsuki reisevia PikAqours
BeatmapID:2801090
BeatmapSetID:1350684

[Difficulty]
HPDrainRate:5.3
CircleSize:3.2
OverallDifficulty:8
ApproachRate:9
SliderMultiplier:1.6
SliderTickRate:1

[Events]
//Background and Video events
0,0,"70786735.jpg",0,0
//Break Periods
//Storyboard Layer 0 (Background)
//Storyboard Layer 1 (Fail)
//Storyboard Layer 2 (Pass)
//Storyboard Layer 3 (Foreground)
//Storyboard Layer 4 (Overlay)
//Storyboard Sound Samples

[TimingPoints]
88,315.789473684211,4,2,1,70,1,0
5061,-100,4,2,1,5,0,0
5140,-100,4,2,1,70,0,0
12719,-125,4,2,1,60,0,0
17693,-125,4,2,1,5,0,0
17772,-125,4,2,1,60,0,0
22272,-125,4,2,1,60,0,0
22351,-125,4,2,1,60,0,0
22745,-125,4,2,1,5,0,0
22824,-111.111111111111,4,2,1,65,0,0
31666,-100,4,2,1,70,0,0
32930,-100,4,2,1,70,0,0
43035,-111.111111111111,4,2,1,65,0,0
46824,-100,4,2,1,70,0,0
48088,-100,4,2,1,70,0,0
50614,-100,4,2,1,75,0,0
51877,-100,4,2,1,80,0,0
53140,-100,4,2,1,65,0,0
54719,-125,4,2,1,65,0,0
54956,-125,4,2,1,65,0,0
55035,-125,4,2,1,65,0,0
55588,-125,4,2,1,65,0,0
55666,-90.9090909090909,4,2,1,80,0,1
70193,-90.9090909090909,4,2,1,80,0,0
70824,-90.9090909090909,4,2,1,85,0,1
75877,-100,4,2,1,70,0,0
80851,-100,4,2,1,5,0,0
80930,-100,4,2,1,70,0,0

[Colours]
Combo1 : 79,70,140
Combo2 : 107,33,43
Combo3 : 123,145,213
Combo4 : 112,88,101

[HitObjects]
368,287,88,5,6,1:2:0:0:
415,158,245,1,2,1:2:0:0:
468,310,403,1,10,0:0:0:0:
320,196,561,2,0,P|247:182|179:230,1,160,2|2,1:2|1:2,0:0:0:0:
131,374,1035,1,10,0:0:0:0:
34,285,1193,6,0,B|48:212|48:212|45:206|45:206|61:128,1,160,2|2,1:2|1:2,0:0:0:0:
152,18,1666,1,10,0:0:0:0:
216,163,1824,2,0,B|298:145|287:207|370:190,1,160,2|2,1:2|1:2,0:0:0:0:
500,140,2298,2,0,P|491:179|486:218,1,80,10|2,0:0|0:0,0:0:0:0:
321,321,2614,5,2,1:2:0:0:
368,190,2772,1,2,1:2:0:0:
419,350,2930,1,10,0:0:0:0:
274,230,3088,2,0,B|260:157|260:157|263:151|263:151|247:73,1,160,2|2,1:2|1:2,0:0:0:0:
143,0,3561,1,10,0:0:0:0:
86,148,3719,6,0,B|66:176|38:189|38:189|65:289,1,160,2|2,1:2|1:2,0:0:0:0:
183,384,4192,1,10,0:0:0:0:
235,263,4351,2,0,P|196:259|165:283,1,80,2|0,1:2|1:2,0:0:0:0:
333,345,4666,1,2,1:2:0:0:
333,345,4745,1,0,1:2:0:0:
333,345,4824,2,0,P|339:281|349:215,1,120,14|0,0:0|0:0,0:0:0:0:
379,205,5140,6,0,P|372:167|365:124,1,80,6|2,1:2|1:2,0:0:0:0:
270,27,5456,1,10,0:0:0:0:
178,165,5614,2,0,B|100:152|100:152|92:156|92:156|16:145,1,160,2|2,1:2|1:2,0:0:0:0:
157,47,6088,1,10,0:0:0:0:
273,124,6245,6,0,P|283:202|225:259,1,160,2|2,1:2|1:2,0:0:0:0:
134,122,6719,1,10,0:0:0:0:
257,22,6877,2,0,P|335:38|414:52,1,160,2|2,1:2|1:2,0:0:0:0:
500,168,7351,2,0,P|458:178|407:192,1,80,10|10,0:0|0:0,0:0:0:0:
393,213,7588,1,8,0:0:0:0:
393,213,7666,6,0,P|386:255|412:289,1,80,6|2,1:2|1:2,0:0:0:0:
301,362,7982,2,0,P|255:351|200:345,1,80,8|2,0:0|1:2,0:0:0:0:
151,228,8298,2,0,P|186:209|225:214,1,80,2|2,0:0|1:2,0:0:0:0:
106,337,8614,2,0,P|69:315|54:279,1,80,10|2,0:0|1:2,0:0:0:0:
136,149,8930,6,0,P|142:188|150:227,1,80,2|2,1:2|1:2,0:0:0:0:
61,81,9245,2,0,P|87:52|126:46,1,80,10|2,0:0|1:2,0:0:0:0:
299,78,9561,2,0,P|258:84|220:90,1,80,2|2,1:2|1:2,0:0:0:0:
365,0,9877,2,0,P|396:28|403:69,1,80,10|2,0:0|1:2,0:0:0:0:
356,210,10193,5,6,1:2:0:0:
299,78,10351,1,2,1:2:0:0:
463,180,10509,2,0,P|457:219|450:259,1,80,10|2,0:0|1:2,0:0:0:0:
291,353,10824,1,2,1:2:0:0:
356,210,10982,1,2,1:2:0:0:
464,361,11140,2,0,P|425:364|392:343,1,80,10|2,0:0|1:2,0:0:0:0:
249,208,11456,6,0,P|204:218|158:228,1,80,10|2,0:0|1:2,0:0:0:0:
44,366,11772,2,0,P|85:376|126:386,1,80,10|2,0:0|1:2,0:0:0:0:
33,228,12088,2,0,P|26:185|48:145,1,80,10|8,0:0|3:0,0:0:0:0:
81,134,12324,1,8,3:0:0:0:
81,134,12403,2,0,P|108:127|132:120,3,40,8|8|4|4,3:0|3:0|3:0|3:0,0:0:0:0:
159,115,12719,5,4,1:2:0:0:
505,68,13035,6,0,L|491:130,1,64,2|0,0:0|0:0,0:0:0:0:
419,204,13351,2,0,L|432:266,1,64,2|0,0:0|0:0,0:0:0:0:
381,355,13666,2,0,P|353:369|320:371,1,64,2|0,0:0|0:0,0:0:0:0:
253,293,13982,2,0,B|264:235|264:235|261:231|261:231|274:168,1,128,2|2,0:0|0:0,0:0:0:0:
235,72,14456,2,0,P|199:43|118:53,1,128,2|2,0:0|0:0,0:0:0:0:
63,135,14930,2,0,L|76:197,1,64,2|0,0:0|1:2,0:0:0:0:
99,297,15245,1,0,1:2:0:0:
334,365,15561,6,0,P|303:354|272:346,1,64,2|0,0:0|0:0,0:0:0:0:
223,256,15877,2,0,P|254:248|284:237,1,64,2|0,0:0|0:0,0:0:0:0:
345,155,16193,2,0,L|355:92,1,64,2|0,0:0|0:0,0:0:0:0:
447,44,16509,2,0,B|460:107|460:107|457:111|457:111|468:169,1,128,2|2,0:0|0:0,0:0:0:0:
406,250,16982,2,0,P|353:215|291:225,1,128,2|2,0:0|0:0,0:0:0:0:
186,308,17456,2,0,P|179:261|172:209,1,96,6|0,0:0|0:0,0:0:0:0:
167,179,17772,1,4,1:2:0:0:
17,4,18088,6,0,P|54:14|86:15,1,64,2|0,0:0|0:0,0:0:0:0:
161,77,18403,2,0,P|198:67|230:66,1,64,2|0,0:0|0:0,0:0:0:0:
297,137,18719,2,0,L|286:199,1,64,2|0,0:0|0:0,0:0:0:0:
345,284,19035,2,0,P|406:293|459:259,1,128,2|2,0:0|0:0,0:0:0:0:
502,166,19509,2,0,L|491:103,1,64,2|0,0:0|0:0,0:0:0:0:
413,36,19824,2,0,B|347:22|356:71|291:57,1,128,2|2,0:0|1:2,0:0:0:0:
168,11,20298,6,0,B|143:44|109:69|109:69|149:170,1,192,2|0,1:2|1:2,0:0:0:0:
314,294,21088,2,0,L|303:356,2,64,2|2|2,0:0|0:0|0:0,0:0:0:0:
267,193,21561,5,2,0:0:0:0:
202,275,21719,1,2,0:0:0:0:
280,176,21877,1,2,0:0:0:0:
188,291,22035,2,0,P|124:281|61:270,1,128,10|10,0:0|1:3,0:0:0:0:
0,188,22509,2,0,P|33:162|105:172,1,96,6|0,1:3|0:0,0:0:0:0:
115,183,22824,6,0,L|127:112,1,71.9999978027344,4|0,1:2|0:0,0:0:0:0:
230,58,23140,2,0,L|242:128,1,71.9999978027344,2|0,1:2|0:0,0:0:0:0:
328,206,23456,2,0,P|363:206|394:188,1,71.9999978027344,2|0,1:2|0:0,0:0:0:0:
451,86,23772,2,0,L|380:73,1,71.9999978027344,2|0,1:2|0:0,0:0:0:0:
509,185,24088,6,0,P|497:246|487:330,1,143.999995605469,2|2,1:2|1:2,0:0:0:0:
384,379,24561,2,0,B|311:394|322:338|246:354,1,143.999995605469,2|2,0:0|0:0,0:0:0:0:
163,273,25035,2,0,P|196:213|265:215,1,143.999995605469,2|0,1:2|1:2,0:0:0:0:
471,111,25666,6,0,L|400:98,1,71.9999978027344,2|0,1:2|0:0,0:0:0:0:
325,9,25982,2,0,L|254:22,1,71.9999978027344,2|0,1:2|0:0,0:0:0:0:
151,76,26298,2,0,P|134:44|137:8,1,71.9999978027344,2|0,1:2|0:0,0:0:0:0:
248,138,26614,6,0,B|263:162|287:180|287:180|264:263,1,143.999995605469,2|2,1:2|1:2,0:0:0:0:
211,366,27088,2,0,P|281:351|352:338,1,143.999995605469,2|2,0:0|0:0,0:0:0:0:
465,358,27561,2,0,P|478:325|473:289,1,71.9999978027344,2|0,1:2|0:0,0:0:0:0:
388,158,27877,6,0,B|321:146|321:146|318:149|318:149|248:137,1,143.999995605469,6|0,1:2|1:2,0:0:0:0:
153,69,28351,2,0,B|141:100|113:118|113:118|144:190,1,143.999995605469,2|0,0:0|0:0,0:0:0:0:
124,304,28824,2,0,P|71:311|45:230,1,143.999995605469,2|0,1:2|1:2,0:0:0:0:
145,191,29298,2,0,L|216:204,1,71.9999978027344,2|0,0:0|1:2,0:0:0:0:
436,272,29772,6,0,P|454:302|457:337,1,71.9999978027344,2|0,1:2|0:0,0:0:0:0:
349,378,30088,2,0,P|330:347|327:312,1,71.9999978027344,2|0,1:2|0:0,0:0:0:0:
348,198,30403,6,0,L|322:56,1,143.999995605469,2|2,1:2|1:2,0:0:0:0:
221,0,30877,2,0,L|195:141,1,143.999995605469,2|0,0:0|0:0,0:0:0:0:
93,196,31351,2,0,L|80:125,1,71.9999978027344,2|2,1:2|0:0,0:0:0:0:
190,258,31666,6,0,L|267:271,1,80,8|8,0:0|0:0,0:0:0:0:
296,303,31903,1,8,0:0:0:0:
296,303,31982,2,0,L|334:296,3,40,8|8|8|8,1:2|0:0|0:0|0:0,0:0:0:0:
368,321,32298,2,0,L|407:328,3,40,8|8|8|8,1:2|0:0|0:0|0:0,0:0:0:0:
437,319,32614,1,10,1:2:0:0:
457,297,32692,1,8,0:0:0:0:
466,268,32771,1,8,0:0:0:0:
464,239,32850,1,8,0:0:0:0:
450,212,32930,6,0,B|375:199|375:199|373:194|373:194|295:180,1,160,6|8,1:2|0:0,0:0:0:0:
218,78,33403,2,0,P|255:69|296:58,1,80,2|0,1:2|1:2,0:0:0:0:
193,179,33719,1,2,1:2:0:0:
99,48,33877,6,0,P|91:127|82:207,1,160,10|0,0:0|1:2,0:0:0:0:
159,310,34351,1,2,1:2:0:0:
236,208,34509,2,0,P|273:199|314:188,1,80,8|0,0:0|1:2,0:0:0:0:
383,80,34824,2,0,P|346:71|305:60,1,80,0|0,1:2|1:2,0:0:0:0:
423,184,35140,2,0,P|416:223|411:263,1,80,10|0,0:0|1:2,0:0:0:0:
302,360,35456,6,0,P|251:318|155:332,1,160,2|8,1:2|0:0,0:0:0:0:
51,260,35930,2,0,P|46:299|41:339,1,80,2|0,1:2|1:2,0:0:0:0:
151,219,36245,1,0,1:2:0:0:
1,124,36403,6,0,P|77:136|141:91,1,160,10|0,0:0|1:2,0:0:0:0:
252,156,36877,1,2,1:2:0:0:
325,50,37035,2,0,P|363:60|402:68,1,80,8|0,0:0|1:2,0:0:0:0:
474,175,37351,2,0,P|434:183|396:193,1,80,0|0,1:2|1:2,0:0:0:0:
324,327,37666,2,0,P|357:348|396:345,1,80,14|0,0:0|1:2,0:0:0:0:
297,225,37982,6,0,B|213:207|225:269|144:252,1,160,6|10,1:2|0:0,0:0:0:0:
30,192,38456,2,0,B|44:114|44:114|49:112|49:112|62:37,1,160,2|0,1:2|1:2,0:0:0:0:
185,0,38930,2,0,P|194:43|204:85,1,80,10|2,0:0|1:2,0:0:0:0:
337,208,39245,6,0,P|362:137|304:89,1,160,4|10,1:2|0:0,0:0:0:0:
211,179,39719,2,0,P|132:195|54:212,1,160,2|0,1:2|1:2,0:0:0:0:
3,331,40193,2,0,P|43:337|90:345,1,80,10|2,0:0|1:2,0:0:0:0:
260,376,40509,6,0,B|279:348|304:326|304:326|271:238,1,160,4|8,1:2|0:0,0:0:0:0:
304,115,40982,2,0,P|374:89|442:134,1,160,0|0,1:2|1:2,0:0:0:0:
508,242,41456,2,0,P|468:248|429:257,1,80,8|0,0:0|1:2,0:0:0:0:
317,364,41772,5,8,0:0:0:0:
297,359,41851,1,8,0:0:0:0:
278,354,41929,1,2,1:2:0:0:
197,253,42088,2,0,L|188:211,2,40,10|8|4,3:0|3:0|3:0,0:0:0:0:
54,309,42403,6,0,P|32:324|6:330,2,53.3333333333333,8|0|8,0:0|1:0|3:0,0:0:0:0:
97,232,42719,2,0,P|95:205|103:180,2,53.3333333333333,8|4|4,3:0|3:0|3:0,0:0:0:0:
142,308,43035,6,0,B|212:320|212:320|214:325|214:325|281:336,1,143.999995605469,6|2,1:2|0:0,0:0:0:0:
368,285,43509,2,0,P|383:253|380:217,1,71.9999978027344,2|8,1:2|0:0,0:0:0:0:
325,132,43824,2,0,P|255:149|184:164,1,143.999995605469,2|2,0:0|1:2,0:0:0:0:
154,178,44219,1,0,1:2:0:0:
154,178,44298,5,0,1:2:0:0:
66,117,44456,2,0,B|45:140|23:154|23:154|57:243,1,143.999995605469,8|0,0:0|1:2,0:0:0:0:
143,283,44930,2,0,P|216:268|272:313,1,143.999995605469,8|2,0:0|1:2,0:0:0:0:
512,369,45561,6,0,B|501:302|501:302|496:300|496:300|484:230,1,143.999995605469,2|2,1:2|0:0,0:0:0:0:
403,168,46035,2,0,P|409:131|415:93,1,71.9999978027344,2|8,1:2|0:0,0:0:0:0:
335,33,46351,2,0,P|299:31|266:45,1,71.9999978027344,2|0,0:0|0:0,0:0:0:0:
217,133,46666,1,2,1:2:0:0:
125,68,46824,6,0,P|132:25|136:-12,2,80,10|0|0,0:0|1:2|1:2,0:0:0:0:
68,165,47298,2,0,P|29:172|-1:197,2,80,8|0|8,0:0|1:2|0:0,0:0:0:0:
158,231,47772,1,10,1:2:0:0:
163,260,47850,1,8,0:0:0:0:
168,290,47929,1,8,0:0:0:0:
173,319,48008,1,8,0:0:0:0:
178,349,48088,6,0,P|217:353|252:335,1,80,6|0,1:2|1:2,0:0:0:0:
349,249,48403,2,0,P|388:256|427:264,2,80,8|0|2,0:0|1:2|1:2,0:0:0:0:
234,98,48877,1,8,0:0:0:0:
387,153,49035,1,0,1:2:0:0:
247,246,49193,1,2,1:2:0:0:
331,67,49351,6,0,P|324:26|319:-12,2,80,10|0|2,0:0|1:2|1:2,0:0:0:0:
349,249,49824,1,8,0:0:0:0:
234,98,49982,1,2,1:2:0:0:
387,153,50140,1,0,1:2:0:0:
247,246,50298,2,0,P|207:238|168:230,1,80,10|0,0:0|1:2,0:0:0:0:
48,341,50614,6,0,P|88:343|121:321,1,80,14|0,0:0|1:2,0:0:0:0:
90,164,50930,2,0,P|67:195|66:235,1,80,8|0,0:0|1:2,0:0:0:0:
186,128,51245,1,8,0:0:0:0:
37,77,51403,1,0,1:2:0:0:
168,230,51561,2,0,P|205:221|247:210,1,80,8|0,0:0|1:2,0:0:0:0:
412,214,51877,5,8,0:0:0:0:
281,106,52035,1,8,0:0:0:0:
427,41,52193,2,0,P|419:79|409:118,1,80,8|8,0:0|0:0,0:0:0:0:
337,276,52509,5,8,0:0:0:0:
281,106,52666,1,8,0:0:0:0:
412,214,52824,1,8,0:0:0:0:
244,300,52982,1,8,0:0:0:0:
282,23,54719,6,0,P|254:64|263:113,1,96,2|0,0:0|0:0,0:0:0:0:
282,130,55035,2,0,P|313:123|348:115,1,64,2|0,0:0|0:0,0:0:0:0:
444,139,55351,2,0,P|477:172|482:219,1,96,2|0,0:0|0:0,0:0:0:0:
466,252,55666,6,0,B|376:227|390:305|300:281,1,176.000005371094,6|10,1:2|0:0,0:0:0:0:
155,204,56140,2,0,P|161:247|167:291,1,88.000002685547,2|0,0:0|1:2,0:0:0:0:
266,166,56456,1,2,1:2:0:0:
88,128,56614,2,0,P|55:163|55:207,1,88.000002685547,10|2,0:0|0:0,0:0:0:0:
187,98,56930,5,2,1:2:0:0:
49,33,57088,1,2,1:2:0:0:
155,204,57245,2,0,P|199:194|244:184,1,88.000002685547,10|2,0:0|0:0,0:0:0:0:
348,47,57561,2,0,P|305:37|262:28,1,88.000002685547,2|0,1:2|1:2,0:0:0:0:
356,165,57877,1,10,0:0:0:0:
478,78,58035,6,0,P|488:121|497:164,1,88.000002685547,2|0,0:2|1:2,0:0:0:0:
436,321,58351,2,0,B|346:345|360:267|270:292,1,176.000005371094,2|2,1:2|0:0,0:0:0:0:
200,183,58824,2,0,P|218:96|235:10,1,176.000005371094,2|10,1:2|0:0,0:0:0:0:
76,48,59298,6,0,P|85:91|94:133,1,88.000002685547,2|0,0:0|1:2,0:0:0:0:
19,247,59614,1,2,1:2:0:0:
171,318,59772,2,0,P|205:292|248:295,1,88.000002685547,8|0,0:0|0:0,0:0:0:0:
370,360,60088,2,0,P|379:315|388:274,1,88.000002685547,0|0,1:2|1:2,0:0:0:0:
503,181,60403,2,0,P|493:128|476:47,1,132.00000402832,10|0,0:0|0:0,0:0:0:0:
468,16,60719,6,0,P|438:-1|379:6,1,88.000002685547,6|0,1:2|1:2,0:0:0:0:
278,127,61035,2,0,P|271:170|263:213,1,88.000002685547,10|0,0:0|0:0,0:0:0:0:
96,300,61351,1,2,1:2:0:0:
180,155,61509,1,0,1:2:0:0:
282,320,61666,2,0,P|240:308|197:298,1,88.000002685547,10|0,0:0|0:0,0:0:0:0:
359,251,61982,6,0,P|388:293|378:340,1,88.000002685547,0|0,1:2|1:2,0:0:0:0:
263,213,62298,1,10,0:0:0:0:
382,151,62456,2,0,P|430:161|479:171,1,88.000002685547,2|0,0:0|1:2,0:0:0:0:
339,53,62772,2,0,P|290:63|241:73,1,88.000002685547,2|8,1:2|0:0,0:0:0:0:
61,6,63088,1,2,0:0:0:0:
132,161,63245,6,0,P|138:117|145:74,1,88.000002685547,6|0,1:2|1:2,0:0:0:0:
247,197,63561,2,0,P|282:222|325:222,2,88.000002685547,8|0|0,0:0|1:2|1:2,0:0:0:0:
404,70,64035,1,8,0:0:0:0:
435,246,64193,1,2,1:2:0:0:
315,120,64351,1,2,1:2:0:0:
512,51,64509,6,0,P|502:93|491:136,2,88.000002685547,8|0|0,0:0|1:2|1:2,0:0:0:0:
319,17,64982,2,0,P|275:21|241:48,1,88.000002685547,8|0,0:0|1:2,0:0:0:0:
197,178,65298,1,8,0:0:0:0:
197,178,65377,1,8,0:0:0:0:
197,178,65456,2,0,P|203:198|209:220,3,44.0000013427735,10|8|8|8,0:0|0:0|0:0|0:0,0:0:0:0:
220,256,65772,6,0,P|141:285|74:234,1,176.000005371094,6|10,1:2|0:0,0:0:0:0:
135,82,66245,2,0,P|178:76|222:68,1,88.000002685547,2|0,0:0|1:2,0:0:0:0:
355,169,66561,2,0,P|314:178|279:154,1,88.000002685547,2|8,1:2|0:0,0:0:0:0:
388,71,66877,1,2,0:0:0:0:
458,204,67035,6,0,P|452:248|445:292,1,88.000002685547,0|0,1:2|1:2,0:0:0:0:
294,361,67351,2,0,P|287:317|281:273,1,88.000002685547,8|0,0:0|0:0,0:0:0:0:
121,194,67666,1,0,1:2:0:0:
196,331,67824,1,0,1:2:0:0:
304,174,67982,2,0,P|261:169|223:190,1,88.000002685547,10|0,0:0|0:0,0:0:0:0:
24,223,68298,6,0,P|29:180|36:136,1,88.000002685547,2|0,1:2|1:2,0:0:0:0:
163,15,68614,2,0,P|167:58|175:102,1,88.000002685547,10|0,0:0|0:0,0:0:0:0:
342,72,68930,2,0,P|311:41|269:43,1,88.000002685547,2|0,1:2|1:2,0:0:0:0:
370,176,69245,1,10,0:0:0:0:
444,29,69403,1,2,1:2:0:0:
272,146,69561,6,0,P|267:189|259:233,1,88.000002685547,8|2,0:0|1:2,0:0:0:0:
110,326,69877,2,0,P|102:282|97:238,1,88.000002685547,10|2,0:0|1:2,0:0:0:0:
71,211,70114,1,0,1:2:0:0:
71,211,70193,2,0,P|78:190|83:168,3,44.0000013427735,10|8|2|0,0:0|0:0|1:2|1:2,0:0:0:0:
116,145,70509,2,0,P|137:138|159:133,3,44.0000013427735,10|8|4|4,3:0|3:0|3:0|3:0,0:0:0:0:
188,154,70824,6,0,B|278:125|263:211|353:183,1,176.000005371094,6|8,1:2|0:0,0:0:0:0:
485,149,71298,2,0,P|473:191|466:234,1,88.000002685547,2|8,1:2|0:0,0:0:0:0:
336,82,71614,1,0,1:2:0:0:
484,46,71772,1,10,0:0:0:0:
360,191,71930,1,0,1:2:0:0:
360,191,72009,1,0,1:2:0:0:
360,191,72088,6,0,P|317:195|267:168,1,88.000002685547,8|2,0:0|1:2,0:0:0:0:
192,61,72403,1,8,0:0:0:0:
141,203,72561,1,0,1:2:0:0:
285,84,72719,1,8,0:0:0:0:
102,24,72877,1,0,1:2:0:0:
239,180,73035,2,0,P|248:223|258:267,1,88.000002685547,10|0,0:0|1:2,0:0:0:0:
452,332,73351,5,14,0:0:0:0:
338,202,73509,1,0,1:2:0:0:
282,365,73666,1,0,1:2:0:0:
435,233,73824,2,0,P|444:186|453:137,2,88.000002685547,14|0|0,0:0|1:2|1:2,0:0:0:0:
239,295,74298,5,14,0:0:0:0:
352,173,74456,1,0,1:2:0:0:
401,332,74614,1,0,1:2:0:0:
251,192,74772,2,0,P|207:183|164:176,2,88.000002685547,14|0|0,0:0|1:2|1:2,0:0:0:0:
148,72,75245,5,10,0:0:0:0:
96,251,75403,1,10,0:0:0:0:
400,77,75877,5,6,1:2:0:0:
340,206,76035,1,2,1:2:0:0:
494,163,76193,1,10,0:0:0:0:
303,109,76351,2,0,B|227:125|227:125|225:129|225:129|148:147,1,160,2|2,1:2|1:2,0:0:0:0:
18,61,76824,1,10,0:0:0:0:
66,216,76982,6,0,P|140:194|203:239,1,160,2|2,1:2|1:2,0:0:0:0:
300,367,77456,1,10,0:0:0:0:
379,251,77614,2,0,B|396:223|423:208|423:208|389:116,1,160,2|2,1:2|1:2,0:0:0:0:
249,43,78088,2,0,P|241:82|234:121,1,80,10|2,0:0|0:0,0:0:0:0:
156,287,78403,5,2,1:2:0:0:
277,215,78561,1,2,1:2:0:0:
133,140,78719,1,10,0:0:0:0:
254,315,78877,2,0,B|336:294|324:362|406:341,1,160,2|2,1:2|1:2,0:0:0:0:
512,251,79351,1,10,0:0:0:0:
417,182,79509,6,0,B|401:106|401:106|397:104|397:104|379:27,1,160,2|2,1:2|1:2,0:0:0:0:
257,152,79982,1,10,0:0:0:0:
190,46,80140,2,0,P|228:37|267:27,1,80,2|0,1:2|1:2,0:0:0:0:
160,151,80456,1,2,1:2:0:0:
160,151,80535,1,0,1:2:0:0:
160,151,80614,2,0,P|153:206|143:273,1,120,14|0,0:0|0:0,0:0:0:0:
139,308,80930,6,0,P|178:284|220:288,1,80,6|2,1:2|1:2,0:0:0:0:
331,384,81245,1,10,0:0:0:0:
403,276,81403,2,0,B|389:195|389:195|392:192|392:192|378:116,1,160,2|2,1:2|1:2,0:0:0:0:
289,12,81877,1,10,0:0:0:0:
160,140,82035,6,0,B|137:161|111:175|111:175|143:269,1,160,2|2,1:2|1:2,0:0:0:0:
281,357,82509,1,10,0:0:0:0:
321,199,82666,2,0,P|379:149|459:161,1,160,2|2,1:2|1:2,0:0:0:0:
512,325,83140,2,0,P|472:313|433:303,1,80,10|10,0:0|0:0,0:0:0:0:
407,271,83377,1,8,0:0:0:0:
407,271,83456,6,0,P|367:281|327:291,1,80,6|2,1:2|1:2,0:0:0:0:
206,241,83772,2,0,P|185:200|194:155,1,80,8|2,0:0|1:2,0:0:0:0:
318,89,84088,2,0,P|306:127|299:166,1,80,2|2,0:0|1:2,0:0:0:0:
208,52,84403,2,0,P|172:34|133:38,1,80,10|2,0:0|1:2,0:0:0:0:
25,162,84719,6,0,P|65:149|108:137,1,80,2|2,1:2|1:2,0:0:0:0:
214,249,85035,2,0,P|175:254|143:233,1,80,10|2,0:0|1:2,0:0:0:0:
308,193,85351,2,0,P|315:232|323:271,1,80,2|2,1:2|1:2,0:0:0:0:
461,365,85666,2,0,P|470:324|480:285,1,80,10|2,0:0|1:2,0:0:0:0:
405,129,85982,5,14,0:0:0:0:
323,271,86140,1,2,1:2:0:0:
248,112,86298,2,0,P|212:94|172:97,1,80,10|2,0:0|1:2,0:0:0:0:
68,257,86614,1,10,0:0:0:0:
196,183,86772,1,2,1:2:0:0:
72,78,86930,2,0,P|80:116|88:156,1,80,10|2,0:0|1:2,0:0:0:0:
184,292,87245,6,0,P|210:299|230:305,3,40,10|8|2|0,0:0|0:0|1:2|1:2,0:0:0:0:
250,332,87561,2,0,P|269:326|288:321,3,40,10|8|6|4,3:0|3:0|3:0|3:0,0:0:0:0:
320,346,87877,1,10,0:0:0:0:
403,233,88035,1,10,0:0:0:0:
399,203,88113,1,8,0:0:0:0:
395,173,88192,1,10,0:0:0:0:
391,143,88271,1,8,0:0:0:0:
387,113,88350,1,10,1:2:0:0:
