osu file format v14

[General]
AudioFilename: audio.mp3
AudioLeadIn: 0
PreviewTime: 54640
Countdown: 0
SampleSet: Soft
StackLeniency: 0.7
Mode: 0
LetterboxInBreaks: 0
WidescreenStoryboard: 0

[Editor]
DistanceSpacing: 1
BeatDivisor: 4
GridSize: 4
TimelineZoom: 1

[Metadata]
Title:Star light, Star bright (TV Size)
TitleUnicode:Star light, Star bright (TV Size)
Artist:nano
ArtistUnicode:ナノ
Creator:A r M i N
Version:Destiny
Source:CONCEPTION
Tags:コンセプション japanese rock j-rock op opening ore no kodomo o undekure! Armin A_r_M_i_N browiec Shirahane Suou Roda Totsuki reisevia PikAqours
BeatmapID:2796473
BeatmapSetID:1350684

[Difficulty]
HPDrainRate:5.8
CircleSize:3.8
OverallDifficulty:9
ApproachRate:9.3
SliderMultiplier:1.8
SliderTickRate:1

[Events]
//Background and Video events
0,0,"70786735.jpg",0,0
//Break Periods
//Storyboard Layer 0 (Background)
//Storyboard Layer 1 (Fail)
//Storyboard Layer 2 (Pass)
//Storyboard Layer 3 (Foreground)
//Storyboard Layer 4 (Overlay)
//Storyboard Sound Samples

[TimingPoints]
88,315.789473684211,4,2,1,70,1,0
5061,-100,4,2,1,5,0,0
5140,-100,4,2,1,70,0,0
12719,-125,4,2,1,60,0,0
17693,-125,4,2,1,5,0,0
17772,-125,4,2,1,60,0,0
22272,-125,4,2,1,5,0,0
22351,-125,4,2,1,60,0,0
22745,-125,4,2,1,5,0,0
22824,-111.111111111111,4,2,1,65,0,0
31666,-100,4,2,1,70,0,0
32930,-100,4,2,1,70,0,0
43035,-111.111111111111,4,2,1,65,0,0
46824,-100,4,2,1,70,0,0
48088,-100,4,2,1,70,0,0
50614,-100,4,2,1,75,0,0
51877,-100,4,2,1,80,0,0
53140,-100,4,2,1,65,0,0
54719,-200,4,2,1,65,0,0
54956,-200,4,2,1,5,0,0
55035,-200,4,2,1,65,0,0
55588,-200,4,2,1,5,0,0
55666,-90.9090909090909,4,2,1,80,0,1
70193,-90.9090909090909,4,2,1,80,0,0
70824,-90.9090909090909,4,2,1,85,0,1
75877,-100,4,2,1,70,0,0
80851,-100,4,2,1,5,0,0
80930,-100,4,2,1,70,0,0

[Colours]
Combo1 : 79,70,140
Combo2 : 107,33,43
Combo3 : 123,145,213
Combo4 : 112,88,101

[HitObjects]
250,320,88,5,6,1:2:0:0:
347,128,245,1,2,1:2:0:0:
426,359,403,1,10,0:0:0:0:
244,196,561,2,0,L|67:233,1,180,2|2,1:2|1:2,0:0:0:0:
197,53,1035,1,10,0:0:0:0:
308,276,1193,6,0,P|270:296|220:296,1,90,2|0,1:2|0:0,0:0:0:0:
373,132,1509,1,2,1:2:0:0:
426,359,1666,1,10,0:0:0:0:
244,196,1824,2,0,L|262:107,1,90,2|0,1:2|1:2,0:0:0:0:
148,276,2140,1,2,1:2:0:0:
341,230,2298,1,10,0:0:0:0:
183,373,2456,1,2,0:0:0:0:
162,133,2614,5,2,1:2:0:0:
290,354,2772,1,2,1:2:0:0:
54,234,2930,1,10,0:0:0:0:
259,101,3088,2,0,B|275:129|304:147|304:147|259:252,1,180,2|2,1:2|1:2,0:0:0:0:
59,132,3561,1,10,0:0:0:0:
235,1,3719,6,0,L|323:19,1,90,2|0,1:2|0:0,0:0:0:0:
162,216,4035,1,2,1:2:0:0:
82,12,4193,1,10,0:0:0:0:
297,169,4351,2,0,L|315:257,1,90,2|0,1:2|1:2,0:0:0:0:
445,46,4666,1,2,1:2:0:0:
445,46,4745,1,0,1:2:0:0:
445,46,4824,2,0,P|396:13|319:22,1,135,14|0,0:0|0:0,0:0:0:0:
242,83,5140,5,6,1:2:0:0:
173,295,5298,1,2,1:2:0:0:
368,164,5456,1,10,0:0:0:0:
97,226,5614,2,0,B|81:254|52:272|52:272|97:377,1,180,2|2,1:2|1:2,0:0:0:0:
276,239,6088,1,10,0:0:0:0:
124,126,6245,6,0,L|36:144,1,90,2|0,1:2|0:0,0:0:0:0:
173,295,6561,1,2,1:2:0:0:
235,67,6719,1,10,0:0:0:0:
97,226,6877,2,0,P|75:265|73:316,1,90,2|0,1:2|1:2,0:0:0:0:
310,238,7193,1,2,1:2:0:0:
124,126,7351,1,10,0:0:0:0:
183,360,7509,1,10,0:0:0:0:
183,360,7588,1,8,0:0:0:0:
183,360,7666,6,0,L|201:272,1,90,6|2,1:2|1:2,0:0:0:0:
391,175,7982,2,0,L|409:263,1,90,8|2,0:2|1:2,0:0:0:0:
284,107,8298,5,2,0:0:0:0:
491,200,8456,1,2,1:2:0:0:
288,242,8614,1,10,0:0:0:0:
401,40,8772,1,2,1:2:0:0:
409,263,8930,5,2,1:2:0:0:
262,83,9088,1,2,1:2:0:0:
193,315,9245,1,10,0:0:0:0:
353,131,9403,1,2,1:2:0:0:
316,346,9561,5,2,1:2:0:0:
183,148,9719,1,2,1:2:0:0:
409,263,9877,1,10,0:0:0:0:
185,352,10035,1,2,1:2:0:0:
367,99,10193,5,6,1:2:0:0:
287,352,10351,1,2,1:2:0:0:
277,51,10509,1,10,0:0:0:0:
383,318,10666,1,2,1:2:0:0:
434,8,10824,5,2,1:2:0:0:
305,250,10982,1,2,1:2:0:0:
512,76,11140,1,10,0:0:0:0:
383,318,11298,1,2,1:2:0:0:
277,51,11456,5,10,0:0:0:0:
480,287,11614,1,2,1:2:0:0:
213,133,11772,5,10,0:0:0:0:
507,187,11930,1,2,1:2:0:0:
160,221,12088,5,10,0:0:0:0:
411,83,12245,1,8,3:0:0:0:
411,83,12324,1,8,3:0:0:0:
411,83,12403,6,0,P|406:106|402:128,1,45,8|8,3:0|3:0,0:0:0:0:
277,51,12561,2,0,P|272:28|267:6,1,45,4|4,3:0|3:0,0:0:0:0:
203,220,12719,1,4,1:2:0:0:
203,220,13035,6,0,L|132:233,1,72,2|0,0:0|0:0,0:0:0:0:
54,181,13351,2,0,L|41:251,1,72,2|0,0:0|0:0,0:0:0:0:
136,138,13666,2,0,P|113:109|83:91,1,72,2|0,0:0|0:0,0:0:0:0:
132,232,13982,6,0,P|195:211|229:145,1,144,2|2,0:0|0:0,0:0:0:0:
138,15,14456,2,0,B|102:56|102:56|137:139,1,144,2|2,0:0|0:0,0:0:0:0:
288,74,14930,2,0,P|257:57|222:54,1,72,2|0,0:0|1:2,0:0:0:0:
333,174,15245,5,0,1:2:0:0:
333,174,15561,2,0,L|345:244,1,72,2|0,0:0|0:0,0:0:0:0:
425,295,15877,2,0,L|437:224,1,72,2|0,0:0|0:0,0:0:0:0:
342,340,16193,2,0,P|365:367|396:384,1,72,2|0,0:0|0:0,0:0:0:0:
263,291,16509,6,0,B|189:305|189:305|186:303|186:303|122:315,1,144,2|2,0:0|0:0,0:0:0:0:
37,184,16982,2,0,B|110:199|110:199|114:196|114:196|178:209,1,144,2|2,0:0|0:0,0:0:0:0:
370,96,17456,2,0,P|336:56|284:54,1,108,6|0,0:0|0:0,0:0:0:0:
267,80,17772,6,0,L|279:150,1,72,4|0,1:2|0:0,0:0:0:0:
417,235,18088,2,0,P|395:207|364:190,1,72,2|0,0:0|0:0,0:0:0:0:
220,269,18403,2,0,P|256:262|287:246,1,72,2|0,0:0|0:0,0:0:0:0:
143,216,18719,2,0,P|128:248|127:284,1,72,2|0,0:0|0:0,0:0:0:0:
226,174,19035,6,0,P|173:127|103:130,1,144,2|2,0:0|0:0,0:0:0:0:
25,182,19509,2,0,L|12:111,1,72,2|0,0:0|0:0,0:0:0:0:
109,225,19824,2,0,L|83:366,1,144,2|2,0:0|1:2,0:0:0:0:
234,249,20298,6,0,B|344:216|326:317|437:284,1,216,2|0,1:2|1:2,0:0:0:0:
452,63,21088,1,2,0:0:0:0:
420,152,21245,1,2,0:0:0:0:
512,135,21403,1,2,0:0:0:0:
360,80,21561,6,0,L|289:92,2,72,2|2|2,0:0|0:0|0:0,0:0:0:0:
173,167,22035,2,0,B|161:150|145:133|145:133|173:73,1,108,10|0,0:0|0:0,0:0:0:0:
186,49,22351,1,10,1:3:0:0:
299,197,22509,2,0,P|289:250|285:303,1,108,6|0,1:3|0:0,0:0:0:0:
303,327,22824,6,0,L|385:312,1,80.9999975280763,4|0,1:2|0:0,0:0:0:0:
423,153,23140,2,0,P|389:175|367:209,1,80.9999975280763,2|0,1:2|0:0,0:0:0:0:
484,323,23456,2,0,P|481:282|462:247,1,80.9999975280763,2|0,1:2|0:0,0:0:0:0:
283,153,23772,2,0,L|268:232,1,80.9999975280763,2|0,1:2|0:0,0:0:0:0:
112,319,24088,6,0,B|77:223|77:223|101:206|117:179,1,161.999995056153,2|2,1:2|1:2,0:0:0:0:
10,53,24561,2,0,L|24:132,1,80.9999975280763,2|0,0:0|1:2,0:0:0:0:
107,19,24877,1,2,0:0:0:0:
220,131,25035,2,0,P|256:148|296:150,1,80.9999975280763,2|0,1:2|0:0,0:0:0:0:
439,42,25351,6,0,P|405:64|383:98,1,80.9999975280763,0|0,1:2|0:0,0:0:0:0:
401,281,25666,2,0,L|386:201,1,80.9999975280763,2|0,1:2|0:0,0:0:0:0:
457,368,25982,2,0,P|419:383|379:381,1,80.9999975280763,2|0,1:2|0:0,0:0:0:0:
222,245,26298,2,0,L|301:259,1,80.9999975280763,2|0,1:2|0:0,0:0:0:0:
103,351,26614,6,0,L|74:191,1,161.999995056153,2|2,1:2|1:2,0:0:0:0:
187,84,27088,2,0,L|172:163,1,80.9999975280763,2|0,0:0|1:2,0:0:0:0:
86,68,27403,1,2,0:0:0:0:
272,27,27561,2,0,P|287:64|285:104,1,80.9999975280763,2|0,1:2|0:0,0:0:0:0:
415,258,27877,6,0,L|443:98,1,161.999995056153,6|0,1:2|1:2,0:0:0:0:
276,238,28351,1,2,0:0:0:0:
393,359,28509,2,0,L|472:344,1,80.9999975280763,0|0,1:2|0:0,0:0:0:0:
334,153,28824,6,0,P|281:135|191:180,1,161.999995056153,2|0,1:2|1:2,0:0:0:0:
73,324,29298,1,2,0:0:0:0:
0,184,29456,2,0,L|15:105,1,80.9999975280763,0|0,1:2|0:0,0:0:0:0:
191,181,29772,2,0,L|206:260,1,80.9999975280763,2|0,1:2|0:0,0:0:0:0:
127,81,30088,2,0,P|163:63|203:62,1,80.9999975280763,2|0,1:2|0:0,0:0:0:0:
386,154,30403,6,0,B|373:232|373:232|375:234|375:234|360:312,1,161.999995056153,2|2,1:2|1:2,0:0:0:0:
191,181,30877,1,2,0:0:0:0:
120,357,31035,2,0,L|199:342,1,80.9999975280763,0|0,1:2|0:0,0:0:0:0:
95,145,31351,1,2,1:2:0:0:
22,327,31509,1,2,0:0:0:0:
191,181,31666,6,0,L|206:92,1,90,8|8,0:0|0:0,0:0:0:0:
301,53,31903,1,8,0:0:0:0:
301,53,31982,2,0,L|308:97,3,45,8|8|8|8,1:2|0:0|0:0|0:0,0:0:0:0:
403,137,32298,2,0,L|410:92,3,45,8|8|8|8,1:2|0:0|0:0|0:0,0:0:0:0:
322,200,32614,5,10,1:2:0:0:
327,233,32692,1,8,0:0:0:0:
333,266,32771,1,8,0:0:0:0:
339,299,32850,1,8,0:0:0:0:
345,332,32930,6,0,P|406:352|498:292,1,180,6|8,1:2|0:0,0:0:0:0:
340,111,33403,2,0,L|322:200,1,90,2|0,1:2|1:2,0:0:0:0:
466,61,33719,1,2,1:2:0:0:
230,134,33877,6,0,B|187:95|127:105|127:105|105:132|68:139,1,180,10|0,0:0|1:2,0:0:0:0:
243,238,34351,1,2,1:2:0:0:
268,38,34509,1,8,0:0:0:0:
148,203,34666,1,0,1:2:0:0:
334,118,34824,1,0,1:2:0:0:
167,26,34982,1,0,1:2:0:0:
266,195,35140,2,0,P|304:217|349:221,1,90,10|0,0:0|1:2,0:0:0:0:
169,124,35456,6,0,B|146:153|117:172|117:172|156:275,1,180,2|8,1:2|0:0,0:0:0:0:
319,384,35930,2,0,L|337:295,1,90,2|0,1:2|1:2,0:0:0:0:
459,156,36245,1,0,1:2:0:0:
252,200,36403,6,0,B|160:172|174:257|83:229,1,180,10|0,0:0|1:2,0:0:0:0:
205,91,36877,1,2,1:2:0:0:
225,298,37035,1,8,0:0:0:0:
110,129,37193,1,0,1:2:0:0:
90,328,37351,1,0,1:2:0:0:
252,200,37509,1,0,1:2:0:0:
11,103,37666,2,0,L|29:192,1,90,14|0,0:0|1:2,0:0:0:0:
145,8,37982,6,0,P|206:-12|298:48,1,180,6|10,1:2|0:0,0:0:0:0:
347,245,38456,2,0,L|365:156,1,90,2|0,1:2|1:2,0:0:0:0:
264,290,38772,1,0,1:2:0:0:
452,208,38930,1,10,0:0:0:0:
264,135,39088,1,2,1:2:0:0:
394,332,39245,6,0,B|377:244|377:244|379:242|379:242|364:155,1,180,4|10,1:2|0:0,0:0:0:0:
184,72,39719,2,0,L|166:161,1,90,2|0,1:2|1:2,0:0:0:0:
271,16,40035,1,0,1:2:0:0:
75,95,40193,1,10,0:0:0:0:
262,192,40351,1,2,1:2:0:0:
68,319,40509,6,0,B|111:280|171:290|171:290|193:317|230:324,1,180,4|8,1:2|0:0,0:0:0:0:
390,206,40982,2,0,L|372:117,1,90,0|0,1:2|1:2,0:0:0:0:
251,230,41298,1,0,1:2:0:0:
465,276,41456,2,0,P|487:237|491:192,1,90,8|0,0:0|1:2,0:0:0:0:
355,320,41772,5,8,0:0:0:0:
360,342,41850,1,8,0:0:0:0:
364,364,41929,1,2,1:2:0:0:
251,230,42088,2,0,L|260:185,2,45,10|8|4,3:0|3:0|3:0,0:0:0:0:
84,358,42403,6,0,P|55:367|27:378,2,60,8|0|8,0:0|1:0|3:0,0:0:0:0:
139,294,42719,5,8,0:3:0:0:
143,254,42825,5,4,0:3:0:0:
126,219,42930,5,4,0:3:0:0:
92,199,43035,6,0,L|124:40,1,161.999995056153,6|2,1:2|0:0,0:0:0:0:
202,171,43509,1,2,1:2:0:0:
7,107,43666,1,8,0:0:0:0:
223,70,43824,2,0,P|287:115|302:192,1,161.999995056153,2|2,0:0|1:2,0:0:0:0:
288,228,44219,1,0,1:2:0:0:
288,228,44298,1,0,1:2:0:0:
106,307,44456,6,0,B|74:212|74:212|100:194|115:166,1,161.999995056153,8|0,0:0|1:2,0:0:0:0:
267,329,44930,2,0,L|346:312,1,80.9999975280763,8|0,0:0|0:0,0:0:0:0:
427,132,45245,2,0,L|347:115,1,80.9999975280763,2|0,1:2|0:0,0:0:0:0:
166,9,45561,6,0,L|183:89,1,80.9999975280763,2|0,1:2|1:2,0:0:0:0:
94,253,45877,1,2,0:0:0:0:
256,162,46035,1,2,1:2:0:0:
42,76,46193,1,8,0:0:0:0:
196,245,46351,2,0,P|231:262|275:263,1,80.9999975280763,2|0,0:0|0:0,0:0:0:0:
428,113,46666,1,2,1:2:0:0:
366,384,46824,5,10,0:0:0:0:
256,162,46982,1,0,1:2:0:0:
481,220,47140,1,0,1:2:0:0:
229,313,47298,5,8,0:0:0:0:
321,76,47456,1,0,1:2:0:0:
404,288,47614,2,0,L|359:279,1,45,8|8,0:0|0:0,0:0:0:0:
154,221,47772,5,10,1:2:0:0:
120,226,47850,1,8,0:0:0:0:
87,232,47929,1,8,0:0:0:0:
54,238,48008,1,8,0:0:0:0:
21,244,48088,2,0,P|2:203|2:158,1,90,6|0,1:2|1:2,0:0:0:0:
263,139,48403,5,8,0:0:0:0:
90,336,48561,1,0,1:2:0:0:
125,103,48719,1,2,1:2:0:0:
244,298,48877,5,8,0:0:0:0:
1,158,49035,1,0,1:2:0:0:
212,50,49193,1,2,1:2:0:0:
123,311,49351,5,10,0:0:0:0:
42,47,49509,1,0,1:2:0:0:
264,182,49666,1,2,1:2:0:0:
12,275,49824,5,8,0:0:0:0:
212,50,49982,1,2,1:2:0:0:
244,298,50140,1,0,1:2:0:0:
49,142,50298,5,10,0:0:0:0:
328,52,50456,1,0,1:2:0:0:
146,329,50614,5,14,0:0:0:0:
212,50,50772,1,0,1:2:0:0:
296,378,50930,5,8,0:0:0:0:
150,132,51088,1,0,1:2:0:0:
60,384,51245,5,8,0:0:0:0:
296,215,51403,1,0,1:2:0:0:
0,178,51561,5,8,0:0:0:0:
234,297,51719,1,0,1:2:0:0:
68,71,51877,5,8,0:0:0:0:
131,311,52035,1,8,0:0:0:0:
263,49,52193,1,8,0:0:0:0:
37,272,52351,1,8,0:0:0:0:
428,256,52509,5,8,0:0:0:0:
168,88,52666,1,8,0:0:0:0:
284,384,52824,1,8,0:0:0:0:
421,0,52982,1,8,0:0:0:0:
88,298,54719,6,0,P|121:295|148:314,1,67.5,2|0,0:0|0:0,0:0:0:0:
67,382,55035,6,0,P|58:325|36:228,1,157.5,2|0,0:0|0:0,0:0:0:0:
13,198,55666,6,0,B|54:145|122:156|122:156|148:186|187:187,1,198.000006042481,6|10,1:2|0:0,0:0:0:0:
420,118,56140,2,0,L|402:216,1,99.0000030212403,2|0,0:0|1:2,0:0:0:0:
303,28,56456,1,2,1:2:0:0:
505,181,56614,1,10,0:0:0:0:
253,236,56772,1,2,0:0:0:0:
405,16,56930,5,2,1:2:0:0:
337,294,57088,1,2,1:2:0:0:
205,59,57245,1,10,0:0:0:0:
442,174,57403,1,2,0:0:0:0:
229,282,57561,2,0,L|246:183,1,99.0000030212403,2|0,1:2|1:2,0:0:0:0:
412,337,57877,1,10,0:0:0:0:
146,341,58035,6,0,P|128:295|133:246,1,99.0000030212403,2|0,0:0|1:2,0:0:0:0:
300,73,58351,1,2,1:2:0:0:
229,282,58509,1,8,0:0:0:0:
123,52,58666,1,2,0:0:0:0:
328,199,58824,2,0,L|425:182,1,99.0000030212403,2|0,1:2|1:2,0:0:0:0:
206,112,59140,1,10,0:0:0:0:
379,4,59298,6,0,L|362:101,1,99.0000030212403,2|0,0:0|1:2,0:0:0:0:
229,282,59614,1,2,1:2:0:0:
176,13,59772,2,0,P|225:11|270:32,1,99.0000030212403,8|0,0:0|0:0,0:0:0:0:
373,264,60088,1,0,1:2:0:0:
206,112,60245,1,0,1:2:0:0:
200,380,60403,2,0,P|249:382|293:361,1,99.0000030212403,10|0,0:0|0:0,0:0:0:0:
35,280,60719,6,0,L|18:377,1,99.0000030212403,6|0,1:2|1:2,0:0:0:0:
229,282,61035,2,0,L|212:185,1,99.0000030212403,10|0,0:0|0:0,0:0:0:0:
362,351,61351,1,2,1:2:0:0:
132,249,61509,1,0,1:2:0:0:
354,138,61666,2,0,L|337:235,1,99.0000030212403,10|0,0:0|0:0,0:0:0:0:
196,79,61982,5,0,1:2:0:0:
417,27,62140,1,0,1:2:0:0:
227,194,62298,1,10,0:0:0:0:
451,155,62456,2,0,L|354:138,1,99.0000030212403,2|0,0:0|1:2,0:0:0:0:
203,314,62772,2,0,P|252:316|296:295,1,99.0000030212403,2|8,1:2|0:0,0:0:0:0:
147,120,63088,1,2,0:0:0:0:
54,339,63245,5,6,1:2:0:0:
247,174,63403,1,0,1:2:0:0:
0,123,63561,5,8,0:0:0:0:
203,314,63719,1,0,1:2:0:0:
237,71,63877,1,0,1:2:0:0:
39,287,64035,5,8,0:0:0:0:
287,179,64193,1,2,1:2:0:0:
106,41,64351,1,2,1:2:0:0:
203,314,64509,5,8,0:0:0:0:
345,93,64666,1,0,1:2:0:0:
100,144,64824,1,0,1:2:0:0:
386,207,64982,5,8,0:0:0:0:
171,47,65140,1,0,1:2:0:0:
274,251,65298,2,0,L|282:202,1,49.5000015106202,8|8,0:0|0:0,0:0:0:0:
387,0,65456,5,10,0:0:0:0:
417,20,65534,1,8,0:0:0:0:
438,50,65613,1,8,0:0:0:0:
447,86,65692,1,8,0:0:0:0:
442,123,65772,6,0,B|349:104|349:104|346:108|346:108|247:88,1,198.000006042481,6|10,1:2|0:0,0:0:0:0:
75,257,66245,2,0,L|172:240,1,99.0000030212403,2|0,0:0|1:2,0:0:0:0:
45,86,66561,1,2,1:2:0:0:
0,327,66719,1,8,0:0:0:0:
150,128,66877,1,2,0:0:0:0:
194,351,67035,5,0,1:2:0:0:
0,202,67193,1,0,1:2:0:0:
247,94,67351,2,0,L|230:191,1,99.0000030212403,8|0,0:0|0:0,0:0:0:0:
133,21,67666,1,0,1:2:0:0:
346,123,67824,1,0,1:2:0:0:
149,255,67982,2,0,L|132:158,1,99.0000030212403,10|0,0:0|0:0,0:0:0:0:
425,58,68298,6,0,P|446:102|444:151,1,99.0000030212403,2|0,1:2|1:2,0:0:0:0:
229,320,68614,2,0,L|246:223,1,99.0000030212403,10|0,0:0|0:0,0:0:0:0:
120,22,68930,1,2,1:2:0:0:
346,123,69088,1,0,1:2:0:0:
115,241,69245,5,10,0:0:0:0:
248,0,69403,1,2,1:2:0:0:
299,285,69561,5,8,0:0:0:0:
169,66,69719,1,2,1:2:0:0:
132,344,69877,5,10,0:0:0:0:
265,102,70035,2,0,L|313:110,1,49.5000015106202,2|0,1:2|1:2,0:0:0:0:
150,229,70193,5,10,0:0:0:0:
115,241,70271,1,8,0:0:0:0:
78,241,70350,1,2,1:2:0:0:
44,227,70429,1,0,1:2:0:0:
17,201,70509,2,0,P|22:176|29:153,3,49.5000015106202,10|8|4|4,3:0|3:0|3:0|3:0,0:0:0:0:
58,54,70824,6,0,L|156:36,1,99.0000030212403,6|0,1:2|0:0,0:0:0:0:
331,265,71140,5,8,0:0:0:0:
122,134,71298,1,2,1:2:0:0:
403,97,71456,5,8,0:0:0:0:
167,228,71614,1,0,1:2:0:0:
429,298,71772,5,10,0:0:0:0:
309,53,71930,2,0,L|300:101,1,49.5000015106202,0|0,1:2|1:2,0:0:0:0:
231,314,72088,5,8,0:0:0:0:
403,97,72245,1,2,1:2:0:0:
122,134,72403,5,8,0:0:0:0:
356,281,72561,1,0,1:2:0:0:
205,54,72719,5,8,0:0:0:0:
75,313,72877,1,0,1:2:0:0:
59,15,73035,5,10,0:0:0:0:
197,286,73193,1,0,1:2:0:0:
305,0,73351,5,14,0:0:0:0:
97,184,73509,1,0,1:2:0:0:
331,266,73666,1,0,1:2:0:0:
205,54,73824,5,14,0:0:0:0:
275,353,73982,1,0,1:2:0:0:
433,136,74140,1,0,1:2:0:0:
97,184,74298,5,14,0:0:0:0:
402,341,74456,1,0,1:2:0:0:
325,82,74614,1,0,1:2:0:0:
186,356,74772,5,14,0:0:0:0:
447,218,74930,1,0,1:2:0:0:
220,103,75088,1,0,1:2:0:0:
310,375,75245,5,10,0:0:0:0:
440,31,75403,1,10,0:0:0:0:
440,31,75877,5,6,1:2:0:0:
336,225,76035,1,2,1:2:0:0:
247,0,76193,1,10,0:0:0:0:
426,149,76351,2,0,B|449:180|477:194|477:194|445:300,1,180,2|2,1:2|1:2,0:0:0:0:
239,191,76824,1,10,0:0:0:0:
400,50,76982,6,0,L|489:68,1,90,2|0,1:2|0:0,0:0:0:0:
336,225,77298,1,2,1:2:0:0:
275,0,77456,1,10,0:0:0:0:
140,165,77614,2,0,L|158:254,1,90,2|0,1:2|1:2,0:0:0:0:
33,63,77930,1,2,1:2:0:0:
252,115,78088,1,10,0:0:0:0:
35,234,78245,1,2,0:0:0:0:
161,18,78403,5,2,1:2:0:0:
267,228,78561,1,2,1:2:0:0:
39,127,78719,1,10,0:0:0:0:
181,357,78877,2,0,B|224:318|284:328|284:328|306:355|343:362,1,180,2|2,1:2|1:2,0:0:0:0:
487,208,79351,1,10,0:0:0:0:
266,116,79509,6,0,L|284:205,1,90,2|0,1:2|0:0,0:0:0:0:
376,39,79824,1,2,1:2:0:0:
169,149,79982,1,10,0:0:0:0:
381,271,80140,2,0,L|399:182,1,90,2|0,1:2|1:2,0:0:0:0:
209,279,80456,1,2,1:2:0:0:
209,279,80535,1,0,1:2:0:0:
209,279,80614,2,0,P|160:246|83:255,1,135,14|0,0:0|0:0,0:0:0:0:
29,338,80930,5,6,1:2:0:0:
169,149,81088,1,2,1:2:0:0:
256,382,81245,1,10,0:0:0:0:
87,252,81403,2,0,B|70:164|70:164|72:162|72:162|57:75,1,180,2|2,1:2|1:2,0:0:0:0:
260,212,81877,1,10,0:0:0:0:
101,354,82035,6,0,P|56:349|17:327,1,90,2|0,1:2|0:0,0:0:0:0:
169,149,82351,1,2,1:2:0:0:
256,382,82509,1,10,0:0:0:0:
353,169,82666,2,0,L|442:151,1,90,2|0,1:2|1:2,0:0:0:0:
296,287,82982,1,2,1:2:0:0:
379,70,83140,1,10,0:0:0:0:
504,269,83298,1,10,0:0:0:0:
504,269,83377,1,8,0:0:0:0:
504,269,83456,6,0,L|415:251,1,90,6|2,1:2|1:2,0:0:0:0:
284,106,83772,1,8,0:0:0:0:
441,151,83930,1,2,1:2:0:0:
261,260,84088,5,2,0:0:0:0:
379,70,84245,1,2,1:2:0:0:
408,307,84403,1,10,0:0:0:0:
284,106,84561,1,2,1:2:0:0:
207,348,84719,5,2,1:2:0:0:
365,172,84877,1,2,1:2:0:0:
145,136,85035,1,10,0:0:0:0:
316,295,85193,1,2,1:2:0:0:
199,48,85351,5,2,1:2:0:0:
97,285,85509,1,2,1:2:0:0:
290,97,85666,1,10,0:0:0:0:
207,348,85824,2,0,L|198:303,1,45,2|0,1:2|1:2,0:0:0:0:
96,45,85982,5,14,0:0:0:0:
357,176,86140,1,2,1:2:0:0:
14,218,86298,5,10,0:0:0:0:
290,97,86456,1,2,1:2:0:0:
1,82,86614,5,10,0:0:0:0:
148,304,86772,1,2,1:2:0:0:
177,53,86930,5,10,0:0:0:0:
47,315,87088,1,2,1:2:0:0:
250,148,87245,5,10,0:0:0:0:
292,135,87323,1,8,0:0:0:0:
336,142,87402,1,2,1:2:0:0:
373,167,87481,1,0,1:2:0:0:
396,206,87561,2,0,L|387:250,3,45,10|8|6|4,3:0|3:0|3:0|3:0,0:0:0:0:
437,340,87877,5,10,0:0:0:0:
226,249,88035,1,10,0:0:0:0:
181,256,88113,1,8,0:0:0:0:
137,264,88192,1,10,0:0:0:0:
93,272,88271,1,8,0:0:0:0:
48,280,88351,2,0,P|30:238|32:194,1,90,10|0,1:2|0:0,0:0:0:0:
