osu file format v14

[General]
AudioFilename: audio.mp3
AudioLeadIn: 0
PreviewTime: 93939
Countdown: 1
SampleSet: Soft
StackLeniency: 0.7
Mode: 0
LetterboxInBreaks: 0
WidescreenStoryboard: 0

[Editor]
DistanceSpacing: 0.3
BeatDivisor: 4
GridSize: 32
TimelineZoom: 1

[Metadata]
Title:Scarlet Story (Short ver.)
TitleUnicode:Scarlet Story (Short ver.)
Artist:nano
ArtistUnicode:nano
Creator:Sakura Blossom
Version:Light will shed hope on our forsaken souls
Source:
Tags:nano, Scarlet Story, Sakura, Sakura Blossom, Short, Oklayyyy, Autist
BeatmapID:1858433
BeatmapSetID:889160

[Difficulty]
HPDrainRate:6
CircleSize:4.1
OverallDifficulty:9
ApproachRate:9.6
SliderMultiplier:1.5
SliderTickRate:1

[Events]
//Background and Video events
0,0,"Anime-Girl-Brown-Hair-Grey-Eyes-HD-Wallpaper.jpg",0,0
//Break Periods
2,41934,44980
2,75689,77230
//Storyboard Layer 0 (Background)
//Storyboard Layer 1 (Fail)
//Storyboard Layer 2 (Pass)
//Storyboard Layer 3 (Foreground)
//Storyboard Sound Samples

[TimingPoints]
726,340.909090909091,4,2,1,25,1,0
11294,-66.6666666666667,4,2,1,50,0,0
11635,-100,4,2,1,35,0,0
17089,-83.3333333333333,4,2,1,50,0,0
19135,352.941176470588,4,2,1,50,1,0
19311,-76.9230769230769,4,2,1,50,0,0
19840,340.909090909091,4,2,1,50,1,0
20521,361.44578313253,4,2,1,50,1,0
21243,396.039603960396,4,2,1,50,1,0
22035,422.535211267606,4,2,1,50,1,0
23937,319.148936170213,4,2,1,50,1,0
24575,309.278350515464,4,1,1,50,1,0
24575,-66.6666666666667,4,1,1,50,0,1
39415,309.278350515464,4,1,1,50,1,0
41889,300,4,1,1,50,1,0
46689,-117.647058823529,4,1,1,50,0,0
51489,-100,4,1,1,50,0,0
56289,-83.3333333333333,4,1,1,45,0,0
74289,-76.9230769230769,4,1,1,50,0,0
76089,-133.333333333333,4,2,1,50,0,0
83139,-117.647058823529,4,2,1,50,0,0
83439,-105.263157894737,4,2,1,50,0,0
84339,-100,4,1,1,50,0,0
94689,-66.6666666666667,4,1,1,50,0,1
112689,-66.6666666666667,4,1,1,50,0,0

[Colours]
Combo1 : 255,53,255
Combo2 : 255,121,121
Combo3 : 255,128,255
Combo4 : 245,86,111

[HitObjects]
175,183,726,6,0,P|239:192|303:122,1,150
119,121,1237,2,0,P|141:214|135:298,1,150
50,306,1748,2,0,P|58:235|80:208,1,75
129,369,2089,1,0,0:0:0:0:
226,335,2260,2,0,P|306:346|370:385,1,150
364,380,3112,2,0,P|351:327|362:288,1,75
444,229,3453,6,0,P|359:254|281:243,1,150
235,323,3964,2,0,P|178:266|105:277,1,150
35,310,4476,2,0,P|43:367|39:404,1,75
49,218,4816,1,0,0:0:0:0:
0,138,4987,2,0,P|14:82|32:59,1,75
112,0,5328,2,0,P|127:116|158:174,1,150
140,145,6180,6,0,P|192:105|281:103,1,150
343,185,6691,2,0,P|318:80|330:4,1,150
428,175,7203,2,0,P|414:236|388:265,1,75
266,304,7544,1,0,0:0:0:0:
184,368,7714,2,0,P|264:351|346:350,1,150
331,349,8566,2,0,P|374:370|421:372,1,75
489,268,8907,6,0,P|422:172|401:295,1,300
217,121,10271,2,0,P|283:25|305:148,1,300
90,136,11294,2,0,P|42:119|5:126,2,75.000002861023
44,201,11635,6,0,P|118:173|206:171,1,150
259,222,12146,1,0,0:0:0:0:
332,76,12316,2,0,P|326:28|307:3,1,75
352,176,12657,1,0,0:0:0:0:
352,192,12771,1,0,0:0:0:0:
352,208,12885,1,0,0:0:0:0:
352,224,12998,5,0,0:0:0:0:
453,148,13169,1,0,0:0:0:0:
508,291,13339,2,0,P|464:271|427:268,1,75
264,366,13680,2,0,L|262:395,6,18.75
179,351,14021,2,0,L|177:332,6,18.75
111,294,14362,6,0,P|170:291|246:224,1,150
10,288,14930,1,0,0:0:0:0:
10,288,15044,2,0,P|38:342|40:371,1,75
73,171,15385,2,0,P|126:173|162:197,1,75
2,84,15726,5,0,0:0:0:0:
172,8,15896,2,0,P|166:68|150:100,1,75
65,179,16237,1,0,0:0:0:0:
212,272,16407,2,0,L|210:301,6,18.75
290,233,16748,2,0,L|288:214,6,18.75
363,286,17089,6,0,P|419:287|514:209,1,179.999994506836
306,367,17601,1,0,0:0:0:0:
70,222,17771,2,0,P|157:227|218:327,1,179.999994506836
292,245,18226,1,0,0:0:0:0:
292,245,18339,1,0,0:0:0:0:
292,245,18453,5,0,0:0:0:0:
318,97,18623,2,0,P|266:108|236:140,1,89.9999972534181
379,311,18964,2,0,P|395:260|382:218,1,89.9999972534181
182,15,19311,2,0,P|201:166|196:246,1,194.999991073609
66,364,19840,5,0,0:0:0:0:
256,192,19925,12,0,23725,0:0:0:0:
376,82,23937,6,0,L|383:136,3,37.5
461,88,24256,1,0,0:0:0:0:
464,121,24335,1,0,0:0:0:0:
453,157,24415,1,0,0:0:0:0:
464,188,24495,1,0,0:0:0:0:
461,224,24575,6,0,P|406:230|361:198,1,112.500004291535
429,24,24884,1,0,0:0:0:0:
441,334,25038,1,0,0:0:0:0:
271,111,25193,1,0,0:0:0:0:
497,80,25348,1,0,0:0:0:0:
259,123,25502,1,0,0:0:0:0:
85,41,25657,6,0,B|90:78|90:78|78:227,1,168.750006437302
14,252,25966,2,0,P|56:286|111:281,1,112.500004291535
256,132,26276,1,0,0:0:0:0:
456,202,26430,6,0,L|444:324,1,112.500004291535
214,58,26739,2,0,P|269:51|318:77,1,112.500004291535
115,236,27049,5,0,0:0:0:0:
62,29,27203,1,0,0:0:0:0:
78,315,27358,2,0,P|133:321|182:296,1,112.500004291535
286,133,27667,1,0,0:0:0:0:
37,109,27822,1,0,0:0:0:0:
308,135,27977,1,0,0:0:0:0:
251,351,28131,6,0,P|309:295|391:305,1,168.750006437302
428,376,28440,2,0,L|435:301,1,56.2500021457673
446,215,28595,1,0,0:0:0:0:
339,378,28750,1,0,0:0:0:0:
374,94,28904,2,0,P|447:97|488:136,1,112.500004291535
346,382,29214,1,0,0:0:0:0:
289,60,29368,1,0,0:0:0:0:
57,143,29523,6,0,L|181:154,1,112.500004291535
180,165,29755,1,0,0:0:0:0:
190,177,29832,1,0,0:0:0:0:
103,320,29987,1,0,0:0:0:0:
136,67,30142,1,0,0:0:0:0:
187,351,30296,1,0,0:0:0:0:
0,196,30451,1,0,0:0:0:0:
297,221,30605,6,0,P|304:275|274:321,1,112.500004291535
13,179,30915,2,0,L|132:184,1,112.500004291535
391,198,31224,1,0,0:0:0:0:
106,272,31379,1,0,0:0:0:0:
193,44,31533,1,0,0:0:0:0:
171,341,31688,2,0,P|198:294|194:238,1,112.500004291535
187,223,31920,1,0,0:0:0:0:
175,210,31997,5,0,0:0:0:0:
58,330,32152,1,0,0:0:0:0:
304,269,32306,1,0,0:0:0:0:
159,126,32461,1,0,0:0:0:0:
3,194,32616,1,0,0:0:0:0:
289,253,32770,1,0,0:0:0:0:
197,58,32925,1,0,0:0:0:0:
218,333,33080,1,0,0:0:0:0:
436,120,33234,6,0,L|314:115,1,112.500004291535
306,114,33466,1,0,0:0:0:0:
288,113,33544,1,0,0:0:0:0:
21,51,33698,1,0,0:0:0:0:
52,53,33775,1,0,0:0:0:0:
84,55,33853,1,0,0:0:0:0:
288,255,34007,5,0,0:0:0:0:
241,287,34085,1,0,0:0:0:0:
185,289,34162,1,0,0:0:0:0:
137,260,34239,1,0,0:0:0:0:
111,210,34317,1,0,0:0:0:0:
117,154,34394,1,0,0:0:0:0:
152,110,34471,6,0,L|271:118,1,112.500004291535
264,117,34703,1,0,0:0:0:0:
264,117,34781,1,0,0:0:0:0:
349,344,34935,1,0,0:0:0:0:
361,83,35090,1,0,0:0:0:0:
88,172,35245,1,0,0:0:0:0:
322,341,35399,1,0,0:0:0:0:
449,115,35554,6,0,P|451:60|424:12,1,112.500004291535
163,207,35863,2,0,L|171:331,1,112.500004291535
353,85,36172,1,0,0:0:0:0:
461,251,36327,2,0,L|453:368,1,112.500004291535
181,226,36636,1,0,0:0:0:0:
421,177,36791,1,0,0:0:0:0:
95,178,36946,6,0,L|102:290,1,112.500004291535
84,331,37178,1,0,0:0:0:0:
128,326,37255,1,0,0:0:0:0:
400,305,37410,1,0,0:0:0:0:
224,91,37564,2,0,P|271:63|326:68,1,112.500004291535
411,320,37873,1,0,0:0:0:0:
412,20,38028,2,0,P|466:27|506:66,1,112.500004291535
221,189,38337,1,0,0:0:0:0:
227,67,38492,5,0,0:0:0:0:
248,343,38647,1,0,0:0:0:0:
148,96,38801,1,0,0:0:0:0:
147,323,38956,1,0,0:0:0:0:
76,49,39111,1,0,0:0:0:0:
55,325,39266,1,0,0:0:0:0:
324,279,39415,5,0,0:0:0:0:
332,284,39724,2,0,P|391:287|431:270,1,75
258,109,40033,2,0,L|253:183,1,75
358,114,40342,1,0,0:0:0:0:
172,83,40497,1,0,0:0:0:0:
326,244,40652,5,0,0:0:0:0:
232,24,40806,1,0,0:0:0:0:
92,305,40961,1,0,0:0:0:0:
416,272,41116,1,0,0:0:0:0:
126,58,41270,5,0,0:0:0:0:
170,359,41425,1,0,0:0:0:0:
443,145,41579,1,0,0:0:0:0:
45,215,41734,1,0,0:0:0:0:
266,162,45489,5,0,0:0:0:0:
353,316,45639,1,0,0:0:0:0:
353,157,45789,1,0,0:0:0:0:
264,314,45939,1,0,0:0:0:0:
403,237,46089,1,0,0:0:0:0:
403,237,46164,1,0,0:0:0:0:
403,237,46239,2,0,L|466:220,1,37.5
469,141,46389,2,0,L|433:151,1,37.5
476,250,46539,2,0,L|539:233,1,37.5
511,102,46689,6,0,L|450:119,1,63.7500012159348
288,153,46989,2,0,P|285:122|291:91,1,63.7500012159348
389,176,47289,1,0,0:0:0:0:
194,156,47439,1,0,0:0:0:0:
99,217,47589,2,0,L|102:299,1,63.7500012159348
244,337,47889,6,0,P|234:288|213:264,1,63.7500012159348
155,352,48189,1,0,0:0:0:0:
365,333,48339,1,0,0:0:0:0:
309,265,48489,2,0,L|308:202,1,63.7500012159348
400,104,48789,2,0,L|398:178,1,63.7500012159348
298,57,49089,5,0,0:0:0:0:
494,26,49239,1,0,0:0:0:0:
494,26,49389,1,0,0:0:0:0:
231,7,49539,6,0,P|217:36|215:68,1,63.7500012159348
302,187,49839,1,0,0:0:0:0:
111,129,49989,1,0,0:0:0:0:
111,129,50139,1,0,0:0:0:0:
45,242,50289,6,0,L|116:239,1,63.7500012159348
322,264,50589,2,0,L|258:266,1,63.7500012159348
369,142,50889,2,0,P|385:169|387:200,1,63.7500012159348
182,275,51189,2,0,P|184:243|200:216,1,63.7500012159348
220,356,51489,6,0,L|90:349,1,112.5
90,356,51789,2,0,P|69:326|67:289,1,75
210,202,52089,1,0,0:0:0:0:
151,129,52239,1,0,0:0:0:0:
151,129,52314,1,0,0:0:0:0:
151,129,52389,1,0,0:0:0:0:
174,280,52539,1,0,0:0:0:0:
52,128,52689,6,0,P|59:91|78:59,1,75
200,202,52989,1,0,0:0:0:0:
4,195,53139,1,0,0:0:0:0:
175,122,53289,1,0,0:0:0:0:
149,325,53439,1,0,0:0:0:0:
0,284,53589,2,0,L|82:288,1,75
228,302,53889,5,0,0:0:0:0:
304,52,54039,2,0,L|311:141,1,75
321,330,54339,2,0,L|315:255,2,75
457,285,54789,1,0,0:0:0:0:
271,186,54939,2,0,P|306:174|342:179,1,75
219,363,55239,2,0,L|213:288,1,75
103,156,55539,1,0,0:0:0:0:
99,179,55614,1,0,0:0:0:0:
82,194,55689,5,0,0:0:0:0:
83,216,55764,1,0,0:0:0:0:
84,238,55839,1,0,0:0:0:0:
85,260,55914,1,0,0:0:0:0:
70,294,55989,1,0,0:0:0:0:
105,281,56064,1,0,0:0:0:0:
142,286,56139,1,0,0:0:0:0:
176,299,56214,1,0,0:0:0:0:
204,323,56289,6,0,P|244:340|289:337,1,89.9999972534181
375,190,56589,2,0,L|364:96,1,89.9999972534181
412,338,56889,1,0,0:0:0:0:
289,249,57039,1,0,0:0:0:0:
455,123,57189,1,0,0:0:0:0:
471,294,57339,6,0,P|408:281|380:249,1,89.9999972534181
465,119,57639,1,0,0:0:0:0:
285,92,57789,1,0,0:0:0:0:
475,115,57939,1,0,0:0:0:0:
229,149,58089,2,0,L|225:245,1,89.9999972534181
224,261,58314,1,0,0:0:0:0:
223,283,58389,1,0,0:0:0:0:
86,349,58539,1,0,0:0:0:0:
309,315,58689,5,0,0:0:0:0:
117,260,58839,1,0,0:0:0:0:
117,260,58989,1,0,0:0:0:0:
331,202,59139,1,0,0:0:0:0:
172,329,59289,1,0,0:0:0:0:
172,329,59439,1,0,0:0:0:0:
309,109,59589,1,0,0:0:0:0:
267,353,59739,6,0,P|319:353|355:321,1,89.9999972534181
371,169,60039,2,0,P|397:123|387:76,1,89.9999972534181
208,29,60339,2,0,L|215:129,1,89.9999972534181
110,96,60639,1,0,0:0:0:0:
310,30,60789,1,0,0:0:0:0:
38,49,60939,1,0,0:0:0:0:
119,274,61089,6,0,P|163:274|199:249,1,89.9999972534181
32,66,61389,1,0,0:0:0:0:
0,280,61539,2,0,P|21:318|61:337,1,89.9999972534181
113,52,61839,1,0,0:0:0:0:
282,298,61989,2,0,L|271:189,1,89.9999972534181
194,38,62289,5,0,0:0:0:0:
344,140,62439,1,0,0:0:0:0:
192,320,62589,1,0,0:0:0:0:
447,262,62739,2,0,P|389:236|355:244,1,89.9999972534181
152,218,63039,2,0,P|100:255|90:288,1,89.9999972534181
318,367,63339,1,0,0:0:0:0:
192,122,63489,5,0,0:0:0:0:
170,353,63639,1,0,0:0:0:0:
170,353,63789,1,0,0:0:0:0:
64,81,63939,1,0,0:0:0:0:
86,312,64089,1,0,0:0:0:0:
86,312,64239,1,0,0:0:0:0:
182,24,64389,1,0,0:0:0:0:
160,255,64539,1,0,0:0:0:0:
347,67,64689,6,0,P|292:58|261:73,1,89.9999972534181
158,269,64989,1,0,0:0:0:0:
418,267,65139,2,0,L|424:150,1,89.9999972534181
435,23,65439,1,0,0:0:0:0:
329,165,65589,1,0,0:0:0:0:
499,104,65739,1,0,0:0:0:0:
278,93,65889,6,0,P|245:146|252:195,1,89.9999972534181
244,171,66114,1,0,0:0:0:0:
244,171,66189,1,0,0:0:0:0:
181,55,66339,1,0,0:0:0:0:
215,263,66489,1,0,0:0:0:0:
125,109,66639,1,0,0:0:0:0:
341,163,66789,2,0,L|326:271,1,89.9999972534181
256,82,67089,5,0,0:0:0:0:
283,328,67239,1,0,0:0:0:0:
416,209,67389,1,0,0:0:0:0:
255,74,67539,1,0,0:0:0:0:
134,299,67689,6,0,P|192:298|235:258,1,89.9999972534181
256,90,67989,1,0,0:0:0:0:
289,337,68139,1,0,0:0:0:0:
438,123,68289,6,0,L|334:119,1,89.9999972534181
348,119,68514,1,0,0:0:0:0:
348,119,68589,1,0,0:0:0:0:
96,113,68739,1,0,0:0:0:0:
117,279,68889,5,0,0:0:0:0:
163,58,69039,1,0,0:0:0:0:
40,188,69189,1,0,0:0:0:0:
207,246,69339,2,0,P|279:247|308:223,1,89.9999972534181
151,61,69639,2,0,L|157:164,1,89.9999972534181
367,280,69939,2,0,P|403:218|397:181,1,89.9999972534181
245,170,70239,1,0,0:0:0:0:
273,349,70389,1,0,0:0:0:0:
322,121,70539,1,0,0:0:0:0:
140,81,70689,6,0,P|136:125|155:165,1,89.9999972534181
229,44,70989,1,0,0:0:0:0:
47,120,71139,1,0,0:0:0:0:
221,239,71289,1,0,0:0:0:0:
230,29,71439,1,0,0:0:0:0:
37,131,71589,1,0,0:0:0:0:
285,139,71739,6,0,P|311:104|312:60,1,89.9999972534181
421,119,72039,1,0,0:0:0:0:
201,179,72189,1,0,0:0:0:0:
123,20,72339,2,0,L|226:25,1,89.9999972534181
294,225,72639,1,0,0:0:0:0:
82,192,72789,2,0,P|85:147|107:109,1,89.9999972534181
421,247,73089,5,0,0:0:0:0:
189,300,73239,1,0,0:0:0:0:
290,102,73389,1,0,0:0:0:0:
369,321,73539,1,0,0:0:0:0:
125,252,73689,5,0,0:0:0:0:
330,33,73839,1,0,0:0:0:0:
448,299,73989,1,0,0:0:0:0:
235,215,74139,1,0,0:0:0:0:
393,72,74289,6,0,P|463:86|493:121,1,97.4999955368044
496,133,74514,1,0,0:0:0:0:
494,168,74589,1,0,0:0:0:0:
221,85,74739,1,0,0:0:0:0:
244,59,74814,1,0,0:0:0:0:
276,49,74889,1,0,0:0:0:0:
357,274,75039,5,0,0:0:0:0:
313,276,75114,1,0,0:0:0:0:
279,249,75189,1,0,0:0:0:0:
270,206,75264,1,0,0:0:0:0:
290,167,75339,1,0,0:0:0:0:
331,151,75414,1,0,0:0:0:0:
373,164,75489,1,0,0:0:0:0:
359,178,77739,5,0,0:0:0:0:
357,192,77814,1,0,0:0:0:0:
355,206,77889,1,0,0:0:0:0:
354,221,78189,5,0,0:0:0:0:
401,300,78339,2,0,P|363:314|322:307,1,84.3750032186509
315,303,78639,2,0,P|288:301|260:307,1,56.2500021457673
184,356,78939,1,0,0:0:0:0:
184,356,79014,1,0,0:0:0:0:
184,356,79089,6,0,P|156:358|128:352,1,56.2500021457673
75,291,79389,1,0,0:0:0:0:
89,188,79539,1,0,0:0:0:0:
87,303,79689,1,0,0:0:0:0:
78,177,79839,1,0,0:0:0:0:
70,311,79989,1,0,0:0:0:0:
91,175,80139,1,0,0:0:0:0:
91,175,80214,1,0,0:0:0:0:
91,175,80289,5,0,0:0:0:0:
169,214,80889,2,0,P|210:227|310:137,1,168.750006437302
292,87,81489,2,0,P|301:129|429:170,1,168.750006437302
452,118,82089,2,0,L|440:291,1,168.750006437302
512,384,82689,6,0,P|461:361|405:366,1,112.500004291535
334,315,83139,2,0,L|269:320,1,63.7500012159348
123,237,83439,2,0,L|207:243,1,71.2499980974198
281,173,83739,1,0,0:0:0:0:
281,173,84339,6,0,L|286:113,1,37.5
200,149,84489,2,0,L|195:89,1,37.5
228,235,84639,1,0,0:0:0:0:
228,235,84789,1,0,0:0:0:0:
225,249,85089,5,0,0:0:0:0:
63,217,85239,1,0,0:0:0:0:
164,93,85389,2,0,P|179:126|180:164,1,75
52,225,85689,1,0,0:0:0:0:
267,169,85839,1,0,0:0:0:0:
373,225,85989,2,0,L|368:314,1,75
433,109,86289,5,0,0:0:0:0:
288,257,86439,1,0,0:0:0:0:
131,125,86589,2,0,P|196:119|219:128,1,75
103,216,86889,1,0,0:0:0:0:
267,65,87039,1,0,0:0:0:0:
306,254,87189,2,0,L|301:344,1,75
372,191,87489,6,0,P|302:166|236:196,1,150
414,357,87939,2,0,L|409:282,1,75
460,60,88239,2,0,L|455:134,1,75
345,223,88539,6,0,P|414:201|480:234,1,150
276,357,88989,1,0,0:0:0:0:
296,152,89139,1,0,0:0:0:0:
110,248,89289,2,0,P|119:310|153:338,1,75
274,76,89589,2,0,P|224:114|217:158,1,75
297,270,89889,5,0,0:0:0:0:
376,131,90039,1,0,0:0:0:0:
380,316,90189,1,0,0:0:0:0:
299,159,90339,1,0,0:0:0:0:
470,293,90489,1,0,0:0:0:0:
281,282,90639,1,0,0:0:0:0:
391,127,90789,1,0,0:0:0:0:
214,119,90939,1,0,0:0:0:0:
262,312,91089,5,0,0:0:0:0:
278,69,91239,1,0,0:0:0:0:
129,263,91389,1,0,0:0:0:0:
394,250,91539,1,0,0:0:0:0:
107,176,91689,1,0,0:0:0:0:
383,157,91839,1,0,0:0:0:0:
73,102,91989,1,0,0:0:0:0:
355,51,92139,1,0,0:0:0:0:
141,331,92289,5,0,0:0:0:0:
185,49,92439,1,0,0:0:0:0:
185,49,92589,1,0,0:0:0:0:
221,356,92739,1,0,0:0:0:0:
265,74,92889,1,0,0:0:0:0:
265,74,93039,1,0,0:0:0:0:
303,346,93189,1,0,0:0:0:0:
347,64,93339,1,0,0:0:0:0:
37,219,93489,5,0,0:0:0:0:
389,368,93639,1,0,0:0:0:0:
221,0,93789,1,0,0:0:0:0:
353,0,94689,6,0,L|365:138,1,112.500004291535
270,187,94989,1,0,0:0:0:0:
438,56,95139,1,0,0:0:0:0:
451,258,95289,2,0,P|396:257|349:228,1,112.500004291535
447,47,95589,1,0,0:0:0:0:
184,192,95739,6,0,B|171:237|171:237|203:361,1,168.750006437302
259,301,96039,2,0,P|208:278|154:289,1,112.500004291535
390,384,96339,1,0,0:0:0:0:
323,138,96489,1,0,0:0:0:0:
73,228,96639,1,0,0:0:0:0:
404,178,96789,1,0,0:0:0:0:
249,309,96939,1,0,0:0:0:0:
78,144,97089,6,0,P|124:113|179:117,1,112.500004291535
344,200,97389,1,0,0:0:0:0:
181,356,97539,1,0,0:0:0:0:
73,160,97689,2,0,L|68:45,1,112.500004291535
187,345,97989,1,0,0:0:0:0:
12,224,98139,6,0,P|77:176|155:198,1,168.750006437302
223,248,98439,1,0,0:0:0:0:
223,248,98514,1,0,0:0:0:0:
223,248,98589,2,0,P|293:251|342:209,1,112.500004291535
377,75,98889,5,0,0:0:0:0:
326,339,99039,1,0,0:0:0:0:
449,139,99189,1,0,0:0:0:0:
152,96,99339,1,0,0:0:0:0:
137,343,99489,6,0,P|203:350|251:319,1,112.500004291535
71,141,99789,2,0,L|83:266,1,112.500004291535
75,37,100089,1,0,0:0:0:0:
306,145,100239,1,0,0:0:0:0:
75,263,100389,1,0,0:0:0:0:
374,93,100539,6,0,P|326:66|271:71,1,112.500004291535
181,283,100839,1,0,0:0:0:0:
191,53,100989,1,0,0:0:0:0:
274,244,101139,1,0,0:0:0:0:
0,231,101289,2,0,L|131:215,1,112.500004291535
194,66,101589,1,0,0:0:0:0:
339,183,101739,1,0,0:0:0:0:
180,362,101889,6,0,P|177:290|210:247,1,112.500004291535
197,257,102114,1,0,0:0:0:0:
197,257,102189,1,0,0:0:0:0:
423,232,102339,1,0,0:0:0:0:
423,232,102414,1,0,0:0:0:0:
423,232,102489,1,0,0:0:0:0:
155,188,102639,1,0,0:0:0:0:
324,369,102789,1,0,0:0:0:0:
389,137,102939,1,0,0:0:0:0:
136,192,103089,5,0,0:0:0:0:
263,20,103239,2,0,P|333:28|370:62,1,112.500004291535
48,175,103539,2,0,P|89:118|137:103,1,112.500004291535
177,116,103764,1,0,0:0:0:0:
214,150,103839,1,0,0:0:0:0:
146,304,103989,5,0,0:0:0:0:
191,281,104064,1,0,0:0:0:0:
241,280,104139,1,0,0:0:0:0:
286,301,104214,1,0,0:0:0:0:
320,338,104289,6,0,P|389:348|437:313,1,112.500004291535
305,152,104589,1,0,0:0:0:0:
417,43,104739,1,0,0:0:0:0:
512,238,104889,2,0,L|507:358,1,112.500004291535
315,142,105189,1,0,0:0:0:0:
97,295,105339,6,0,B|142:277|142:277|305:297,1,168.750006437302
341,313,105639,1,0,0:0:0:0:
341,313,105714,1,0,0:0:0:0:
341,311,105789,2,0,P|333:257|293:219,1,112.500004291535
136,205,106089,1,0,0:0:0:0:
379,170,106239,1,0,0:0:0:0:
165,19,106389,2,0,L|175:140,1,112.500004291535
111,350,106689,6,0,P|165:359|216:336,1,112.500004291535
296,129,106989,1,0,0:0:0:0:
315,346,107139,1,0,0:0:0:0:
92,269,107289,1,0,0:0:0:0:
307,135,107439,1,0,0:0:0:0:
327,353,107589,1,0,0:0:0:0:
360,72,107739,1,0,0:0:0:0:
360,72,108039,1,0,0:0:0:0:
360,72,108114,1,0,0:0:0:0:
360,72,108189,5,0,0:0:0:0:
390,271,108339,1,0,0:0:0:0:
216,118,108489,2,0,P|288:121|318:153,1,112.500004291535
148,333,108789,2,0,L|138:218,1,112.500004291535
60,107,109089,5,0,0:0:0:0:
216,43,109239,1,0,0:0:0:0:
77,74,109389,1,0,0:0:0:0:
242,38,109539,1,0,0:0:0:0:
100,45,109689,1,0,0:0:0:0:
269,38,109839,1,0,0:0:0:0:
128,20,109989,1,0,0:0:0:0:
313,106,110139,1,0,0:0:0:0:
426,62,110289,5,0,0:0:0:0:
413,205,110439,1,0,0:0:0:0:
429,77,110589,1,0,0:0:0:0:
443,234,110739,1,0,0:0:0:0:
421,96,110889,1,0,0:0:0:0:
405,268,111039,1,0,0:0:0:0:
434,127,111189,1,0,0:0:0:0:
454,330,111339,1,0,0:0:0:0:
309,281,111489,5,0,0:0:0:0:
88,330,111639,1,0,0:0:0:0:
260,217,111789,1,0,0:0:0:0:
98,316,111939,1,0,0:0:0:0:
266,117,112089,1,0,0:0:0:0:
107,307,112239,1,0,0:0:0:0:
107,307,112314,1,0,0:0:0:0:
107,307,112389,1,0,0:0:0:0:
190,46,112539,1,0,0:0:0:0:
185,341,112689,5,0,0:0:0:0:
198,340,113439,2,0,L|268:333,2,56.2500021457673
178,344,113889,5,0,0:0:0:0:
316,246,114039,1,0,0:0:0:0:
407,319,114189,1,0,0:0:0:0:
415,329,114339,5,0,0:0:0:0:
306,162,114489,1,0,0:0:0:0:
169,357,114639,1,0,0:0:0:0:
176,364,114789,5,0,0:0:0:0:
322,86,114939,1,0,0:0:0:0:
424,334,115089,1,0,0:0:0:0:
431,348,115239,5,0,0:0:0:0:
259,158,115389,1,0,0:0:0:0:
338,354,115539,1,0,0:0:0:0:
325,102,115689,1,0,0:0:0:0:
440,187,115839,5,0,0:0:0:0:
221,278,115989,1,0,0:0:0:0:
110,128,116139,1,0,0:0:0:0:
329,219,116289,5,0,0:0:0:0:
168,358,116439,1,0,0:0:0:0:
56,303,116589,1,0,0:0:0:0:
267,84,116739,5,0,0:0:0:0:
269,296,116889,1,0,0:0:0:0:
155,347,117039,1,0,0:0:0:0:
134,31,117189,5,0,0:0:0:0:
297,165,117339,1,0,0:0:0:0:
65,205,117489,1,0,0:0:0:0:
424,194,117639,5,0,0:0:0:0:
49,198,117789,1,0,0:0:0:0:
